osu file format v14

[General]
AudioFilename: .mp3
AudioLeadIn: 0
PreviewTime: 21920
Countdown: 0
SampleSet: Soft
StackLeniency: 0.7
Mode: 0
LetterboxInBreaks: 1
WidescreenStoryboard: 0

[Editor]
DistanceSpacing: 0.5
BeatDivisor: 4
GridSize: 4
TimelineZoom: 1

[Metadata]
Title:Kogitsune no Ran
TitleUnicode:弧ギツネの乱
Artist:Hanatan
ArtistUnicode:花たん
Creator:Awaken
Version:Kitsune
Source:
Tags:vocaloid marasy
BeatmapID:636369
BeatmapSetID:278875

[Difficulty]
HPDrainRate:7
CircleSize:4
OverallDifficulty:8
ApproachRate:9
SliderMultiplier:1.9
SliderTickRate:1

[Events]
//Background and Video events
0,0,"BG.jpg",0,0
//Break Periods
2,172735,175628
//Storyboard Layer 0 (Background)
//Storyboard Layer 1 (Fail)
//Storyboard Layer 2 (Pass)
//Storyboard Layer 3 (Foreground)
//Storyboard Sound Samples

[TimingPoints]
755,300,4,2,2,50,1,0
755,-133.333333333333,4,2,3,50,0,0
21305,307.692307692308,4,2,0,60,1,0
21458,-100,4,2,0,50,0,0
21612,-100,4,2,0,40,0,0
21689,-100,4,2,0,35,0,0
21766,-100,4,2,0,30,0,0
21843,-100,4,2,0,25,0,0
21920,-100,4,2,0,30,0,0
22074,-100,4,2,0,40,0,0
22228,-83.3333333333333,4,2,0,40,0,0
22535,-100,4,2,2,70,0,0
33458,-100,4,2,3,70,0,0
34689,-80,4,2,2,70,0,0
35151,-100,4,2,2,70,0,0
54843,-133.333333333333,4,2,3,50,0,0
55305,-66.6666666666667,4,2,3,60,0,0
55612,-100,4,2,3,60,0,0
56074,-133.333333333333,4,2,3,50,0,0
56535,-200,4,2,3,60,0,0
57151,-133.333333333333,4,2,3,50,0,0
58074,-133.333333333333,4,2,3,60,0,0
58997,-100,4,2,2,70,0,0
59458,-125,4,2,2,70,0,0
63766,-100,4,2,2,70,0,0
64381,-100,4,2,2,70,0,1
71766,-86.9565217391304,4,2,2,70,0,1
74228,-100,4,2,2,70,0,1
81612,-100,4,2,2,70,0,0
85151,-100,4,2,3,70,0,0
88535,-200,4,2,3,20,0,0
88843,-200,4,2,3,30,0,0
90381,-200,4,2,3,20,0,0
90843,-200,4,2,3,30,0,0
93920,-200,4,2,3,20,0,0
95766,-100,4,2,2,70,0,0
106535,-133.333333333333,4,2,3,70,0,0
106997,-66.6666666666667,4,2,3,70,0,0
107305,-100,4,2,3,70,0,0
107766,-133.333333333333,4,2,3,70,0,0
108228,-200,4,2,3,70,0,0
108843,-133.333333333333,4,2,3,70,0,0
110689,-100,4,2,2,70,0,0
111151,-125,4,2,2,70,0,0
116074,-100,4,2,2,70,0,1
123458,-86.9565217391304,4,2,2,70,0,1
125920,-100,4,2,2,70,0,1
133305,-100,4,2,2,70,0,0
142612,-133.333333333333,4,2,3,70,0,0
143151,-200,4,2,3,40,0,0
148381,-133.333333333333,4,2,2,50,0,0
152997,-100,4,2,2,60,0,0
177612,-125,4,2,2,60,0,0
182535,-100,4,2,2,60,0,0
184997,-100,4,2,2,70,0,1
192381,-86.9565217391304,4,2,2,70,0,1
194843,-100,4,2,2,70,0,1
202228,-100,4,2,2,70,0,0

[Colours]
Combo1 : 255,255,0
Combo2 : 255,0,0
Combo3 : 255,128,0
Combo4 : 0,128,255

[HitObjects]
112,80,755,6,0,L|124:184,1,71.2500027179719
208,196,1055,1,2,0:0:0:0:
144,288,1205,1,0,0:0:0:0:
280,344,1355,2,0,L|272:264,1,71.2500027179719,2|0,0:0|0:0,0:0:0:0:
208,196,1655,1,2,0:0:0:0:
144,288,1805,1,0,0:0:0:0:
288,356,1955,6,0,P|344:348|436:340,1,142.500005435944,2|0,0:0|0:0,0:0:0:0:
420,164,2405,1,2,0:0:0:0:
348,116,2555,1,2,0:0:0:0:
348,116,2630,1,2,0:0:0:0:
348,115,2705,2,0,P|336:149|339:184,1,71.2500027179719,0|2,0:0|0:0,0:0:0:0:
440,168,3005,1,0,0:0:0:0:
328,76,3155,6,0,P|292:148|311:220,1,142.500005435944,2|2,0:0|0:0,0:0:0:0:
432,292,3605,1,2,0:0:0:0:
432,292,3755,2,0,L|352:284,2,71.2500027179719,0|2|0,0:0|0:0|0:0,0:0:0:0:
300,360,4205,1,0,0:0:0:0:
232,244,4355,6,0,P|200:288|208:372,1,142.500005435944,2|0,0:0|0:0,0:0:0:0:
384,176,4805,2,0,L|304:168,1,71.2500027179719,2|2,0:0|0:0,0:0:0:0:
313,168,5030,1,0,0:0:0:0:
313,168,5105,1,0,0:0:0:0:
156,184,5255,5,2,0:0:0:0:
168,196,5555,6,0,P|192:156|176:64,1,142.500005435944,2|0,0:0|0:0,0:0:0:0:
36,48,6005,2,0,L|-8:44,4,35.625001358986,2|0|0|0|0,0:0|0:0|0:0|0:0|0:0,0:0:0:0:
80,132,6455,2,0,L|62:172,4,35.625001358986,2|0|0|0|0,0:0|0:0|0:0|0:0|0:0,0:0:0:0:
176,108,6905,2,0,L|209:137,4,35.625001358986,2|0|0|0|0,0:0|0:0|0:0|0:0|0:0,0:0:0:0:
268,212,7355,6,0,L|412:204,2,142.500005435944,2|2|2,0:0|0:0|0:0,0:0:0:0:
268,212,8405,2,0,L|260:264,3,35.625001358986,2|0|0|0,0:0|0:0|0:0|0:0,0:0:0:0:
188,248,8705,2,0,L|196:300,4,35.625001358986,2|0|0|0|0,0:0|0:0|0:0|0:0|0:0,0:0:0:0:
252,348,9155,6,0,B|296:344|296:344|344:356|344:356|400:348,1,142.500005435944,2|2,0:0|0:0,0:0:0:0:
460,272,9605,2,0,L|448:200,1,71.2500027179719,0|2,0:0|0:0,0:0:0:0:
380,148,9905,2,0,P|416:120|460:124,1,71.2500027179719,0|2,0:0|0:0,0:0:0:0:
372,252,10205,1,0,0:0:0:0:
372,252,10355,6,0,L|228:240,1,142.500005435944,2|0,0:0|0:0,0:0:0:0:
60,176,10805,2,0,P|100:156|172:172,1,106.875004076958,2|2,0:0|0:0,0:0:0:0:
176,180,11105,2,0,L|184:268,1,71.2500027179719,2|2,0:0|0:0,0:0:0:0:
188,336,11405,1,0,0:0:0:0:
284,360,11555,5,0,0:0:0:0:
352,284,11705,1,0,0:0:0:0:
344,256,11780,1,0,0:0:0:0:
352,228,11855,1,0,0:0:0:0:
364,200,11930,1,0,0:0:0:0:
376,176,12005,2,0,L|416:248,1,71.2500027179719,2|0,0:0|0:0,0:0:0:0:
468,312,12305,5,0,0:0:0:0:
504,228,12455,1,2,0:0:0:0:
504,228,12755,6,0,L|344:248,1,142.500005435944,2|2,0:0|0:0,0:0:0:0:
268,256,13205,1,2,0:0:0:0:
252,284,13505,2,0,L|208:276,9,23.7500009059906,2|2|2|2|2|2|2|2|2|2,0:0|0:0|0:0|0:0|0:0|0:0|0:0|0:0|0:0|0:0,0:0:0:0:
184,348,14105,5,2,0:0:0:0:
108,308,14255,1,0,0:0:0:0:
28,344,14405,1,2,0:0:0:0:
12,260,14555,1,0,0:0:0:0:
44,180,14705,1,2,0:0:0:0:
76,100,14855,1,0,0:0:0:0:
76,100,15005,1,0,0:0:0:0:
128,168,15155,6,0,P|176:184|256:120,1,142.500005435944,2|0,0:0|0:0,0:0:0:0:
268,56,15605,2,0,L|304:228,1,142.500005435944,2|0,0:0|0:0,0:0:0:0:
297,195,16055,1,0,0:0:0:0:
360,252,16205,6,0,L|400:248,3,35.625001358986,2|0|0|0,0:0|0:0|0:0|0:0,0:0:0:0:
336,292,16505,2,0,L|296:296,2,35.625001358986,2|0|0,0:0|0:0|0:0,0:0:0:0:
192,348,16805,6,0,L|228:352,3,35.625001358986,2|0|0|0,0:0|0:0|0:0|0:0,0:0:0:0:
156,320,17105,2,0,L|120:323,3,35.625001358986,2|0|0|0,0:0|0:0|0:0|0:0,0:0:0:0:
216,272,17405,1,2,0:0:0:0:
216,272,17480,1,0,0:0:0:0:
216,272,17555,6,0,P|236:224|184:144,1,142.500005435944,2|0,0:0|0:0,0:0:0:0:
44,132,18005,1,0,0:0:0:0:
44,132,18155,2,0,L|120:108,1,71.2500027179719,2|0,0:0|0:0,0:0:0:0:
280,140,18455,2,0,L|204:164,1,71.2500027179719,2|0,0:0|0:0,0:0:0:0:
352,260,18755,6,0,P|408:268|468:208,1,142.500005435944,2|0,0:0|0:0,0:0:0:0:
408,60,19205,1,2,0:0:0:0:
388,184,19355,1,0,0:0:0:0:
324,128,19505,5,2,0:0:0:0:
248,224,19655,5,2,0:0:0:0:
180,144,19805,1,0,0:0:0:0:
108,300,19955,1,2,0:0:0:0:
196,204,21305,5,2,0:0:0:0:
242,210,21381,1,2,0:0:0:0:
283,189,21458,1,2,0:0:0:0:
305,147,21535,1,2,0:0:0:0:
299,101,21612,1,2,0:0:0:0:
268,66,21689,1,2,0:0:0:0:
222,56,21766,1,2,0:0:0:0:
179,74,21843,1,2,0:0:0:0:
154,113,21920,6,0,L|160:176,1,47.5,2|0,0:0|0:0,0:0:0:0:
76,184,22074,2,0,L|97:242,1,47.5,2|0,0:0|0:0,0:0:0:0:
136,328,22228,2,0,P|212:304|296:360,1,170.999994781494
384,360,22535,6,0,P|376:313|374:265,1,95,4|0,0:0|0:0,0:0:0:0:
232,136,22843,2,0,P|224:182|222:230,1,95,8|0,0:0|0:0,0:0:0:0:
416,172,23151,1,0,0:0:0:0:
296,64,23305,1,0,0:0:0:0:
256,212,23458,1,8,0:0:0:0:
423,77,23612,6,0,L|416:172,1,95
352,284,23920,1,0,0:0:0:0:
196,160,24074,2,0,P|248:132|296:148,1,95,8|0,0:0|0:0,0:0:0:0:
412,336,24381,2,0,P|360:364|312:348,1,95
72,218,24689,6,0,B|140:204|140:204|196:224|196:224|256:212,1,190,8|0,0:0|0:0,0:0:0:0:
156,376,25151,2,0,P|136:333|133:285,1,95,0|8,0:0|0:0,0:0:0:0:
260,120,25458,1,0,0:0:0:0:
352,284,25612,2,0,P|312:308|261:306,1,95
160,192,25920,1,8,0:0:0:0:
200,60,26074,6,0,P|240:36|290:37,1,95
328,184,26381,2,0,P|288:208|237:206,1,95,0|8,0:0|0:0,0:0:0:0:
132,112,26689,1,0,0:0:0:0:
316,48,26843,1,0,0:0:0:0:
276,252,26997,1,0,0:0:0:0:
156,132,27151,5,8,0:0:0:0:
304,104,27305,1,0,0:0:0:0:
236,248,27458,6,0,B|180:240|180:240|120:280|36:236,1,190,4|8,0:0|0:0,0:0:0:0:
40,128,27920,1,0,0:0:0:0:
219,75,28074,2,0,P|240:118|233:164,1,95
67,333,28381,2,0,P|46:290|53:244,1,95,12|0,0:0|0:0,0:0:0:0:
304,204,28689,5,8,0:0:0:0:
204,356,28843,1,0,0:0:0:0:
196,332,28920,1,0,0:0:0:0:
188,308,28997,1,0,0:0:0:0:
132,144,29151,5,8,0:0:0:0:
280,244,29305,1,0,0:0:0:0:
120,340,29458,5,0,0:0:0:0:
112,293,29534,1,0,0:0:0:0:
133,252,29611,1,8,0:0:0:0:
174,230,29688,1,8,0:3:0:0:
220,236,29765,1,8,0:3:0:0:
254,268,29842,1,8,0:3:0:0:
272,312,29920,5,12,0:0:0:0:
40,240,30074,1,8,0:0:0:0:
344,284,30381,5,8,0:0:0:0:
212,380,30535,1,8,0:0:0:0:
160,92,30843,5,8,0:0:0:0:
188,308,30997,1,8,0:0:0:0:
40,240,31305,5,8,0:0:0:0:
272,312,31458,1,8,0:0:0:0:
304,40,31766,5,12,0:0:0:0:
260,288,31920,1,8,0:0:0:0:
192,96,32228,5,8,0:0:0:0:
140,244,32382,1,8,0:0:0:0:
172,128,32689,5,12,0:0:0:0:
140,360,32843,1,8,0:0:0:0:
52,224,33151,5,8,0:0:0:0:
172,276,33305,1,8,0:0:0:0:
172,276,33381,1,0,0:0:0:0:
172,276,33458,5,8,0:0:0:0:
374,192,33766,5,8,0:0:0:0:
172,107,34074,5,8,0:0:0:0:
340,276,34381,5,8,0:0:0:0:
256,73,34689,6,0,B|300:92|300:92|328:64|328:64|396:104|484:64,1,237.5,4|0,0:0|0:0,0:0:0:0:
276,184,35151,2,0,L|176:196,1,95,8|0,0:0|0:0,0:0:0:0:
340,276,35458,1,0,0:0:0:0:
416,164,35612,1,0,0:0:0:0:
256,72,35766,1,8,0:0:0:0:
428,184,35920,6,0,P|460:144|416:20,1,190
276,184,36381,1,8,0:0:0:0:
292,348,36535,2,0,P|336:364|392:348,1,95
196,148,36843,1,0,0:0:0:0:
192,176,36920,1,0,0:0:0:0:
188,204,36997,1,0,0:0:0:0:
184,232,37074,1,0,0:0:0:0:
180,260,37151,6,0,B|172:308|172:308|120:168,1,190,4|0,0:0|0:0,0:0:0:0:
216,16,37612,1,8,0:0:0:0:
196,148,37766,1,0,0:0:0:0:
96,64,37920,5,0,0:0:0:0:
288,112,38074,1,0,0:0:0:0:
104,192,38228,1,8,0:0:0:0:
264,276,38381,1,0,0:0:0:0:
96,376,38535,6,0,P|84:320|76:268,1,95
357,258,38843,2,0,P|301:270|249:278,1,95,8|0,0:0|0:0,0:0:0:0:
44,136,39151,2,0,P|92:112|160:128,1,95
184,296,39458,1,8,0:0:0:0:
104,192,39612,1,0,0:0:0:0:
104,192,39689,1,0,0:0:0:0:
104,192,39766,6,0,P|136:152|284:152,1,190,4|8,0:0|0:0,0:0:0:0:
464,152,40228,1,0,0:0:0:0:
448,296,40381,2,0,L|236:276,1,190,0|8,0:0|0:0,0:0:0:0:
357,258,40843,1,0,0:0:0:0:
220,368,40997,6,0,P|160:372|112:332,1,95
200,172,41305,1,8,0:0:0:0:
200,172,41381,1,0,0:0:0:0:
200,172,41458,2,0,P|260:168|308:208,1,95
428,212,41766,1,0,0:0:0:0:
332,352,41920,1,8,0:0:0:0:
236,240,42074,1,0,0:0:0:0:
352,120,42228,6,0,L|336:320,1,190,4|8,0:0|0:0,0:0:0:0:
160,244,42689,1,8,0:0:0:0:
420,372,42843,2,0,P|428:320|432:268,1,95
248,64,43151,2,0,P|240:116|236:168,1,95,8|0,0:0|0:0,0:0:0:0:
280,316,43458,5,0,0:0:0:0:
384,228,43612,1,0,0:0:0:0:
152,280,43766,1,8,0:0:0:0:
288,348,43920,1,12,0:0:0:0:
224,36,44228,5,12,0:0:0:0:
164,152,44381,1,8,0:0:0:0:
51,81,44535,6,0,B|128:28|128:28|224:36,1,190,4|0,0:0|0:0,0:0:0:0:
384,228,44997,1,8,0:0:0:0:
272,192,45151,1,0,0:0:0:0:
448,60,45305,2,0,L|468:176,1,95
296,308,45612,1,8,0:0:0:0:
216,128,45766,6,0,P|268:108|324:128,1,95
352,364,46074,2,0,P|300:384|244:364,1,95,0|8,0:0|0:0,0:0:0:0:
272,192,46381,1,0,0:0:0:0:
384,228,46535,1,0,0:0:0:0:
296,308,46689,1,8,0:0:0:0:
184,204,46843,1,0,0:0:0:0:
372,48,46997,6,0,L|356:244,1,190,8|0,0:0|0:0,0:0:0:0:
272,192,47458,1,8,0:0:0:0:
452,120,47612,1,0,0:0:0:0:
372,48,47766,1,0,0:0:0:0:
356,237,47920,1,0,0:0:0:0:
284,88,48074,1,8,0:0:0:0:
448,216,48228,1,0,0:0:0:0:
276,284,48381,6,0,P|220:296|180:312,1,95
28,264,48689,2,0,P|84:252|124:236,1,95,8|0,0:0|0:0,0:0:0:0:
184,36,48997,2,0,P|236:76|212:212,1,190,0|8,0:0|0:0,0:0:0:0:
152,136,49458,1,0,0:0:0:0:
276,284,49612,6,0,B|332:276|332:276|392:296|392:296|480:284,1,190,4|8,0:0|0:0,0:0:0:0:
392,196,50074,1,0,0:0:0:0:
236,364,50228,1,0,0:0:0:0:
132,356,50381,1,0,0:0:0:0:
140,252,50535,2,0,P|152:188|156:144,1,95,8|0,0:0|0:0,0:0:0:0:
224,80,50843,5,0,0:0:0:0:
268,216,50997,1,0,0:0:0:0:
224,80,51151,1,8,0:0:0:0:
312,120,51305,1,0,0:0:0:0:
168,172,51458,1,0,0:0:0:0:
304,232,51612,1,0,0:0:0:0:
128,84,51766,1,8,0:0:0:0:
200,288,51920,1,0,0:0:0:0:
200,288,51997,1,0,0:0:0:0:
200,288,52074,6,0,P|152:308|80:288,1,95,4|0,0:0|0:0,0:0:0:0:
268,216,52381,2,0,L|292:376,1,142.5,8|0,0:0|0:0,0:0:0:0:
324,336,52689,1,0,0:0:0:0:
176,200,52843,1,0,0:0:0:0:
336,132,52997,1,8,0:0:0:0:
244,368,53151,1,0,0:0:0:0:
72,236,53305,6,0,P|80:172|88:128,1,95
184,48,53612,1,8,0:0:0:0:
268,216,53766,2,0,L|272:276,1,47.5
336,132,53920,1,12,0:0:0:0:
384,264,54074,1,0,0:0:0:0:
460,168,54228,1,0,0:0:0:0:
464,348,54381,6,0,L|240:336,1,190,4|0,0:0|0:0,0:0:0:0:
176,236,54843,2,0,L|184:200|192:164,1,71.2500027179719,2|0,0:0|0:0,0:0:0:0:
80,268,55151,2,0,L|84:324,1,35.625001358986
224,292,55305,6,0,P|252:232|144:168,1,213.750008153916,8|0,0:0|0:0,0:0:0:0:
176,236,55612,6,0,L|380:224,1,190,8|0,0:0|0:0,0:0:0:0:
424,59,56074,2,0,P|418:95|415:130,1,71.2500027179719,2|0,0:0|0:0,0:0:0:0:
312,80,56381,1,0,0:0:0:0:
316,296,56535,6,0,P|284:256|300:168,1,142.5,8|4,0:0|0:0,0:0:0:0:
432,276,57151,5,2,0:0:0:0:
400,356,57305,2,0,L|480:352,1,71.2500027179719,0|2,0:0|0:0,0:0:0:0:
356,220,57612,2,0,P|340:268|348:316,1,71.2500027179719,0|2,0:0|0:0,0:0:0:0:
512,288,57920,1,0,0:0:0:0:
480,116,58074,5,8,0:0:0:0:
404,80,58381,5,8,0:0:0:0:
320,96,58689,5,8,0:0:0:0:
260,156,58997,5,8,0:0:0:0:
305,179,59073,1,0,0:0:0:0:
356,172,59150,1,0,0:0:0:0:
393,137,59227,1,0,0:0:0:0:
404,86,59304,1,0,0:0:0:0:
383,39,59381,1,0,0:0:0:0:
338,13,59458,6,0,L|260:8,1,76,4|0,0:0|0:0,0:0:0:0:
180,108,59766,1,8,0:0:0:0:
264,248,59920,1,0,0:0:0:0:
264,248,59997,1,0,0:0:0:0:
264,248,60074,2,0,P|276:204|260:156,1,76
112,68,60381,2,0,P|100:112|116:160,1,76,8|0,0:0|0:0,0:0:0:0:
236,332,60689,5,0,0:0:0:0:
236,332,60843,2,0,L|340:324,1,76,0|8,0:0|0:0,0:0:0:0:
136,252,61151,1,0,0:0:0:0:
136,252,61228,1,0,0:0:0:0:
136,252,61305,2,0,P|96:248|36:276,1,76
396,356,61612,2,0,P|400:316|372:256,1,76,8|0,0:0|0:0,0:0:0:0:
256,136,61920,5,4,0:0:0:0:
256,136,62997,5,8,0:0:0:0:
232,320,63305,5,8,0:0:0:0:
172,56,63612,6,0,L|160:104,1,38,8|0,0:0|0:0,0:0:0:0:
256,136,63766,5,0,0:0:0:0:
292,144,63843,1,0,0:0:0:0:
328,132,63920,1,0,0:0:0:0:
348,100,63997,1,0,0:0:0:0:
344,64,64074,1,0,0:0:0:0:
316,28,64151,1,0,0:0:0:0:
268,28,64228,1,0,0:0:0:0:
228,56,64305,1,0,0:0:0:0:
224,104,64381,6,0,L|232:256,1,142.5,4|0,0:0|0:0,0:0:0:0:
320,320,64689,2,0,P|332:272|340:228,1,95,8|0,0:0|0:0,0:0:0:0:
144,188,64997,1,2,0:0:0:0:
224,352,65151,1,0,0:0:0:0:
128,216,65305,1,8,0:0:0:0:
1,359,65458,6,0,P|45:341|92:332,1,95,0|2,0:0|0:0,0:0:0:0:
224,352,65766,1,0,0:0:0:0:
312,184,65920,2,0,P|268:166|221:157,1,95,8|0,0:0|0:0,0:0:0:0:
38,243,66228,2,0,P|82:225|129:216,1,95,2|0,0:0|0:0,0:0:0:0:
216,28,66535,2,0,P|234:72|243:119,1,95,8|0,0:0|0:0,0:0:0:0:
312,284,66843,6,0,P|368:272|420:268,1,95,2|0,0:0|0:0,0:0:0:0:
271,104,67151,2,0,P|215:116|163:120,1,95,8|0,0:0|0:0,0:0:0:0:
112,224,67458,1,2,0:0:0:0:
312,284,67612,1,0,0:0:0:0:
200,368,67766,1,8,0:0:0:0:
372,220,67920,6,0,P|392:268|376:340,1,95,0|2,0:0|0:0,0:0:0:0:
200,264,68228,1,0,0:0:0:0:
272,104,68381,2,0,P|320:84|392:100,1,95,8|0,0:0|0:0,0:0:0:0:
362,86,68612,1,0,0:0:0:0:
362,86,68689,1,2,0:0:0:0:
228,224,68843,1,0,0:0:0:0:
400,304,68997,1,8,0:0:0:0:
112,316,69151,1,0,0:0:0:0:
112,316,69228,1,0,0:0:0:0:
112,316,69305,6,0,P|96:232|72:164,1,142.5,4|0,0:0|0:0,0:0:0:0:
16,120,69612,2,0,P|5:166|4:213,1,95,8|0,0:0|0:0,0:0:0:0:
208,144,69920,1,2,0:0:0:0:
232,52,70074,2,0,P|176:52|132:92,1,95,0|8,0:0|0:0,0:0:0:0:
344,120,70381,1,0,0:0:0:0:
344,120,70458,1,0,0:0:0:0:
344,120,70535,6,0,L|352:244,1,95,2|0,0:0|0:0,0:0:0:0:
272,312,70843,1,8,0:0:0:0:
176,232,70997,1,0,0:0:0:0:
344,120,71151,1,2,0:0:0:0:
300,288,71305,1,0,0:0:0:0:
176,176,71458,1,8,0:0:0:0:
396,232,71612,1,0,0:0:0:0:
96,199,71766,6,0,P|77:251|80:305,1,109.250002083778,4|0,0:0|0:0,0:0:0:0:
252,288,72074,1,8,0:0:0:0:
208,84,72228,2,0,L|56:108,1,109.250002083778,4|0,0:0|0:0,0:0:0:0:
300,288,72535,2,0,L|452:264,1,109.250002083778,4|8,0:0|0:0,0:0:0:0:
448,84,72843,5,4,0:0:0:0:
368,16,72997,2,0,P|344:92|364:152,1,109.250002083778
476,252,73305,5,8,0:0:0:0:
436,232,73381,1,0,0:0:0:0:
392,236,73458,1,0,0:0:0:0:
356,260,73535,1,0,0:0:0:0:
332,296,73612,5,0,0:0:0:0:
292,316,73689,1,0,0:0:0:0:
248,320,73766,1,0,0:0:0:0:
208,304,73843,1,0,0:0:0:0:
180,272,73920,5,8,0:0:0:0:
172,228,73997,1,0,0:0:0:0:
188,188,74074,1,0,0:0:0:0:
220,160,74151,1,0,0:0:0:0:
260,148,74228,6,0,L|440:140,1,142.5,4|0,0:0|0:0,0:0:0:0:
484,180,74535,2,0,P|492:128|472:84,1,95,8|0,0:0|0:0,0:0:0:0:
344,52,74843,1,2,0:0:0:0:
260,240,74997,1,0,0:0:0:0:
144,108,75151,1,8,0:0:0:0:
336,200,75305,5,0,0:0:0:0:
152,128,75458,1,2,0:0:0:0:
328,288,75612,2,0,P|372:280|440:276,1,95,0|8,0:0|0:0,0:0:0:0:
244,328,75920,1,0,0:0:0:0:
318,106,76074,2,0,P|329:152|336:200,1,95,2|0,0:0|0:0,0:0:0:0:
160,356,76381,2,0,P|148:309|142:262,1,95,8|0,0:0|0:0,0:0:0:0:
152,128,76689,6,0,P|105:139|58:145,1,95,2|0,0:0|0:0,0:0:0:0:
232,252,76997,2,0,P|278:240|325:234,1,95,8|0,0:0|0:0,0:0:0:0:
424,168,77305,1,2,0:0:0:0:
318,106,77458,1,0,0:0:0:0:
325,234,77612,1,8,0:0:0:0:
384,52,77766,1,0,0:0:0:0:
384,52,77843,1,0,0:0:0:0:
384,52,77920,6,0,P|347:23|300:22,1,95,2|0,0:0|0:0,0:0:0:0:
160,184,78228,2,0,L|272:164,1,95,8|0,0:0|0:0,0:0:0:0:
440,288,78535,1,2,0:0:0:0:
325,234,78689,1,0,0:0:0:0:
232,348,78843,1,8,0:0:0:0:
144,180,78997,1,0,0:0:0:0:
144,180,79074,1,0,0:0:0:0:
144,180,79151,6,0,P|136:132|160:84,1,95,4|0,0:0|0:0,0:0:0:0:
400,196,79458,2,0,P|408:244|384:292,1,95,8|0,0:0|0:0,0:0:0:0:
228,152,79766,1,2,0:0:0:0:
325,234,79920,1,0,0:0:0:0:
216,324,80074,1,12,0:0:0:0:
256,164,80228,1,0,0:0:0:0:
376,288,80381,5,8,0:0:0:0:
124,312,80535,1,8,0:0:0:0:
232,348,80689,1,0,0:0:0:0:
152,124,80843,5,8,0:0:0:0:
124,312,80997,2,0,L|112:260,1,47.5,2|2,0:0|0:0,0:0:0:0:
128,44,81151,5,2,0:0:0:0:
176,44,81228,1,0,0:0:0:0:
216,72,81305,1,8,0:0:0:0:
236,116,81381,1,8,0:3:0:0:
224,164,81458,1,8,0:3:0:0:
192,200,81535,1,8,0:3:0:0:
144,208,81612,5,12,0:0:0:0:
376,288,81766,1,8,0:0:0:0:
200,352,82074,5,8,0:0:0:0:
424,208,82228,1,8,0:0:0:0:
284,60,82535,5,12,0:0:0:0:
252,288,82689,1,8,0:0:0:0:
144,208,82997,5,8,0:0:0:0:
212,108,83151,1,8,0:0:0:0:
384,300,83458,5,12,0:0:0:0:
116,352,83612,1,8,0:0:0:0:
96,96,83920,5,8,0:0:0:0:
252,288,84074,1,8,0:0:0:0:
32,264,84381,5,12,0:0:0:0:
280,308,84535,1,8,0:0:0:0:
152,368,84689,1,0,0:0:0:0:
148,196,84843,5,8,0:0:0:0:
172,156,84920,1,0,0:0:0:0:
216,136,84997,1,8,0:0:0:0:
264,136,85074,1,0,0:0:0:0:
304,160,85151,5,8,0:0:0:0:
280,308,85458,5,8,0:0:0:0:
236,224,85766,5,8,0:0:0:0:
472,272,86074,5,8,0:0:0:0:
328,380,86381,5,4,0:0:0:0:
152,112,88535,5,2,0:0:0:0:
164,188,88843,1,2,0:0:0:0:
368,104,89305,6,0,L|364:140,1,23.75,2|0,0:0|0:0,0:0:0:0:
352,212,89612,2,0,L|348:248,1,23.75,2|0,0:0|0:0,0:0:0:0:
336,320,89920,2,0,L|332:356,1,23.75,2|0,0:0|0:0,0:0:0:0:
244,256,90228,5,0,0:0:0:0:
192,328,90381,2,0,L|100:336,1,71.25,0|2,0:0|0:0,0:0:0:0:
80,204,90843,2,0,L|172:196,1,71.25,2|2,0:0|0:0,0:0:0:0:
376,180,91458,5,2,0:0:0:0:
376,180,92612,2,0,L|380:144,1,23.75,2|2,0:0|0:0,0:0:0:0:
256,192,93920,5,2,0:0:0:0:
256,192,95074,2,0,L|260:220,1,23.75,2|2,0:0|0:0,0:0:0:0:
276,224,95766,6,0,P|328:244|400:136,1,190,4|8,0:0|0:0,0:0:0:0:
204,104,96228,6,0,P|188:172|172:296,1,190,4|0,0:0|0:0,0:0:0:0:
328,168,96689,1,8,0:0:0:0:
276,60,96843,1,0,0:0:0:0:
116,120,96997,2,0,P|104:167|93:254,2,95,0|0|8,0:0|0:0|0:0,0:0:0:0:
156,328,97458,6,0,P|240:312|352:300,1,190
396,112,97920,2,0,P|356:84|292:92,1,95,8|0,0:0|0:0,0:0:0:0:
160,196,98228,1,0,0:0:0:0:
328,168,98381,1,2,0:0:0:0:
176,220,98535,1,8,0:0:0:0:
264,72,98689,6,0,P|248:144|240:272,1,190,4|0,0:0|0:0,0:0:0:0:
336,340,99151,1,8,0:0:0:0:
408,240,99305,1,0,0:0:0:0:
284,228,99458,1,0,0:0:0:0:
400,312,99612,1,0,0:0:0:0:
424,168,99766,1,8,0:0:0:0:
296,248,99920,1,0,0:0:0:0:
468,284,100074,5,0,0:0:0:0:
248,328,100228,1,0,0:0:0:0:
416,344,100381,1,8,0:0:0:0:
336,144,100535,1,0,0:0:0:0:
336,144,100612,1,0,0:0:0:0:
336,144,100689,2,0,P|324:200|320:244,1,95
472,184,100997,1,8,0:0:0:0:
372,56,101151,1,0,0:0:0:0:
216,176,101305,6,0,P|168:196|72:116,1,190,4|8,0:0|0:0,0:0:0:0:
179,10,101766,2,0,P|175:57|164:104,1,95
24,40,102074,1,0,0:0:0:0:
136,136,102228,1,8,0:0:0:0:
0,188,102381,1,0,0:0:0:0:
216,176,102535,6,0,P|272:164|324:160,1,95
440,260,102843,2,0,P|384:248|332:244,1,95,8|0,0:0|0:0,0:0:0:0:
200,272,103151,1,0,0:0:0:0:
320,352,103305,1,0,0:0:0:0:
344,132,103458,1,8,0:0:0:0:
320,352,103612,1,0,0:0:0:0:
320,352,103689,1,0,0:0:0:0:
320,352,103766,6,0,L|212:344,1,95,4|0,0:0|0:0,0:0:0:0:
40,248,104074,2,0,P|80:216|216:244,1,190,8|0,0:0|0:0,0:0:0:0:
320,352,104535,1,0,0:0:0:0:
408,176,104689,2,0,P|424:128|408:80,1,95,8|0,0:0|0:0,0:0:0:0:
208,108,104997,5,0,0:0:0:0:
344,132,105151,1,0,0:0:0:0:
256,236,105305,1,8,0:0:0:0:
228,96,105458,1,0,0:0:0:0:
352,236,105612,5,4,0:0:0:0:
160,192,105766,1,4,0:3:0:0:
360,256,105920,1,0,0:0:0:0:
176,176,106074,6,0,P|156:124|252:28,1,190,4|0,0:0|0:0,0:0:0:0:
352,236,106535,2,0,L|272:240,1,71.2500027179719,2|0,0:0|0:0,0:0:0:0:
408,336,106843,2,0,L|416:292,1,35.625001358986
256,144,106997,6,0,P|188:192|240:324,1,213.750008153916,8|0,0:0|0:0,0:0:0:0:
210,307,107305,6,0,P|128:316|16:348,1,190,8|0,0:0|0:0,0:0:0:0:
60,184,107766,2,0,P|80:240|84:272,1,71.2500027179719,2|0,0:0|0:0,0:0:0:0:
88,336,108074,1,0,0:0:0:0:
288,268,108228,6,0,P|260:236|156:236,1,142.5,8|4,0:0|0:0,0:0:0:0:
284,356,108843,5,2,0:0:0:0:
284,356,108997,2,0,L|360:348,1,71.2500027179719,0|2,0:0|0:0,0:0:0:0:
209,308,109305,2,0,L|133:316,1,71.2500027179719,0|2,0:0|0:0,0:0:0:0:
256,184,109612,1,0,0:0:0:0:
364,320,109766,5,8,0:0:0:0:
440,284,110074,5,8,0:0:0:0:
456,200,110381,5,8,0:0:0:0:
396,136,110689,5,8,0:0:0:0:
352,108,110766,1,0,0:0:0:0:
300,112,110843,1,0,0:0:0:0:
260,148,110920,1,0,0:0:0:0:
240,196,110997,1,0,0:0:0:0:
192,212,111074,1,0,0:0:0:0:
144,192,111151,6,0,P|136:140|152:100,1,76,4|0,0:0|0:0,0:0:0:0:
332,200,111458,1,8,0:0:0:0:
232,296,111612,1,0,0:0:0:0:
232,296,111689,1,0,0:0:0:0:
232,296,111766,2,0,P|180:304|140:288,1,76
292,128,112074,2,0,P|344:120|384:136,1,76,8|0,0:0|0:0,0:0:0:0:
444,236,112381,5,0,0:0:0:0:
444,236,112535,2,0,L|440:324,1,76,0|8,0:0|0:0,0:0:0:0:
220,168,112843,1,0,0:0:0:0:
220,168,112920,1,0,0:0:0:0:
220,168,112997,2,0,P|212:116|228:76,1,76
308,228,113305,1,8,0:0:0:0:
228,368,113458,1,0,0:0:0:0:
116,176,113612,5,4,0:0:0:0:
116,176,114843,6,0,L|236:164,2,101.333333333333
116,176,115458,5,0,0:0:0:0:
80,204,115535,1,0,0:0:0:0:
68,248,115612,1,0,0:0:0:0:
88,288,115689,1,0,0:0:0:0:
128,308,115766,5,0,0:0:0:0:
180,304,115843,1,0,0:0:0:0:
224,276,115920,1,0,0:0:0:0:
276,272,115997,1,0,0:0:0:0:
328,284,116074,6,0,P|364:240|344:144,1,142.5,4|0,0:0|0:0,0:0:0:0:
292,116,116381,2,0,L|188:108,1,95,8|0,0:0|0:0,0:0:0:0:
140,240,116689,1,2,0:0:0:0:
260,360,116843,1,0,0:0:0:0:
296,212,116997,1,8,0:0:0:0:
120,272,117151,1,0,0:0:0:0:
120,272,117228,1,0,0:0:0:0:
120,272,117305,6,0,P|112:332|128:364,1,95,2|0,0:0|0:0,0:0:0:0:
368,248,117612,2,0,P|376:188|360:156,1,95,8|0,0:0|0:0,0:0:0:0:
192,124,117920,2,0,P|144:130|97:134,1,95,2|0,0:0|0:0,0:0:0:0:
304,296,118228,2,0,P|351:289|398:285,1,95,8|0,0:0|0:0,0:0:0:0:
268,196,118535,5,2,0:0:0:0:
192,340,118689,1,0,0:0:0:0:
64,208,118843,2,0,P|108:188|164:200,1,95,8|0,0:0|0:0,0:0:0:0:
192,340,119151,2,0,P|148:360|92:348,1,95,2|0,0:0|0:0,0:0:0:0:
268,196,119458,1,8,0:0:0:0:
328,320,119612,1,0,0:0:0:0:
192,340,119766,5,2,0:0:0:0:
244,204,119920,1,0,0:0:0:0:
300,352,120074,1,8,0:0:0:0:
128,272,120228,1,0,0:0:0:0:
128,272,120305,1,0,0:0:0:0:
128,272,120381,1,2,0:0:0:0:
288,192,120535,1,0,0:0:0:0:
192,340,120689,1,8,0:0:0:0:
128,140,120843,1,0,0:0:0:0:
128,140,120920,1,0,0:0:0:0:
128,140,120997,6,0,P|168:104|272:116,1,142.5,4|0,0:0|0:0,0:0:0:0:
316,152,121305,2,0,L|436:144,1,95,8|0,0:0|0:0,0:0:0:0:
504,280,121612,2,0,L|409:273,1,95,2|0,0:0|0:0,0:0:0:0:
192,340,121920,1,8,0:0:0:0:
296,176,122074,6,0,P|308:236|312:288,1,95,0|2,0:0|0:0,0:0:0:0:
204,316,122381,1,0,0:0:0:0:
128,112,122535,2,0,P|121:159|119:206,1,95,8|0,0:0|0:0,0:0:0:0:
272,144,122843,2,0,P|270:96|263:49,1,95,2|0,0:0|0:0,0:0:0:0:
200,216,123151,1,8,0:0:0:0:
336,292,123305,1,0,0:0:0:0:
456,88,123458,6,0,P|404:68|340:80,1,109.250002083778,4|0,0:0|0:0,0:0:0:0:
240,228,123766,1,8,0:0:0:0:
416,348,123920,2,0,L|424:228,1,109.250002083778,4|0,0:0|0:0,0:0:0:0:
248,120,124228,2,0,L|240:240,1,109.250002083778,4|8,0:0|0:0,0:0:0:0:
124,320,124535,1,4,0:0:0:0:
124,320,124612,1,0,0:0:0:0:
124,320,124689,6,0,P|88:276|108:168,1,163.875003125668
156,116,124997,1,8,0:0:0:0:
268,264,125151,1,0,0:0:0:0:
268,264,125228,1,0,0:0:0:0:
268,264,125305,6,0,P|312:260|348:248,1,54.6250010418892
416,240,125458,2,0,L|424:164,1,54.6250010418892
336,108,125612,2,0,L|328:184,1,54.6250010418892,8|0,0:0|0:0,0:0:0:0:
484,112,125766,2,0,L|492:36,1,54.6250010418892
348,20,125920,6,0,P|304:24|252:64,1,95,4|0,0:0|0:0,0:0:0:0:
72,144,126228,2,0,P|97:180|158:205,1,95,8|0,0:0|0:0,0:0:0:0:
328,320,126535,2,0,P|346:279|337:214,1,95,2|0,0:0|0:0,0:0:0:0:
244,148,126843,1,8,0:0:0:0:
420,80,126997,1,0,0:0:0:0:
408,188,127151,5,2,0:0:0:0:
332,64,127305,1,0,0:0:0:0:
256,232,127458,2,0,P|216:224|148:216,1,95,8|0,0:0|0:0,0:0:0:0:
20,244,127766,2,0,P|25:196|34:150,1,95,2|0,0:0|0:0,0:0:0:0:
188,32,128074,2,0,P|197:78|202:125,1,95,8|0,0:0|0:0,0:0:0:0:
256,320,128381,6,0,P|296:312|364:304,1,95,2|0,0:0|0:0,0:0:0:0:
480,340,128689,1,8,0:0:0:0:
416,204,128843,1,0,0:0:0:0:
368,376,128997,1,2,0:0:0:0:
488,240,129151,1,0,0:0:0:0:
340,107,129305,2,0,P|333:155|331:202,1,95,8|0,0:0|0:0,0:0:0:0:
428,52,129612,6,0,P|396:20|288:20,1,142.5,2|0,0:0|0:0,0:0:0:0:
224,104,129920,2,0,P|188:108|124:84,1,95,8|0,0:0|0:0,0:0:0:0:
132,90,130151,1,0,0:0:0:0:
132,90,130228,1,2,0:0:0:0:
32,156,130381,1,0,0:0:0:0:
164,208,130535,1,8,0:0:0:0:
52,348,130689,2,0,L|60:280,1,47.5
152,220,130843,6,0,P|160:280|184:372,1,142.5,2|0,0:0|0:0,0:0:0:0:
260,384,131151,2,0,P|264:328|272:280,1,95,8|0,0:0|0:0,0:0:0:0:
336,208,131458,1,2,0:0:0:0:
388,344,131612,1,0,0:0:0:0:
192,296,131766,1,12,0:0:0:0:
268,156,131920,1,0,0:0:0:0:
408,264,132074,5,12,0:0:0:0:
236,224,132228,1,0,0:0:0:0:
468,324,132381,1,0,0:0:0:0:
400,140,132535,1,8,0:0:0:0:
280,352,132689,1,0,0:0:0:0:
183,195,132843,5,0,0:0:0:0:
175,149,132919,1,0,0:0:0:0:
189,105,132996,1,8,0:0:0:0:
224,73,133073,1,8,0:3:0:0:
269,62,133150,1,8,0:3:0:0:
315,74,133227,1,8,0:3:0:0:
348,108,133305,6,0,L|340:264,1,142.5,4|0,0:0|0:0,0:0:0:0:
376,336,133612,2,0,P|432:328|492:324,1,95,8|0,0:0|0:0,0:0:0:0:
244,272,133920,2,0,P|188:280|128:284,1,95
68,340,134228,1,8,0:0:0:0:
164,184,134381,1,0,0:0:0:0:
264,356,134535,5,0,0:0:0:0:
164,268,134689,1,0,0:0:0:0:
340,224,134843,1,8,0:0:0:0:
172,88,134997,2,0,P|164:144|164:216,1,95
332,124,135305,2,0,P|329:76|322:29,1,95,0|8,0:0|0:0,0:0:0:0:
268,216,135612,1,0,0:0:0:0:
268,216,135689,1,0,0:0:0:0:
268,216,135766,6,0,P|308:236|440:156,1,190,0|8,0:0|0:0,0:0:0:0:
248,48,136228,2,0,B|188:40|188:40|128:56|128:56|60:48,1,190
80,200,136689,1,8,0:0:0:0:
192,120,136843,1,0,0:0:0:0:
192,268,136997,5,0,0:0:0:0:
100,112,137151,1,0,0:0:0:0:
272,176,137305,1,8,0:0:0:0:
116,308,137458,2,0,L|60:304,1,47.5
176,368,137612,2,0,P|200:316|188:260,1,95
132,60,137920,2,0,P|108:112|120:168,1,95,8|0,0:0|0:0,0:0:0:0:
196,224,138151,1,0,0:0:0:0:
196,224,138228,6,0,L|316:216,1,95,4|0,0:0|0:0,0:0:0:0:
416,244,138535,1,8,0:0:0:0:
380,120,138689,1,0,0:0:0:0:
244,304,138843,1,0,0:0:0:0:
352,200,138997,1,0,0:0:0:0:
188,124,139151,1,8,0:0:0:0:
148,352,139305,1,8,0:0:0:0:
148,352,139458,6,0,B|200:344|200:344|272:360|272:360|352:348,1,190,0|8,0:0|0:0,0:0:0:0:
432,264,139920,1,0,0:0:0:0:
272,200,140074,1,8,0:0:0:0:
460,140,140228,1,8,0:3:0:0:
456,160,140305,1,8,0:3:0:0:
452,180,140381,1,8,0:0:0:0:
196,236,140535,6,0,P|188:180|312:124,1,190,4|0,0:0|0:0,0:0:0:0:
364,184,140920,1,0,0:0:0:0:
364,184,140997,2,0,L|352:288,1,95,8|4,0:0|0:0,0:0:0:0:
353,278,141228,1,0,0:0:0:0:
353,278,141305,5,0,0:0:0:0:
272,200,141458,1,0,0:0:0:0:
476,60,141612,1,12,0:0:0:0:
256,192,141689,12,2,142843,0:0:0:0:
140,224,143048,5,0,0:0:0:0:
140,224,143151,6,0,P|88:216|28:304,1,158.333333333333,2|0,0:0|0:0,0:0:0:0:
136,368,143971,2,0,L|236:360,1,95,2|2,0:0|0:0,0:0:0:0:
340,256,144587,1,2,0:0:0:0:
444,336,144894,5,0,0:0:0:0:
444,336,144997,1,2,0:0:0:0:
424,248,145202,1,0,0:0:0:0:
424,248,145305,1,2,0:0:0:0:
504,100,145510,6,0,L|500:208,1,95,2|0,0:0|0:0,0:0:0:0:
500,240,145920,1,2,0:0:0:0:
344,172,146125,1,0,0:0:0:0:
348,128,146228,1,2,0:0:0:0:
232,168,146433,1,0,0:0:0:0:
236,212,146536,1,2,0:0:0:0:
112,176,146740,6,0,P|92:132|208:80,1,190
268,96,147458,2,0,L|264:40,2,31.6666666666667
332,200,147766,2,0,P|336:160|344:136,1,63.3333333333333,2|4,0:0|0:0,0:0:0:0:
432,332,148381,6,0,P|376:348|332:344,1,71.2500027179719
288,376,148689,2,0,P|231:361|195:336,1,71.2500027179719,0|2,0:0|0:0,0:0:0:0:
176,264,148997,1,0,0:0:0:0:
236,184,149151,1,0,0:0:0:0:
244,164,149228,1,0,0:0:0:0:
248,144,149305,1,0,0:0:0:0:
248,124,149381,1,0,0:0:0:0:
244,104,149458,1,0,0:0:0:0:
136,136,149612,6,0,L|60:128,1,71.2500027179719
176,264,149920,2,0,L|252:272,1,71.2500027179719
88,216,150228,2,0,L|12:208,1,71.2500027179719
308,348,150535,6,0,P|340:292|324:208,1,142.500005435944,4|0,0:0|0:0,0:0:0:0:
204,36,150997,2,0,P|172:92|188:176,1,142.500005435944,4|0,0:0|0:0,0:0:0:0:
344,220,151458,2,0,L|456:212,1,106.875004076958,4|0,0:0|0:0,0:0:0:0:
480,212,151766,5,8,0:0:0:0:
320,40,151920,1,0,0:0:0:0:
320,40,151997,1,0,0:0:0:0:
320,40,152074,2,0,P|308:84|324:140,1,71.2500027179719,8|0,0:0|0:0,0:0:0:0:
360,180,152305,5,2,0:0:0:0:
360,180,152381,2,0,L|449:173,1,71.2500027179719,10|0,0:0|0:0,0:0:0:0:
472,304,152689,1,8,0:0:0:0:
280,264,152843,1,8,0:0:0:0:
280,264,152920,1,8,0:0:0:0:
280,264,152997,6,0,L|276:324,3,47.5,4|0|0|0,0:0|0:0|0:0|0:0,0:0:0:0:
192,304,153305,2,0,L|188:364,3,47.5,8|0|0|0,0:0|0:0|0:0|0:0,0:0:0:0:
96,224,153612,2,0,L|156:208,1,47.5
280,176,153766,2,0,P|256:169|234:163,1,47.5
160,56,153920,2,0,P|153:79|147:101,1,47.5,8|0,0:0|0:0,0:0:0:0:
208,288,154074,2,0,P|214:264|220:242,1,47.5
300,96,154228,5,0,0:0:0:0:
192,52,154381,1,0,0:0:0:0:
356,152,154535,1,8,0:0:0:0:
192,192,154689,1,0,0:0:0:0:
276,8,154843,1,0,0:0:0:0:
340,228,154997,1,0,0:0:0:0:
464,112,155151,2,0,P|456:172|444:232,1,95,8|0,0:0|0:0,0:0:0:0:
264,280,155458,6,0,P|244:224|332:132,1,190,0|8,0:0|0:0,0:0:0:0:
440,352,155920,2,0,L|332:344,1,95
160,312,156228,2,0,P|164:256|172:200,1,95,0|8,0:0|0:0,0:0:0:0:
256,92,156535,1,0,0:0:0:0:
316,208,156689,5,0,0:0:0:0:
168,128,156843,1,0,0:0:0:0:
344,32,156997,2,0,P|352:84|352:132,1,95,8|0,0:0|0:0,0:0:0:0:
232,208,157305,1,0,0:0:0:0:
432,256,157458,2,0,L|368:272,1,47.5
300,352,157612,1,8,0:0:0:0:
332,172,157766,1,0,0:0:0:0:
332,172,157843,1,0,0:0:0:0:
332,172,157920,6,0,P|368:132|500:156,1,190,4|8,0:0|0:0,0:0:0:0:
232,208,158381,2,0,P|231:160|244:115,1,95
340,48,158689,1,0,0:0:0:0:
164,104,158843,1,8,0:0:0:0:
308,260,158997,1,0,0:0:0:0:
308,260,159074,1,0,0:0:0:0:
308,260,159151,6,0,L|304:368,1,95,4|0,0:0|0:0,0:0:0:0:
204,308,159458,1,0,0:0:0:0:
408,312,159612,2,0,L|412:204,1,95,8|0,0:0|0:0,0:0:0:0:
332,88,159920,1,0,0:0:0:0:
256,36,160074,2,0,P|244:92|264:164,1,95,8|0,0:0|0:0,0:0:0:0:
392,232,160381,6,0,L|508:224,1,95,4|0,0:0|0:0,0:0:0:0:
504,316,160612,1,0,0:0:0:0:
504,316,160689,2,0,P|471:322|440:336,1,47.5
312,264,160843,6,0,P|304:224|408:148,1,142.5,12|0,0:0|0:0,0:0:0:0:
504,176,161151,2,0,P|473:202|355:150,1,142.5,12|0,0:0|0:0,0:0:0:0:
288,96,161458,2,0,P|288:72|294:49,1,47.5,4|0,0:0|0:0,0:0:0:0:
200,132,161612,5,0,0:0:0:0:
156,152,161689,1,0,0:0:0:0:
108,148,161766,1,0,0:0:0:0:
80,108,161843,1,0,0:0:0:0:
84,60,161920,1,8,0:0:0:0:
116,24,161997,1,0,0:0:0:0:
164,20,162074,1,0,0:0:0:0:
208,40,162151,1,0,0:0:0:0:
228,84,162228,6,0,L|236:144,1,47.5
284,216,162381,2,0,L|276:276,1,47.5
240,364,162535,2,0,P|296:344|384:376,1,142.5,8|0,0:0|0:0,0:0:0:0:
444,260,162843,6,0,L|460:372,1,95,4|0,0:0|0:0,0:0:0:0:
360,172,163151,1,8,0:0:0:0:
328,320,163305,1,0,0:0:0:0:
284,128,163458,1,0,0:0:0:0:
416,288,163612,1,0,0:0:0:0:
244,236,163766,1,8,0:0:0:0:
444,72,163920,6,0,B|452:124|452:124|436:196|436:196|444:272,1,190
328,360,164381,1,8,0:0:0:0:
283,376,164457,1,0,0:0:0:0:
236,373,164534,1,0,0:0:0:0:
195,351,164611,1,0,0:0:0:0:
165,314,164688,1,0,0:0:0:0:
192,160,164843,1,0,0:0:0:0:
320,276,164997,1,8,0:0:0:0:
96,360,165151,5,4,0:0:0:0:
288,96,165458,1,0,0:0:0:0:
288,96,165612,2,0,P|296:152|300:228,1,95,8|0,0:0|0:0,0:0:0:0:
220,248,165920,1,0,0:0:0:0:
352,312,166074,1,0,0:0:0:0:
248,364,166228,1,8,0:0:0:0:
376,224,166381,6,0,P|420:216|472:200,1,95,4|0,0:0|0:0,0:0:0:0:
312,12,166689,2,0,P|268:20|216:36,1,95,0|8,0:0|0:0,0:0:0:0:
384,140,166997,1,0,0:0:0:0:
456,48,167151,1,0,0:0:0:0:
312,100,167305,1,0,0:0:0:0:
460,188,167458,1,8,0:0:0:0:
288,264,167612,1,0,0:0:0:0:
288,264,167689,1,0,0:0:0:0:
288,264,167766,6,0,L|284:328,1,47.5,4|0,0:0|0:0,0:0:0:0:
193,335,167920,2,0,L|196:288,1,47.5
224,192,168074,1,8,0:0:0:0:
360,348,168228,6,0,P|408:356|496:260,1,190,4|0,0:0|0:0,0:0:0:0:
316,72,168689,2,0,B|288:124|288:124|308:276,1,190,12|0,0:0|0:0,0:0:0:0:
476,152,169151,2,0,L|380:140,1,95
180,212,169458,1,8,0:0:0:0:
256,264,169612,2,0,P|272:208|256:152,1,95
112,56,169920,2,0,P|96:112|112:168,1,95,12|0,0:0|0:0,0:0:0:0:
80,336,170228,6,0,P|136:352|192:336,1,95,12|0,0:0|0:0,0:0:0:0:
248,296,170458,1,0,0:0:0:0:
248,296,170535,2,0,P|294:290|339:305,1,95,8|0,0:0|0:0,0:0:0:0:
444,248,170766,5,0,0:0:0:0:
476,172,170843,2,0,P|429:166|384:181,1,95,8|0,0:0|0:0,0:0:0:0:
264,240,171074,5,0,0:0:0:0:
188,296,171151,2,0,P|172:251|178:204,1,95,8|4,0:0|0:0,0:0:0:0:
316,36,171458,6,0,P|331:80|325:127,1,95,8|0,0:0|0:0,0:0:0:0:
352,324,171766,1,8,0:0:0:0:
256,160,171920,1,0,0:0:0:0:
436,280,172074,1,12,0:0:0:0:
216,316,172228,1,0,0:0:0:0:
352,192,172381,1,8,0:0:0:0:
184,64,172535,5,4,0:0:0:0:
108,112,176228,5,8,0:0:0:0:
108,112,176535,1,8,0:0:0:0:
108,112,176843,1,8,0:0:0:0:
108,112,177151,5,8,0:0:0:0:
152,132,177228,1,0,0:0:0:0:
200,128,177305,1,0,0:0:0:0:
236,96,177381,1,0,0:0:0:0:
280,76,177458,1,0,0:0:0:0:
328,80,177535,1,0,0:0:0:0:
364,96,177612,6,0,P|368:136|360:180,1,76,4|0,0:0|0:0,0:0:0:0:
248,216,177920,1,8,0:0:0:0:
344,300,178074,1,0,0:0:0:0:
344,300,178151,1,0,0:0:0:0:
344,300,178228,2,0,L|432:292,1,76
232,332,178535,2,0,L|144:340,1,76,8|0,0:0|0:0,0:0:0:0:
152,132,178843,5,0,0:0:0:0:
152,132,178997,2,0,P|164:192|152:232,1,76,0|8,0:0|0:0,0:0:0:0:
72,380,179305,1,0,0:0:0:0:
72,380,179381,1,0,0:0:0:0:
72,380,179458,2,0,P|60:320|72:280,1,76
176,220,179766,2,0,L|264:212,1,76,8|0,0:0|0:0,0:0:0:0:
408,280,180074,5,4,0:0:0:0:
116,100,181920,6,0,L|104:156,1,38,8|0,0:0|0:0,0:0:0:0:
88,212,182074,1,0,0:0:0:0:
124,204,182151,1,0,0:0:0:0:
160,196,182228,1,0,0:0:0:0:
196,188,182305,1,0,0:0:0:0:
232,180,182381,1,0,0:0:0:0:
268,172,182458,1,0,0:0:0:0:
336,156,182535,6,0,P|380:192|364:324,1,190,4|0,0:0|0:0,0:0:0:0:
72,264,182997,2,0,B|136:252|136:252|188:268|188:268|288:248,1,190,4|0,0:0|0:0,0:0:0:0:
140,88,183458,1,0,0:0:0:0:
444,52,183612,6,0,P|420:100|304:80,1,190,12|0,0:0|0:0,0:0:0:0:
184,144,184074,1,0,0:0:0:0:
368,44,184228,1,0,0:0:0:0:
372,224,184381,6,0,L|368:264,2,23.75,2|2|2,0:0|0:0|0:0,0:0:0:0:
392,208,184535,2,0,L|380:144,1,47.5
320,304,184689,2,0,L|256:316,1,47.5
172,224,184843,2,0,L|236:212,1,47.5
56,364,184997,6,0,P|48:312|44:260,1,95,4|0,0:0|0:0,0:0:0:0:
184,144,185305,2,0,P|179:191|172:238,1,95,8|0,0:0|0:0,0:0:0:0:
244,336,185612,1,2,0:0:0:0:
404,288,185766,1,0,0:0:0:0:
260,236,185920,1,8,0:0:0:0:
460,348,186074,6,0,P|484:288|472:244,1,95,0|2,0:0|0:0,0:0:0:0:
320,304,186381,1,0,0:0:0:0:
400,184,186535,2,0,P|448:168|504:156,1,95,8|0,0:0|0:0,0:0:0:0:
244,336,186843,2,0,P|196:352|140:364,1,95,2|0,0:0|0:0,0:0:0:0:
184,144,187151,2,0,P|232:128|288:116,1,95,8|0,0:0|0:0,0:0:0:0:
120,240,187458,6,0,P|76:200|76:104,1,142.5,2|0,0:0|0:0,0:0:0:0:
120,64,187766,2,0,L|232:32,1,95,8|0,0:0|0:0,0:0:0:0:
400,184,188074,1,2,0:0:0:0:
280,96,188228,1,0,0:0:0:0:
416,44,188381,1,8,0:0:0:0:
308,180,188535,1,0,0:0:0:0:
328,24,188689,5,2,0:0:0:0:
460,116,188843,1,0,0:0:0:0:
228,164,188997,1,8,0:0:0:0:
376,288,189151,1,0,0:0:0:0:
376,288,189228,1,0,0:0:0:0:
376,288,189305,2,0,P|368:334|366:382,1,95,2|0,0:0|0:0,0:0:0:0:
264,252,189612,1,8,0:0:0:0:
88,352,189766,2,0,L|156:344,1,47.5
212,372,189920,6,0,B|204:312|204:312|216:252|216:252|204:168,1,190,4|8,0:0|0:0,0:0:0:0:
364,108,190381,1,0,0:0:0:0:
452,72,190535,2,0,P|461:119|429:174,1,95,2|0,0:0|0:0,0:0:0:0:
283,47,190843,2,0,P|318:15|365:9,1,95,8|0,0:0|0:0,0:0:0:0:
408,248,191151,6,0,P|348:232|276:272,1,142.5,2|0,0:0|0:0,0:0:0:0:
232,340,191458,2,0,L|128:332,1,95,8|0,0:0|0:0,0:0:0:0:
24,200,191766,2,0,P|84:165|152:180,1,142.5,2|0,0:0|0:0,0:0:0:0:
216,244,192074,1,8,0:0:0:0:
272,96,192228,1,0,0:0:0:0:
352,192,192382,5,4,0:0:0:0:
200,264,192535,1,0,0:0:0:0:
408,340,192689,1,8,0:0:0:0:
208,369,192843,2,0,P|192:317|200:264,1,109.250002083778,4|0,0:0|0:0,0:0:0:0:
440,128,193151,2,0,P|456:179|448:233,1,109.250002083778,4|8,0:0|0:0,0:0:0:0:
180,76,193458,1,4,0:0:0:0:
320,32,193612,6,0,P|344:68|280:176,1,163.875003125668
216,180,193920,2,0,L|96:160,1,109.250002083778,8|0,0:0|0:0,0:0:0:0:
108,162,194151,1,0,0:0:0:0:
108,162,194228,1,0,0:0:0:0:
64,344,194381,6,0,L|144:332,1,54.6250010418892
204,216,194535,2,0,L|216:296,1,54.6250010418892,8|8,0:0|0:0,0:0:0:0:
320,360,194689,2,0,L|308:280,1,54.6250010418892
352,96,194843,6,0,P|388:84|472:164,1,142.5,4|0,0:0|0:0,0:0:0:0:
488,212,195151,2,0,L|468:308,1,95,8|0,0:0|0:0,0:0:0:0:
280,276,195458,1,2,0:0:0:0:
392,164,195612,1,0,0:0:0:0:
468,305,195766,1,8,0:0:0:0:
372,136,195920,1,0,0:0:0:0:
320,360,196074,6,0,P|256:348|208:344,1,95,2|0,0:0|0:0,0:0:0:0:
88,228,196381,1,8,0:0:0:0:
188,356,196535,1,0,0:0:0:0:
224,164,196689,1,2,0:0:0:0:
176,332,196843,1,0,0:0:0:0:
8,248,196997,1,8,0:0:0:0:
200,148,197151,1,0,0:0:0:0:
64,316,197305,6,0,P|8:276|8:184,1,142.5,2|0,0:0|0:0,0:0:0:0:
40,128,197612,2,0,L|164:112,1,95,8|0,0:0|0:0,0:0:0:0:
408,200,197920,2,0,P|360:188|308:184,1,95,2|0,0:0|0:0,0:0:0:0:
120,276,198228,2,0,P|164:256|216:264,1,95,8|0,0:0|0:0,0:0:0:0:
444,368,198535,6,0,P|404:336|296:348,1,142.5,2|0,0:0|0:0,0:0:0:0:
244,372,198843,2,0,L|232:256,1,95,8|0,0:0|0:0,0:0:0:0:
234,277,199074,1,0,0:0:0:0:
234,277,199151,1,2,0:0:0:0:
372,176,199305,1,0,0:0:0:0:
168,128,199458,1,8,0:0:0:0:
320,40,199612,1,0,0:0:0:0:
320,40,199689,1,0,0:0:0:0:
320,40,199766,6,0,P|308:100|296:152,1,95,4|0,0:0|0:0,0:0:0:0:
156,224,200074,2,0,P|145:177|136:131,1,95,8|0,0:0|0:0,0:0:0:0:
232,68,200381,1,2,0:0:0:0:
372,176,200535,1,0,0:0:0:0:
168,128,200689,1,12,0:0:0:0:
320,40,200843,1,0,0:0:0:0:
320,40,200920,1,0,0:0:0:0:
320,40,200997,5,12,0:0:0:0:
280,228,201151,1,8,0:0:0:0:
448,208,201305,1,0,0:0:0:0:
260,104,201458,1,8,0:0:0:0:
272,344,201612,6,0,L|336:336,1,47.5,2|0,0:0|0:0,0:0:0:0:
388,280,201766,1,0,0:0:0:0:
352,252,201843,1,0,0:0:0:0:
304,240,201920,1,8,0:0:0:0:
256,244,201997,1,8,0:3:0:0:
216,268,202074,1,8,0:3:0:0:
168,272,202151,1,8,0:3:0:0:
124,256,202228,5,12,0:0:0:0:
296,336,202381,1,8,0:0:0:0:
360,100,202689,5,8,0:0:0:0:
188,180,202842,1,8,0:0:0:0:
388,280,203151,5,8,0:0:0:0:
292,60,203305,1,8,0:0:0:0:
176,356,203612,5,8,0:0:0:0:
292,188,203766,1,8,0:0:0:0:
56,148,204074,5,8,0:0:0:0:
188,180,204228,1,0,0:0:0:0:
160,48,204381,1,8,0:0:0:0:
40,160,204535,1,8,0:0:0:0:
200,196,204689,6,0,B|240:208|240:208|360:184|360:184|380:116|380:116|480:172|424:264,1,380,4|0,0:0|0:0,0:0:0:0:
344,352,205458,5,8,0:0:0:0:
444,260,205612,2,0,L|432:316,1,47.5
348,268,205766,2,0,L|336:324,1,47.5
216,352,205920,6,0,P|152:360|108:144,1,332.5,4|0,0:0|0:0,0:0:0:0:
108,144,206535,2,0,P|160:176|344:28,1,332.5,4|0,0:0|0:0,0:0:0:0:
344,20,207151,6,0,P|360:80|384:152,1,95,4|0,0:0|0:0,0:0:0:0:
480,196,207458,2,0,P|493:150|505:104,1,95,8|0,0:0|0:0,0:0:0:0:
388,244,207766,1,0,0:0:0:0:
240,184,207920,1,0,0:0:0:0:
392,148,208074,1,8,0:0:0:0:
356,312,208228,6,0,P|312:320|260:336,1,95
84,244,208535,2,0,P|128:252|180:268,1,95,0|8,0:0|0:0,0:0:0:0:
316,160,208843,1,0,0:0:0:0:
256,260,208997,1,0,0:0:0:0:
180,112,209151,1,0,0:0:0:0:
348,128,209305,1,8,0:0:0:0:
156,76,209458,1,0,0:0:0:0:
332,4,209612,6,0,P|344:60|352:128,1,95
224,184,209920,2,0,P|230:137|241:90,1,95,8|0,0:0|0:0,0:0:0:0:
436,284,210228,2,0,P|384:292|336:304,1,95
232,352,210535,1,8,0:0:0:0:
332,220,210689,1,0,0:0:0:0:
192,112,210843,6,0,P|152:152|164:236,1,142.5
232,268,211151,2,0,L|328:260,1,95,8|0,0:0|0:0,0:0:0:0:
436,284,211458,1,0,0:0:0:0:
256,188,211612,1,0,0:0:0:0:
360,340,211766,1,8,0:0:0:0:
452,184,211920,1,0,0:0:0:0:
452,184,211997,1,0,0:0:0:0:
452,184,212074,6,0,B|464:144|464:144|440:36,1,142.5,4|0,0:0|0:0,0:0:0:0:
352,24,212381,2,0,B|373:122,1,95,8|0,0:0|0:0,0:0:0:0:
256,228,212689,1,0,0:0:0:0:
296,96,212843,1,0,0:0:0:0:
416,196,212997,1,8,0:0:0:0:
260,72,213151,1,0,0:0:0:0:
332,268,213305,6,0,L|344:196,1,47.5,8|0,0:0|0:0,0:0:0:0:
476,132,213458,2,0,P|496:180|484:260,1,95,8|0,0:0|0:0,0:0:0:0:
304,280,213766,6,0,L|316:208,1,47.5,8|0,0:0|0:0,0:0:0:0:
492,116,213920,2,0,P|512:164|500:244,1,95,8|0,0:0|0:0,0:0:0:0:
496,252,214151,5,0,0:0:0:0:
460,284,214228,1,8,0:0:0:0:
412,292,214305,1,8,0:3:0:0:
368,276,214381,1,8,0:3:0:0:
320,276,214458,1,8,0:3:0:0:
284,308,214535,6,0,B|212:300|212:300|160:320|160:320|92:312,1,190
148,60,214997,2,0,L|168:220,1,142.5,8|0,0:0|0:0,0:0:0:0:
200,216,215305,2,0,L|185:102,1,95,8|8,0:0|0:0,0:0:0:0:
376,48,215612,1,8,0:0:0:0:
456,100,215766,5,0,0:0:0:0:
424,136,215843,1,0,0:0:0:0:
376,148,215920,1,0,0:0:0:0:
332,136,215997,1,0,0:0:0:0:
292,108,216074,1,0,0:0:0:0:
276,64,216151,1,0,0:0:0:0:
284,16,216228,5,0,0:0:0:0:
244,40,216305,1,0,0:0:0:0:
220,80,216381,1,4,0:0:0:0:
208,128,216458,1,0,0:0:0:0:
212,176,216535,1,0,0:0:0:0:
240,212,216612,1,0,0:0:0:0:
284,232,216689,1,0,0:0:0:0:
308,272,216766,1,0,0:0:0:0:
296,316,216843,1,0,0:0:0:0:
256,340,216920,1,0,0:0:0:0:
208,332,216997,6,0,P|152:320|72:360,1,142.5,4|0,0:0|0:0,0:0:0:0:
4,308,217305,2,0,P|60:268|112:248,1,95,8|0,0:0|0:0,0:0:0:0:
284,232,217612,2,0,P|276:180|260:112,1,95
128,104,217920,1,8,0:0:0:0:
272,28,218074,1,0,0:0:0:0:
400,180,218228,6,0,P|388:272|368:376,2,190,0|8|0,0:0|0:0|0:0,0:0:0:0:
320,132,218997,1,0,0:0:0:0:
476,256,219151,1,8,0:0:0:0:
408,80,219305,1,0,0:0:0:0:
292,220,219458,6,0,P|240:212|192:208,1,95
52,232,219766,2,0,P|56:184|63:137,1,95,8|0,0:0|0:0,0:0:0:0:
220,36,220074,2,0,P|227:82|231:130,1,95
352,280,220381,2,0,P|376:232|344:148,1,142.5,8|0,0:0|0:0,0:0:0:0:
328,312,220689,6,0,P|380:328|432:324,1,95
504,284,220997,1,8,0:0:0:0:
376,60,221151,2,0,L|384:176,1,95
276,240,221458,1,0,0:0:0:0:
460,176,221612,1,8,0:0:0:0:
284,76,221766,2,0,L|272:148,1,47.5
256,208,221920,6,0,B|208:200|208:200|136:212|136:212|56:200,1,190,0|8,0:0|0:0,0:0:0:0:
308,288,222381,2,0,P|348:240|304:120,1,190
160,36,222843,2,0,P|164:104|176:148,1,95,12|0,0:0|0:0,0:0:0:0:
314,127,223151,5,8,0:0:0:0:
176,260,223305,1,8,0:0:0:0:
344,208,223458,1,0,0:0:0:0:
232,64,223612,1,8,0:0:0:0:
404,140,223766,1,0,0:0:0:0:
312,312,223920,5,0,0:0:0:0:
268,292,223997,1,0,0:0:0:0:
220,292,224074,1,8,0:0:0:0:
176,312,224151,1,8,0:3:0:0:
128,316,224228,1,8,0:3:0:0:
84,292,224305,1,8,0:3:0:0:
64,248,224381,5,12,0:0:0:0:
136,64,224535,1,8,0:0:0:0:
336,192,224843,5,8,0:0:0:0:
136,172,224997,1,8,0:0:0:0:
248,364,225305,5,8,0:0:0:0:
156,156,225458,1,8,0:0:0:0:
368,84,225766,5,8,0:0:0:0:
284,268,225920,1,8,0:0:0:0:
168,140,226228,5,12,0:0:0:0:
420,152,226381,1,8,0:0:0:0:
196,268,226689,5,8,0:0:0:0:
368,84,226843,1,8,0:0:0:0:
232,48,227151,5,8,0:0:0:0:
300,280,227305,1,8,0:0:0:0:
100,88,227612,6,0,P|80:124|88:176,1,95,8|0,0:0|0:0,0:0:0:0:
168,140,227920,5,8,0:0:0:0:
260,124,228228,5,8,0:0:0:0:
352,108,228535,5,8,0:0:0:0:
444,92,228843,5,8,0:0:0:0:
332,308,229151,5,12,0:0:0:0:
