osu file format v13

[General]
AudioFilename: sm17094726.mp3
AudioLeadIn: 0
PreviewTime: 223116
Countdown: 0
SampleSet: Soft
StackLeniency: 0.7
Mode: 0
LetterboxInBreaks: 0
WidescreenStoryboard: 1

[Editor]
DistanceSpacing: 1
BeatDivisor: 4
GridSize: 8
TimelineZoom: 1.9

[Metadata]
Title:Kitsune no Yomeiri
TitleUnicode:狐ノ嫁入リ
Artist:Hanatan
ArtistUnicode:花たん
Creator:Beren
Version:cmn's Normal
Source:
Tags:cmn_891127 Blove vivicat niconico vocaloid yurika OSTER Project sawashiro miyuki Bakahuang kiiwa
BeatmapID:463757
BeatmapSetID:46813

[Difficulty]
HPDrainRate:4
CircleSize:3.5
OverallDifficulty:4
ApproachRate:5
SliderMultiplier:1.20000000596046
SliderTickRate:1

[Events]
//Background and Video events
0,0,"Kitsune.jpg",0,0
//Break Periods
2,101602,119402
2,168802,186602
2,223659,233231
//Storyboard Layer 0 (Background)
//Storyboard Layer 1 (Fail)
//Storyboard Layer 2 (Pass)
//Storyboard Layer 3 (Foreground)
//Storyboard Sound Samples
//Background Colour Transformations
3,100,163,162,255

[TimingPoints]
42431,342.857142857143,4,2,1,70,1,0
53402,-100,4,1,1,70,0,0
54602,-100,4,2,1,70,0,0
56145,-100,4,1,1,70,0,0
57345,-100,4,2,1,70,0,0
63345,-100,4,2,1,100,0,0
64031,-100,4,2,1,70,0,0
64373,-100,4,1,1,70,0,0
65573,-100,4,2,1,70,0,0
67116,-100,4,1,1,70,0,0
67973,-100,4,2,1,70,0,0
68145,-100,4,1,1,70,0,0
68316,-100,4,2,1,70,0,0
73973,-100,4,2,2,70,0,0
74316,-100,4,2,1,70,0,0
75345,-100,4,1,2,70,0,0
77745,-100,4,2,2,70,0,0
80488,-100,4,2,1,70,0,0
80831,-100,4,1,2,70,0,0
83059,-100,4,2,2,70,0,0
83231,-100,4,1,2,70,0,0
88202,-100,4,2,2,70,0,0
88373,-100,4,1,2,70,0,0
88888,-100,4,2,2,70,0,0
89059,-100,4,1,2,70,0,0
89231,-100,4,2,2,70,0,0
89402,-100,4,1,2,70,0,0
89573,-100,4,2,2,70,0,0
89745,-100,4,1,2,70,0,0
90259,-100,4,2,2,70,0,0
90431,-100,4,1,2,70,0,0
90945,-100,4,2,1,70,0,0
91116,-100,4,1,2,70,0,0
91631,-100,4,2,2,70,0,0
91802,-100,4,1,2,70,0,0
91973,-100,4,2,2,70,0,0
92145,-100,4,1,2,70,0,0
92316,-100,4,2,2,70,0,0
92488,-100,4,1,2,70,0,0
93002,-100,4,2,2,70,0,0
93173,-100,4,1,2,70,0,0
93688,-100,4,2,2,70,0,0
93859,-100,4,1,2,70,0,0
94373,-100,4,2,2,70,0,0
94545,-100,4,1,2,70,0,0
95059,-100,4,2,2,70,0,0
95231,-100,4,1,2,70,0,0
95745,-100,4,2,2,70,0,0
95916,-100,4,1,2,70,0,0
96088,-100,4,2,2,70,0,0
96259,-100,4,1,2,70,0,0
96431,-100,4,2,2,70,0,0
96602,-100,4,1,2,70,0,0
96773,-100,4,2,2,70,0,0
96945,-100,4,1,2,70,0,0
97116,-100,4,2,2,70,0,0
97288,-100,4,1,2,70,0,0
101059,-100,4,2,1,70,0,0
119402,-100,4,1,2,67,0,0
128488,-100,4,2,1,70,0,0
131573,-100,4,1,2,70,0,0
140831,-100,4,1,2,67,0,0
159002,-100,4,1,0,70,0,0
159516,-100,4,1,2,70,0,0
161745,-100,4,1,0,70,0,0
162259,-100,4,1,2,70,0,0
165173,-100,4,1,1,70,0,0
165859,-100,4,2,1,70,0,0
187802,-100,4,1,1,70,0,0
188831,-100,4,2,1,70,0,0
190545,-100,4,1,2,70,0,0
191573,-100,4,2,1,70,0,0
198773,-100,4,1,1,70,0,0
199116,-100,4,2,1,70,0,0
199459,-100,4,1,1,70,0,0
199802,-100,4,2,1,70,0,0
201516,-100,4,1,1,70,0,0
201859,-100,4,2,1,70,0,0
202202,-100,4,1,1,70,0,0
202288,-100,4,2,1,70,0,0
209402,-100,4,2,2,70,0,0
209745,-100,4,1,2,70,0,0
212145,-100,4,2,2,70,0,0
215231,-100,4,1,2,70,0,0
223116,-100,4,2,2,60,0,0
223216,-100,4,2,2,70,0,0
234431,-100,4,1,2,70,0,0
252945,-100,4,2,1,5,0,0
257402,-100,4,2,2,50,0,0
257745,-133.333333333333,4,2,2,50,0,0
265631,-133.333333333333,4,2,1,70,0,0
266316,-133.333333333333,4,2,2,20,0,0

[Colours]
Combo1 : 213,68,151
Combo2 : 206,82,79
Combo3 : 198,160,62
Combo4 : 149,192,67

[HitObjects]
175,249,53059,5,8,0:0:0:0:
175,249,53402,2,0,L|244:268,2,60.000000298023,0|0|0,0:0|0:0|0:0,0:0:0:0:
65,298,54088,2,0,B|123:319|123:319|72:269|101:205,1,180.000000894069,0|4,0:0|0:0,0:0:0:0:
185,128,54945,1,0,0:0:0:0:
233,164,55116,2,0,P|259:179|288:182,1,60.000000298023,8|0,0:0|0:0,0:0:0:0:
326,228,55459,2,0,P|320:159|379:105,1,120.000000596046,0|8,0:0|0:0,0:0:0:0:
458,169,56145,6,0,P|451:137|420:114,2,60.000000298023,0|0|0,0:0|0:0|0:0,0:0:0:0:
451,289,56831,2,0,P|423:281|393:282,1,60.000000298023,0|0,0:0|0:0,0:0:0:0:
374,338,57173,2,0,P|322:310|263:316,1,120.000000596046,0|0,0:0|0:0,0:0:0:0:
206,337,57688,1,0,0:0:0:0:
164,294,57859,2,0,P|134:307|103:304,1,60.000000298023,8|0,0:0|0:0,0:0:0:0:
53,278,58202,2,0,P|114:253|131:198,1,120.000000596046,0|8,0:0|0:0,0:0:0:0:
147,86,58888,6,0,B|202:85|224:134|281:126,2,120.000000596046,4|8|0,0:0|0:0|0:0,0:0:0:0:
98,121,59745,2,0,P|87:163|114:232,1,120.000000596046,0|0,0:0|0:0,0:0:0:0:
172,238,60259,2,0,P|202:231|231:237,1,60.000000298023,0|0,0:0|0:0,0:0:0:0:
284,265,60602,2,0,P|325:308|383:318,1,120.000000596046,8|0,0:0|0:0,0:0:0:0:
432,208,61288,6,0,P|389:217|365:214,1,60.000000298023,8|0,0:0|0:0,0:0:0:0:
332,171,61631,2,0,P|297:166|207:189,2,120.000000596046,6|0|0,0:0|0:0|0:0,0:0:0:0:
387,146,62488,2,0,P|379:102|387:80,1,60.000000298023,8|0,0:0|0:0,0:0:0:0:
343,42,62831,2,0,B|302:29|261:119|174:103,1,180.000000894069,2|0,0:0|0:0,0:0:0:0:
78,167,63688,2,0,B|139:164|132:200|206:200,1,120.000000596046,0|8,0:0|0:0,0:0:0:0:
189,319,64373,6,0,P|216:279|289:273,1,120.000000596046,0|0,0:0|0:0,0:0:0:0:
393,318,65059,2,0,P|373:292|368:254,1,60.000000298023,0|0,0:0|0:0,0:0:0:0:
403,217,65402,2,0,P|425:151|387:98,2,120.000000596046,0|0|8,0:0|0:0|0:0,0:0:0:0:
296,160,66431,1,0,0:0:0:0:
176,159,66773,6,0,P|148:185|114:192,1,60.000000298023,8|0,0:0|0:0,0:0:0:0:
92,240,67116,2,0,B|132:247|162:299|210:298,2,120.000000596046,0|0|0,0:0|0:0|0:0,0:0:0:0:
48,192,67973,2,0,P|48:152|72:128,1,60.000000298023
120,119,68316,2,0,P|177:131|237:124,1,120.000000596046,4|0,0:0|0:0,0:0:0:0:
239,184,68831,2,0,P|314:168|354:180,1,120.000000596046,8|0,0:0|0:0,0:0:0:0:
407,287,69516,6,0,P|406:249|421:226,1,60.000000298023,8|0,0:0|0:0,0:0:0:0:
466,197,69859,2,0,P|494:156|435:104,1,120.000000596046,4|8,0:0|0:0,0:0:0:0:
339,80,70545,2,0,P|302:99|269:98,1,60.000000298023,0|0,0:0|0:0,0:0:0:0:
225,86,70888,1,8,0:0:0:0:
205,142,71059,2,0,P|168:130|86:145,1,120.000000596046,0|0,0:0|0:0,0:0:0:0:
107,200,71573,2,0,P|74:208|40:241,1,60.000000298023,8|0,0:0|0:0,0:0:0:0:
22,275,71916,2,0,P|105:274|135:300,1,120.000000596046,0|8,0:0|0:0,0:0:0:0:
245,331,72602,6,0,P|237:279|284:232,1,120.000000596046,0|8,0:0|0:0,0:0:0:0:
337,214,73116,1,0,0:0:0:0:
394,195,73288,2,0,P|433:199|468:188,1,60.000000298023,0|0,0:0|0:0,0:0:0:0:
495,152,73631,2,0,P|496:114|488:75,1,60.000000298023,8|0,0:0|0:0,0:0:0:0:
445,56,73973,2,0,B|411:55|373:106|325:90,2,120.000000596046,0|8|0,0:0|0:0|0:0,0:0:0:0:
396,229,75173,5,0,0:0:0:0:
338,211,75345,2,0,P|288:203|222:238,1,120.000000596046,2|0,0:0|0:0,0:0:0:0:
187,277,75859,2,0,P|150:294|128:296,1,60.000000298023,0|0,0:0|0:0,0:0:0:0:
40,216,76373,2,0,P|84:216|107:205,1,60.000000298023,0|0,0:0|0:0,0:0:0:0:
145,172,76716,2,0,P|189:147|264:168,1,120.000000596046,0|0,0:0|0:0,0:0:0:0:
309,185,77231,2,0,P|356:171|378:175,1,60.000000298023,0|2,0:0|0:0,0:0:0:0:
480,216,77745,6,0,L|464:288,1,60.000000298023
445,328,78088,2,0,P|442:266|398:220,1,120.000000596046,4|8,0:0|0:0,0:0:0:0:
295,272,78773,2,0,P|298:210|342:164,1,120.000000596046,0|8,0:0|0:0,0:0:0:0:
391,145,79288,1,0,0:0:0:0:
374,86,79459,2,0,B|299:111|284:40|266:60,2,120.000000596046,0|8|8,0:0|0:0|0:0,0:0:0:0:
364,206,80488,6,0,P|327:210|298:220,1,60.000000298023,8|0,0:0|0:0,0:0:0:0:
255,250,80831,1,2,0:0:0:0:
202,221,81002,2,0,P|165:198|85:205,1,120.000000596046,0|0,0:0|0:0,0:0:0:0:
37,229,81516,1,0,0:0:0:0:
92,122,81859,1,2,0:0:0:0:
150,134,82031,2,0,P|197:134|215:127,1,60.000000298023,0|0,0:0|0:0,0:0:0:0:
263,106,82373,1,0,0:0:0:0:
317,79,82545,2,0,P|379:64|450:93,2,120.000000596046,8|8|0,0:0|0:0|0:0,0:0:0:0:
374,184,83573,6,0,P|394:274|305:216,1,240.000001192092,0|2,0:0|0:0,0:0:0:0:
313,173,84431,1,0,0:0:0:0:
257,152,84602,2,0,P|237:127|239:91,1,60.000000298023,2|0,0:0|0:0,0:0:0:0:
281,61,84945,2,0,P|238:127|176:135,1,120.000000596046,2|2,0:0|0:0,0:0:0:0:
102,205,85631,2,0,B|149:196|166:243|215:232,2,120.000000596046,2|2|2,0:0|0:0|0:0,0:0:0:0:
256,192,86402,12,8,87173,0:0:0:0:
322,142,87688,6,0,B|397:158|409:100|430:104,2,120.000000596046,0|8|0,0:0|0:0|0:0,0:0:0:0:
202,128,88716,2,0,B|185:211|252:226|235:235,1,120.000000596046,8|0,0:0|0:0,0:0:0:0:
181,263,89231,2,0,P|153:273|124:270,1,60.000000298023,0|8,0:0|0:0,0:0:0:0:
80,310,89573,2,0,P|37:298|16:301,1,60.000000298023,0|0,0:0|0:0,0:0:0:0:
38,180,90088,6,0,P|75:191|100:188,1,60.000000298023,8|0,0:0|0:0,0:0:0:0:
152,211,90431,2,0,P|145:165|199:109,1,120.000000596046,0|8,0:0|0:0,0:0:0:0:
249,107,90945,1,0,0:0:0:0:
302,133,91116,2,0,B|342:142|382:104|426:115,1,120.000000596046,0|8,0:0|0:0,0:0:0:0:
468,149,91631,2,0,P|480:176|480:208,2,60.000000298023,0|2|8,0:0|0:0|0:0,0:0:0:0:
413,175,92145,2,0,P|380:216|378:289,1,120.000000596046,10|2,0:0|0:0,0:0:0:0:
268,337,92831,6,0,P|234:304|213:301,1,60.000000298023,8|0,0:0|0:0,0:0:0:0:
184,346,93173,2,0,P|218:290|206:226,1,120.000000596046,14|8,0:0|0:0,0:0:0:0:
176,189,93688,2,0,P|165:152|172:124,1,60.000000298023,0|10,0:0|0:0,0:0:0:0:
278,83,94202,1,10,0:0:0:0:
396,104,94545,2,0,P|448:66|369:70,1,180.000000894069,10|0,0:0|0:0,0:0:0:0:
396,105,95231,2,0,B|414:148|365:191|377:220,1,120.000000596046,10|8,0:0|0:0,0:0:0:0:
419,263,95745,1,0,0:0:0:0:
443,317,95916,6,0,P|390:295|328:312,1,120.000000596046,2|8,0:0|0:0,0:0:0:0:
212,287,96602,2,0,P|270:278|313:232,1,120.000000596046,2|8,0:0|0:0,0:0:0:0:
329,177,97116,2,0,P|349:147|379:131,2,60.000000298023,0|10|8,0:0|0:0|0:0,0:0:0:0:
261,77,97802,1,0,0:0:0:0:
217,118,97973,2,0,P|165:145|102:136,1,120.000000596046,0|14,0:0|0:0,0:0:0:0:
256,192,98659,12,0,101402,0:0:0:0:
155,142,120602,6,0,L|231:153,1,60.000000298023,8|0,0:0|0:0,0:0:0:0:
391,183,121288,2,0,L|322:200,2,60.000000298023,8|0|8,0:0|0:0|0:0,0:0:0:0:
407,240,121802,2,0,P|342:228|278:239,1,120.000000596046,8|0,0:0|0:0,0:0:0:0:
238,202,122316,2,0,P|180:214|121:206,1,120.000000596046,8|0,0:0|0:0,0:0:0:0:
139,87,123002,6,0,P|169:99|217:95,1,60.000000298023,8|0,0:0|0:0,0:0:0:0:
244,136,123345,2,0,P|272:125|302:123,1,60.000000298023,8|0,0:0|0:0,0:0:0:0:
472,63,124031,2,0,P|444:75|414:76,1,60.000000298023,8|0,0:0|0:0,0:0:0:0:
360,101,124373,1,8,0:0:0:0:
343,162,124545,2,0,B|331:182|390:199|369:274,1,120.000000596046,0|8,0:0|0:0,0:0:0:0:
401,324,125059,2,0,P|366:310|331:314,1,60.000000298023,0|8,0:0|0:0,0:0:0:0:
289,334,125402,2,0,P|229:357|162:338,1,120.000000596046,0|8,0:0|0:0,0:0:0:0:
99,252,126088,6,0,B|151:258|163:221|217:225,2,120.000000596046,8|0|8,0:0|0:0|0:0,0:0:0:0:
48,222,126945,2,0,P|16:212|-16:216,1,60.000000298023,0|0,0:0|0:0,0:0:0:0:
70,125,127459,2,0,P|102:135|134:131,1,60.000000298023,0|8,0:0|0:0,0:0:0:0:
165,180,127802,2,0,P|161:130|199:74,2,120.000000596046,0|0|0,0:0|0:0|0:0,0:0:0:0:
283,159,128831,5,0,0:0:0:0:
314,209,129002,1,0,0:0:0:0:
345,259,129173,2,0,B|371:246|433:287|475:247,1,120.000000596046,2|0,0:0|0:0,0:0:0:0:
502,210,129688,2,0,P|514:177|510:149,1,60.000000298023,2|0,0:0|0:0,0:0:0:0:
479,102,130031,2,0,B|433:75|558:168|417:263|325:206|312:109|377:72,1,300.000001490115,0|0,0:0|0:0,0:0:0:0:
267,138,131231,6,0,P|230:131|202:115,1,60.000000298023,0|0,0:0|0:0,0:0:0:0:
162,84,131573,2,0,P|210:125|216:191,1,120.000000596046,0|8,0:0|0:0,0:0:0:0:
107,222,132259,2,0,P|74:214|41:216,1,60.000000298023,0|8,0:0|0:0,0:0:0:0:
102,321,132773,2,0,P|163:304|234:323,1,120.000000596046,8|8,0:0|0:0,0:0:0:0:
271,341,133288,2,0,P|315:349|339:346,1,60.000000298023,0|8,0:0|0:0,0:0:0:0:
373,306,133631,2,0,P|346:242|359:192,1,120.000000596046,0|8,0:0|0:0,0:0:0:0:
245,151,134316,6,0,P|216:142|187:144,2,60.000000298023,8|0|0,0:0|0:0|0:0,0:0:0:0:
202,263,135002,2,0,P|174:275|144:278,1,60.000000298023,8|0,0:0|0:0,0:0:0:0:
138,338,135345,2,0,P|190:310|256:320,1,120.000000596046,8|0,0:0|0:0,0:0:0:0:
306,337,135859,1,0,0:0:0:0:
348,294,136031,2,0,P|378:307|409:304,1,60.000000298023,0|8,0:0|0:0,0:0:0:0:
459,278,136373,2,0,P|398:253|381:198,1,120.000000596046,0|0,0:0|0:0,0:0:0:0:
365,86,137059,6,0,B|310:85|288:134|231:126,2,120.000000596046,8|0|0,0:0|0:0|0:0,0:0:0:0:
414,121,137916,2,0,P|425:163|398:232,1,120.000000596046,8|8,0:0|0:0,0:0:0:0:
340,238,138431,2,0,P|310:231|281:237,1,60.000000298023,0|0,0:0|0:0,0:0:0:0:
228,265,138773,2,0,P|187:308|129:318,1,120.000000596046,0|0,0:0|0:0,0:0:0:0:
80,208,139459,6,0,P|123:217|147:214,1,60.000000298023,0|0,0:0|0:0,0:0:0:0:
180,171,139802,2,0,P|215:166|305:189,2,120.000000596046,8|0|0,0:0|0:0|0:0,0:0:0:0:
125,146,140659,2,0,P|133:102|125:80,1,60.000000298023,8|0,0:0|0:0,0:0:0:0:
109,31,141002,1,8,0:0:0:0:
168,22,141173,2,0,B|229:19|222:55|296:55,1,120.000000596046,8|0,0:0|0:0,0:0:0:0:
378,126,141859,2,0,B|317:123|324:159|250:159,1,120.000000596046,0|0,0:0|0:0,0:0:0:0:
312,268,142545,6,0,P|254:282|194:258,1,120.000000596046,0|0,0:0|0:0,0:0:0:0:
149,296,143059,2,0,P|112:313|90:315,1,60.000000298023,0|0,0:0|0:0,0:0:0:0:
30,213,143573,2,0,P|74:213|97:202,1,60.000000298023,0|0,0:0|0:0,0:0:0:0:
140,176,143916,2,0,P|184:151|259:172,1,120.000000596046,8|0,0:0|0:0,0:0:0:0:
301,198,144431,2,0,P|348:184|370:188,1,60.000000298023,8|0,0:0|0:0,0:0:0:0:
472,216,144945,6,0,L|456:280,1,60.000000298023,8|0,0:0|0:0,0:0:0:0:
445,328,145288,2,0,P|442:266|398:220,1,120.000000596046,8|8,0:0|0:0,0:0:0:0:
295,272,145973,2,0,P|298:210|342:164,1,120.000000596046,0|0,0:0|0:0,0:0:0:0:
391,145,146488,1,8,0:0:0:0:
374,86,146659,2,0,B|299:111|284:40|266:60,2,120.000000596046,0|0|8,0:0|0:0|0:0,0:0:0:0:
364,206,147688,6,0,P|327:210|298:220,1,60.000000298023,8|0,0:0|0:0,0:0:0:0:
255,250,148031,1,0,0:0:0:0:
202,221,148202,2,0,P|165:198|85:205,1,120.000000596046,0|0,0:0|0:0,0:0:0:0:
37,229,148716,1,0,0:0:0:0:
92,122,149059,1,8,0:0:0:0:
150,134,149231,2,0,P|197:134|215:127,1,60.000000298023,0|0,0:0|0:0,0:0:0:0:
263,106,149573,1,0,0:0:0:0:
317,79,149745,2,0,P|379:64|450:93,2,120.000000596046,0|8|8,0:0|0:0|0:0,0:0:0:0:
374,184,150773,6,0,P|394:274|305:216,1,240.000001192092,8|0,0:0|0:0,0:0:0:0:
313,173,151631,1,0,0:0:0:0:
257,152,151802,2,0,P|237:127|239:91,1,60.000000298023,0|0,0:0|0:0,0:0:0:0:
281,61,152145,2,0,P|238:127|176:135,1,120.000000596046,0|0,0:0|0:0,0:0:0:0:
102,205,152831,2,0,B|149:196|166:243|215:232,2,120.000000596046,0|0|0,0:0|0:0|0:0,0:0:0:0:
256,192,153602,12,0,154373,0:0:0:0:
322,142,154888,6,0,B|397:158|409:100|430:104,2,120.000000596046,8|0|8,0:0|0:0|0:0,0:0:0:0:
202,128,155916,2,0,B|185:211|252:226|235:235,1,120.000000596046,0|8,0:0|0:0,0:0:0:0:
181,263,156431,2,0,P|153:273|124:270,1,60.000000298023,0|8,0:0|0:0,0:0:0:0:
80,310,156773,2,0,P|37:298|16:301,1,60.000000298023,0|0,0:0|0:0,0:0:0:0:
38,180,157288,6,0,P|75:191|100:188,1,60.000000298023,8|0,0:0|0:0,0:0:0:0:
152,211,157631,2,0,P|145:165|199:109,1,120.000000596046,0|8,0:0|0:0,0:0:0:0:
249,107,158145,1,0,0:0:0:0:
302,133,158316,2,0,B|342:142|382:104|426:115,1,120.000000596046,0|0,0:0|0:0,0:0:0:0:
468,149,158831,2,0,P|480:176|480:208,2,60.000000298023,0|2|0,0:0|0:0|0:0,0:0:0:0:
413,175,159345,2,0,P|380:216|378:289,1,120.000000596046,2|8,0:0|0:0,0:0:0:0:
268,337,160031,6,0,P|234:304|213:301,1,60.000000298023,8|0,0:0|0:0,0:0:0:0:
184,346,160373,2,0,P|218:290|206:226,2,120.000000596046,0|8|0,0:0|0:0|0:0,0:0:0:0:
95,264,161402,2,0,B|106:216|56:194|76:140,1,120.000000596046,0|2,0:0|0:0,0:0:0:0:
127,122,161916,2,0,P|154:89|158:61,1,60.000000298023,0|2,0:0|0:0,0:0:0:0:
214,51,162259,1,0,0:0:0:0:
269,75,162431,2,0,B|312:93|355:44|384:56,1,120.000000596046,8|0,0:0|0:0,0:0:0:0:
410,110,162945,1,8,0:0:0:0:
434,164,163116,6,0,P|381:142|319:159,1,120.000000596046,8|8,0:0|0:0,0:0:0:0:
368,265,163802,2,0,P|311:280|257:258,1,120.000000596046,8|8,0:0|0:0,0:0:0:0:
256,198,164316,2,0,P|276:168|306:152,2,60.000000298023,0|0|8,0:0|0:0|0:0,0:0:0:0:
254,77,165002,1,0,0:0:0:0:
210,118,165173,2,0,P|158:145|95:136,1,120.000000596046,0|0,0:0|0:0,0:0:0:0:
256,192,165859,12,0,168602,0:0:0:0:
434,163,187802,5,0,0:0:0:0:
382,194,187973,2,0,P|317:212|231:145,1,180.000000894069,0|0,0:0|0:0,0:0:0:0:
212,93,188659,2,0,P|208:122|192:147,1,60.000000298023,0|0,0:0|0:0,0:0:0:0:
148,188,189002,2,0,P|169:225|155:306,1,120.000000596046,4|0,0:0|0:0,0:0:0:0:
109,333,189516,2,0,P|146:325|184:335,2,60.000000298023,8|0|0,0:0|0:0|0:0,0:0:0:0:
38,236,190202,6,0,B|91:242|103:214|157:224,1,120.000000596046,8|0,0:0|0:0,0:0:0:0:
208,249,190716,2,0,B|224:203|240:285|338:259|363:207,1,180.000000894069,0|0,0:0|0:0,0:0:0:0:
325,160,191402,2,0,P|362:152|386:133,1,60.000000298023,0|0,0:0|0:0,0:0:0:0:
420,95,191745,6,0,P|408:153|429:208,1,120.000000596046,2|0,0:0|0:0,0:0:0:0:
471,249,192259,2,0,B|444:226|421:281|357:262,1,120.000000596046,8|0,0:0|0:0,0:0:0:0:
310,300,192773,2,0,P|282:287|192:291,1,120.000000596046,8|0,0:0|0:0,0:0:0:0:
144,320,193288,6,0,L|120:256,1,60.000000298023,4|0,0:0|0:0,0:0:0:0:
101,210,193631,2,0,P|122:238|210:262,1,120.000000596046,8|0,0:0|0:0,0:0:0:0:
191,204,194145,2,0,P|186:160|199:129,1,60.000000298023,0|8,0:0|0:0,0:0:0:0:
141,109,194488,2,0,P|204:118|257:85,1,120.000000596046,0|0,0:0|0:0,0:0:0:0:
299,55,195002,2,0,P|341:37|369:36,2,60.000000298023,8|0|0,0:0|0:0|0:0,0:0:0:0:
305,114,195516,2,0,B|345:143|395:128|428:151,1,120.000000596046,0|0,0:0|0:0,0:0:0:0:
380,193,196031,6,0,P|392:283|442:203,1,240.000001192092,6|0,0:0|0:0,0:0:0:0:
380,193,196888,2,0,B|336:190|304:216|251:215,1,120.000000596046,8|2,0:0|0:0,0:0:0:0:
263,214,198431,6,0,L|229:203,2,30.0000001490115,0|0|0,0:0|0:0|0:0,0:0:0:0:
292,161,198773,2,0,P|257:138|241:113,1,60.000000298023,0|0,0:0|0:0,0:0:0:0:
264,66,199116,2,0,P|203:89|150:80,1,120.000000596046,8|0,0:0|0:0,0:0:0:0:
102,117,199631,2,0,P|105:148|99:178,1,60.000000298023,0|8,0:0|0:0,0:0:0:0:
56,217,199973,6,0,P|118:205|190:234,1,120.000000596046,0|0,0:0|0:0,0:0:0:0:
219,257,200488,2,0,L|209:224,4,30.0000001490115,0|0|0|0|0,0:0|0:0|0:0|0:0|0:0,0:0:0:0:
237,314,201002,2,0,P|242:269|298:210,1,120.000000596046,0|0,0:0|0:0,0:0:0:0:
329,259,201516,6,0,P|325:225|340:197,1,60.000000298023,0|0,0:0|0:0,0:0:0:0:
394,97,202031,1,0,0:0:0:0:
354,141,202202,2,0,P|325:160|297:166,1,60.000000298023,0|0,0:0|0:0,0:0:0:0:
202,97,202716,2,0,P|152:89|91:118,1,120.000000596046,0|0,0:0|0:0,0:0:0:0:
52,164,203231,2,0,B|115:157|112:195|172:184,2,120.000000596046,8|0|8,0:0|0:0|0:0,0:0:0:0:
96,275,204259,6,0,P|154:266|215:296,1,120.000000596046,4|8,0:0|0:0,0:0:0:0:
249,334,204773,1,0,0:0:0:0:
268,277,204945,2,0,L|289:218,1,60.000000298023,0|0,0:0|0:0,0:0:0:0:
339,251,205288,2,0,L|330:177,1,60.000000298023,8|0,0:0|0:0,0:0:0:0:
391,194,205631,2,0,P|364:160|380:67,2,120.000000596046,0|8|0,0:0|0:0|0:0,0:0:0:0:
447,174,206488,2,0,P|475:164|508:167,2,60.000000298023,0|8|0,0:0|0:0|0:0,0:0:0:0:
410,221,207002,6,0,P|351:242|282:229,1,120.000000596046,0|8,0:0|0:0,0:0:0:0:
241,207,207516,2,0,P|194:194|160:205,1,60.000000298023,0|0,0:0|0:0,0:0:0:0:
155,248,207859,2,0,P|168:202|139:130,1,120.000000596046,0|0,0:0|0:0,0:0:0:0:
90,163,208373,2,0,L|26:192,2,60.000000298023,0|0|8,0:0|0:0|0:0,0:0:0:0:
144,135,208888,1,0,0:0:0:0:
256,192,208973,12,2,209745,0:0:0:0:
88,120,210773,6,0,L|104:184,1,60.000000298023,2|0,0:0|0:0,0:0:0:0:
160,152,211116,2,0,L|152:232,1,60.000000298023,2|0,0:0|0:0,0:0:0:0:
216,200,211459,2,0,L|168:328,1,120.000000596046,2|2,0:0|0:0,0:0:0:0:
229,109,212488,6,0,B|280:109|295:76|346:76,2,120.000000596046,0|8|0,0:0|0:0|0:0,0:0:0:0:
182,147,213345,1,0,0:0:0:0:
132,181,213516,2,0,P|176:171|213:176,1,60.000000298023,8|0,0:0|0:0,0:0:0:0:
246,194,213859,2,0,P|309:227|365:221,1,120.000000596046,0|8,0:0|0:0,0:0:0:0:
386,275,214373,2,0,P|427:272|456:287,1,60.000000298023,0|0,0:0|0:0,0:0:0:0:
76,81,215231,6,0,L|92:145,1,60.000000298023,2|0,0:0|0:0,0:0:0:0:
147,113,215573,2,0,L|139:192,1,60.000000298023,2|0,0:0|0:0,0:0:0:0:
203,161,215916,2,0,L|155:288,1,120.000000596046,2|2,0:0|0:0,0:0:0:0:
279,255,216602,2,0,P|312:231|339:229,1,60.000000298023,2|0,0:0|0:0,0:0:0:0:
386,203,216945,2,0,P|327:190|268:200,2,120.000000596046,2|8|10,0:0|0:0|0:0,0:0:0:0:
383,77,217973,6,0,P|341:86|256:70,2,120.000000596046,8|10|8,0:0|0:0|0:0,0:0:0:0:
432,113,218831,2,0,P|394:112|358:121,1,60.000000298023,0|10,0:0|0:0,0:0:0:0:
317,137,219173,1,0,0:0:0:0:
265,165,219345,2,0,P|192:145|126:167,2,120.000000596046,8|10|8,0:0|0:0|0:0,0:0:0:0:
254,284,220373,2,0,P|196:293|140:273,1,120.000000596046,10|0,0:0|0:0,0:0:0:0:
79,266,220888,2,0,L|124:238,2,30.0000001490115,0|0|8,0:0|0:0|0:0,0:0:0:0:
21,281,221231,2,0,P|64:237|76:214,1,60.000000298023,0|8,0:0|0:0,0:0:0:0:
90,184,221573,1,10,0:0:0:0:
256,192,221659,12,0,223116,0:0:0:0:
256,192,223459,5,4,0:0:0:0:
104,128,234431,6,0,P|160:120|184:128,1,60.000000298023,8|0,0:0|0:0,0:0:0:0:
140,176,234773,2,0,P|190:153|259:159,2,120.000000596046,0|8|0,0:0|0:0|0:0,0:0:0:0:
103,290,235802,2,0,P|146:291|176:303,1,60.000000298023,8|0,0:0|0:0,0:0:0:0:
214,327,236145,2,0,P|254:340|283:335,2,60.000000298023,8|0|8,0:0|0:0|0:0,0:0:0:0:
272,224,236831,6,0,P|304:248|344:240,1,60.000000298023
382,233,237173,2,0,P|326:212|291:157,1,120.000000596046,8|0,0:0|0:0,0:0:0:0:
285,103,237688,2,0,P|252:120|214:126,1,60.000000298023,0|0,0:0|0:0,0:0:0:0:
109,118,238202,2,0,P|143:117|183:135,1,60.000000298023,0|0,0:0|0:0,0:0:0:0:
217,158,238545,2,0,B|264:160|280:120|333:120,2,120.000000596046,8|8|0,0:0|0:0|0:0,0:0:0:0:
147,256,239573,6,0,P|183:257|209:246,1,60.000000298023,8|0,0:0|0:0,0:0:0:0:
186,305,239916,2,0,P|250:274|306:284,1,120.000000596046,8|0,0:0|0:0,0:0:0:0:
352,304,240431,1,0,0:0:0:0:
397,343,240602,2,0,P|390:296|421:229,1,120.000000596046,8|0,0:0|0:0,0:0:0:0:
359,126,241288,2,0,P|394:120|417:99,2,60.000000298023,8|0|8,0:0|0:0|0:0,0:0:0:0:
329,178,241802,2,0,P|298:170|267:172,1,60.000000298023,0|8,0:0|0:0,0:0:0:0:
152,160,242316,6,0,L|168:240,1,60.000000298023,8|0,0:0|0:0,0:0:0:0:
177,270,242659,2,0,P|144:234|68:215,2,120.000000596046,8|8|8,0:0|0:0|0:0,0:0:0:0:
124,298,243516,2,0,P|169:292|235:322,1,120.000000596046,0|0,0:0|0:0,0:0:0:0:
270,371,244031,2,0,L|262:294,1,60.000000298023,0|8,0:0|0:0,0:0:0:0:
346,224,244545,2,0,L|338:147,1,60.000000298023,0|0,0:0|0:0,0:0:0:0:
241,95,245059,2,0,L|233:18,1,60.000000298023,0|0,0:0|0:0,0:0:0:0:
256,192,245402,12,0,253631,0:0:0:0:
53,177,258088,6,0,P|90:183|145:160,1,90.0000038802622,2|0,0:0|0:0,0:0:0:0:
209,110,258773,2,0,B|247:90|242:167|315:188|370:155,1,180.000007760524,2|2,0:0|0:0,0:0:0:0:
419,229,259802,1,0,0:0:0:0:
376,309,260145,2,0,B|347:356|376:291|337:227|240:251,1,180.000007760524,2|2,0:0|0:0,0:0:0:0:
174,307,261173,2,0,P|136:329|91:328,2,90.0000038802622,0|2|0,0:0|0:0|0:0,0:0:0:0:
112,241,262202,2,0,P|78:184|133:87,1,180.000007760524,2|2,0:0|0:0,0:0:0:0:
168,170,263231,5,0,0:0:0:0:
225,239,263573,2,0,B|256:270|264:205|361:221|396:245,1,180.000007760524,2|2,0:0|0:0,0:0:0:0:
474,290,264602,2,0,P|453:255|453:202,2,95.6250041227786,0|0|0,0:0|0:0|0:0,0:0:0:0:
393,329,265716,2,0,B|359:348|346:276|275:249|214:260,1,202.50000873059,0|0,0:0|0:0,0:0:0:0:
126,312,266831,6,0,B|89:308|57:331|14:326,2,112.500004850328,0|0|0,0:0|0:0|0:0,0:0:0:0:
135,178,268202,6,0,B|120:103|212:62|256:122|256:122|299:62|393:103|377:178|377:178|361:236|288:256|256:316|256:316|224:256|199:247,1,652.500028131901,0|0,0:0|0:0,0:0:0:0:
256,192,270773,12,0,272831,0:0:0:0:
