osu file format v13

[General]
AudioFilename: sm17094726.mp3
AudioLeadIn: 0
PreviewTime: 223116
Countdown: 0
SampleSet: Soft
StackLeniency: 0.5
Mode: 0
LetterboxInBreaks: 0
WidescreenStoryboard: 0

[Editor]
Bookmarks: 87516,131573,154716,187459,209745,223459
DistanceSpacing: 1.9
BeatDivisor: 4
GridSize: 4
TimelineZoom: 1

[Metadata]
Title:Kitsune no Yomeiri
TitleUnicode:狐ノ嫁入リ
Artist:Hanatan
ArtistUnicode:花たん
Creator:Beren
Version:Kiiwa's Insane
Source:
Tags:cmn_891127 Blove vivicat niconico vocaloid yurika OSTER Project sawashiro miyuki Bakahuang kiiwa
BeatmapID:153632
BeatmapSetID:46813

[Difficulty]
HPDrainRate:6
CircleSize:4
OverallDifficulty:6
ApproachRate:8
SliderMultiplier:1.3
SliderTickRate:1

[Events]
//Background and Video events
0,0,"Kitsune.jpg",0,0
//Break Periods
2,101602,118652
2,168802,185681
2,223658,228195
2,253916,256652
//Storyboard Layer 0 (Background)
//Storyboard Layer 1 (Fail)
//Storyboard Layer 2 (Pass)
//Storyboard Layer 3 (Foreground)
//Storyboard Sound Samples
//Background Colour Transformations
3,100,163,162,255

[TimingPoints]
42431,342.857142857143,4,2,1,65,1,0
50659,-100,4,2,1,65,0,0
52373,-100,4,2,1,40,0,0
53402,-100,4,2,1,65,0,0
64031,-100,4,2,2,65,0,0
64373,-100,4,2,2,70,0,0
69516,-100,4,2,1,50,0,0
69602,-100,4,2,1,55,0,0
69688,-100,4,2,1,60,0,0
69859,-100,4,2,2,70,0,0
73973,-100,4,1,0,70,0,0
75345,-100,4,2,1,65,0,0
77402,-100,4,2,2,70,0,0
77745,-100,4,2,1,50,0,0
77831,-100,4,2,1,55,0,0
77916,-100,4,2,1,60,0,0
78088,-100,4,2,2,70,0,0
80831,-100,4,2,1,65,0,0
81688,-100,4,2,2,70,0,0
92145,-100,4,1,0,70,0,0
93173,-100,4,2,2,70,0,0
119402,-100,4,1,0,50,0,0
119745,-100,4,1,0,60,0,0
120088,-100,4,2,1,70,0,0
120602,-100,4,2,1,70,0,0
121973,-100,4,2,2,70,0,0
123345,-100,4,2,1,70,0,0
124545,-100,4,2,2,70,0,0
125745,-100,4,2,1,50,0,0
125831,-100,4,2,1,55,0,0
125916,-100,4,2,1,60,0,0
126088,-100,4,2,2,70,0,0
136716,-100,4,2,1,50,0,0
136802,-100,4,2,1,55,0,0
136888,-100,4,2,1,60,0,0
137059,-100,4,2,2,70,0,0
141173,-100,4,1,0,60,0,0
142545,-100,4,2,1,65,0,0
144602,-100,4,2,2,70,0,0
144945,-100,4,2,1,50,0,0
145031,-100,4,2,1,55,0,0
145116,-100,4,2,1,60,0,0
145288,-100,4,2,2,70,0,0
146659,-100,4,2,0,70,0,0
147345,-100,4,2,2,70,0,0
148031,-100,4,2,1,65,0,0
149059,-100,4,2,2,70,0,0
159345,-100,4,1,0,70,0,0
160373,-100,4,2,2,70,0,0
186431,-100,4,1,0,50,0,0
187802,-100,4,2,1,70,0,0
197402,-100,4,2,2,70,0,0
204088,-100,4,2,1,50,0,0
204173,-100,4,2,1,55,0,0
204259,-100,4,2,1,60,0,0
204431,-100,4,2,2,70,0,0
209745,-100,4,2,1,60,0,0
211802,-100,4,2,2,70,0,0
212145,-100,4,2,1,50,0,0
212231,-100,4,2,1,55,0,0
212316,-100,4,2,1,60,0,0
212488,-100,4,2,2,70,0,0
214888,-100,4,2,1,60,0,0
215231,-100,4,2,1,60,0,0
216259,-100,4,2,2,70,0,0
221916,-100,4,2,2,70,0,0
228945,-100,4,1,0,70,0,0
233231,-100,4,2,1,70,0,0
233488,-100,4,1,0,70,0,0
233745,-100,4,2,1,70,0,0
234088,-100,4,2,2,70,0,0
239231,-100,4,1,0,70,0,0
239916,-100,4,2,2,70,0,0
253716,-100,4,2,2,5,0,0
257402,-200,4,2,2,50,0,0
266573,-100,4,2,2,5,0,0
268716,-200,4,2,2,40,0,0
272831,-100,4,2,2,5,0,0

[Colours]
Combo1 : 213,68,151
Combo2 : 206,82,79
Combo3 : 198,160,62
Combo4 : 149,192,67

[HitObjects]
105,110,50831,6,0,B|152:232,1,130,4|0,0:0|0:0,0:0:0:0:
209,126,51345,2,0,B|256:248,1,130,4|0,0:0|0:0,0:0:0:0:
313,142,51859,2,0,B|360:264,1,130,4|0,0:0|0:0,0:0:0:0:
463,279,52373,5,4,0:0:0:0:
255,247,52716,1,4,0:0:0:0:
49,214,53059,1,12,0:0:0:0:
96,56,53402,6,8,B|96:36|96:36|128:72,1,65
176,116,53745,2,0,B|208:144|288:132|284:60,1,130,0|8,0:0|0:0,0:0:0:0:
228,43,54259,5,8,0:0:0:0:
273,149,54431,1,0,0:0:0:0:
344,60,54602,2,0,B|380:48|464:84|452:176|416:208,1,195,0|8,0:0|0:0,0:0:0:0:
400,260,55288,1,0,0:0:0:0:
400,260,55373,1,0,0:0:0:0:
400,260,55459,2,0,B|360:288|388:348|456:328|452:272,1,130,0|4,0:0|0:0,0:0:0:0:
284,324,56145,5,8,0:0:0:0:
216,352,56316,2,0,B|172:364|112:336|104:272,1,130,8|8,0:0|0:0,0:0:0:0:
112,272,56745,1,0,0:0:0:0:
120,260,56831,2,0,B|152:244|196:288|180:336|156:360,1,130
216,352,57345,2,0,B|352:300,1,130,8|0,0:0|0:0,0:0:0:0:
400,280,57859,1,4,0:0:0:0:
400,280,58031,1,4,0:0:0:0:
337,305,58202,5,0,0:0:0:0:
453,320,58373,1,0,0:0:0:0:
408,212,58545,1,8,0:0:0:0:
220,180,58888,6,8,B|264:168|264:168|204:148,1,97.5,0|0,0:0|0:0,0:0:0:0:
279,168,59231,2,0,B|344:168,1,65,8|0,0:0|0:0,0:0:0:0:
240,88,59573,1,0,0:0:0:0:
168,100,59745,2,0,B|124:96|64:168|92:216,1,130,8|0,0:0|0:0,0:0:0:0:
184,232,60259,6,0,B|191:193|159:177,1,65,4|0,0:0|0:0,0:0:0:0:
128,276,60602,2,0,B|105:242|72:254,1,65,4|0,0:0|0:0,0:0:0:0:
100,336,60945,2,0,B|61:328|45:360,1,65,4|0,0:0|0:0,0:0:0:0:
168,340,61288,5,0,0:0:0:0:
232,364,61459,1,0,0:0:0:0:
276,312,61631,1,0,0:0:0:0:
232,259,61802,1,0,0:0:0:0:
176,278,61973,2,0,P|232:272|246:204,1,130,0|8,0:0|0:0,0:0:0:0:
248,208,62488,1,8,0:0:0:0:
248,208,62659,1,8,0:0:0:0:
248,208,62831,1,4,0:0:0:0:
248,208,63345,5,4,0:0:0:0:
312,164,63516,1,0,0:0:0:0:
348,284,63688,5,4,0:0:0:0:
272,284,63859,1,0,0:0:0:0:
380,208,64031,5,8,0:0:0:0:
380,208,64116,1,8,0:0:0:0:
380,208,64202,1,8,0:0:0:0:
464,112,64373,6,0,B|448:84|468:48,1,65,14|0,0:0|0:0,0:0:0:0:
352,0,64716,2,0,B|368:28|348:64,1,65,10|0,0:0|0:0,0:0:0:0:
466,50,65059,5,0,0:0:0:0:
349,61,65231,1,2,0:0:0:0:
324,176,65402,1,0,0:0:0:0:
420,240,65573,2,0,B|476:240|512:192|508:152,1,130,10|0,0:0|0:0,0:0:0:0:
496,264,66088,2,0,B|488:344,1,65
344,348,66431,1,8,0:0:0:0:
368,328,66516,1,8,0:0:0:0:
392,308,66602,1,8,0:0:0:0:
256,304,66773,2,0,B|204:292|176:248,1,97.5,2|0,0:0|0:0,0:0:0:0:
152,212,67116,6,0,B|184:252|172:312|124:324,1,130,14|0,0:0|0:0,0:0:0:0:
188,140,67802,1,8,0:0:0:0:
152,212,67973,1,2,0:0:0:0:
188,140,68145,1,8,0:0:0:0:
248,88,68316,2,0,B|296:36|368:64,1,130,2|0,0:0|0:0,0:0:0:0:
318,130,68831,2,0,B|312:168|356:180,1,65,8|0,0:0|0:0,0:0:0:0:
428,184,69173,5,8,0:0:0:0:
412,212,69259,1,8,0:0:0:0:
392,244,69345,1,8,0:0:0:0:
448,152,69516,1,8,0:0:0:0:
464,124,69602,1,8,0:0:0:0:
484,92,69688,1,8,0:0:0:0:
512,204,69859,6,0,B|460:200|404:252|412:312|452:352,1,195,14|0,0:0|0:0,0:0:0:0:
400,280,70545,1,8,0:0:0:0:
372,348,70716,2,0,B|224:312,1,130,2|0,0:0|0:0,0:0:0:0:
172,292,71231,5,4,0:0:0:0:
372,348,71573,1,4,0:0:0:0:
320,146,71916,1,4,0:0:0:0:
172,292,72259,5,8,0:0:0:0:
132,216,72431,1,0,0:0:0:0:
92,140,72602,2,0,B|48:56,1,65,8|2,0:0|0:0,0:0:0:0:
300,48,73116,5,2,0:0:0:0:
263,130,73288,2,0,B|239:166|212:168,1,65,8|2,0:0|0:0,0:0:0:0:
219,231,73631,2,0,B|200:192|212:168,1,65,8|0,0:0|0:0,0:0:0:0:
154,144,73973,6,0,B|197:147|212:168,1,65
298,165,74488,2,0,B|325:164|349:128,1,65
257,242,75002,2,8,B|245:266|264:305,1,65,0|0,0:0|0:0,0:0:0:0:
320,352,75345,5,8,0:0:0:0:
264,304,75516,1,8,0:0:0:0:
296,240,75688,1,8,0:0:0:0:
368,244,75859,1,8,0:0:0:0:
384,312,76031,1,8,0:0:0:0:
384,312,76373,5,8,0:0:0:0:
264,304,76545,1,8,0:0:0:0:
368,244,76716,1,8,0:0:0:0:
320,352,76888,1,8,0:0:0:0:
296,240,77059,1,8,0:0:0:0:
384,312,77231,1,8,0:0:0:0:
264,304,77402,5,8,0:0:0:0:
228,300,77488,1,8,0:0:0:0:
192,296,77573,1,8,0:0:0:0:
88,284,77745,1,8,0:0:0:0:
124,288,77831,1,8,0:0:0:0:
160,292,77916,1,8,0:0:0:0:
224,204,78088,6,0,B|224:132|324:104|380:136,1,195,14|0,0:0|0:0,0:0:0:0:
308,184,78773,2,0,B|276:108|336:48,1,130,8|0,0:0|0:0,0:0:0:0:
376,0,79288,1,2,0:0:0:0:
323,61,79459,6,0,B|300:88|264:92,1,65,0|2,0:0|0:0,0:0:0:0:
268,92,79802,2,0,B|238:111|202:105,1,65,8|2,0:0|0:0,0:0:0:0:
206,106,80145,2,0,B|172:116|139:102,1,65,8|0,0:0|0:0,0:0:0:0:
71,84,80488,1,8,0:0:0:0:
71,84,80573,1,8,0:0:0:0:
71,84,80659,1,8,0:0:0:0:
52,168,80831,5,8,0:0:0:0:
112,216,81002,1,8,0:0:0:0:
188,236,81173,1,8,0:0:0:0:
264,228,81345,1,8,0:0:0:0:
336,196,81516,1,8,0:0:0:0:
424,80,81859,5,8,0:0:0:0:
420,172,82031,1,2,0:0:0:0:
468,248,82202,2,0,B|480:280|512:292,1,65
512,292,82545,1,8,0:0:0:0:
424,284,82716,1,0,0:0:0:0:
336,312,82888,6,0,B|300:320|280:372,1,65,4|0,0:0|0:0,0:0:0:0:
132,328,83231,2,0,B|168:320|188:268,1,65,4|0,0:0|0:0,0:0:0:0:
351,280,83573,6,0,B|364:320|328:368|276:372,1,130,14|8,0:0|0:0,0:0:0:0:
212,336,84088,1,0,0:0:0:0:
281,371,84259,1,8,0:0:0:0:
356,356,84431,1,2,0:0:0:0:
416,304,84602,1,8,0:0:0:0:
432,228,84773,1,2,0:0:0:0:
428,148,84945,6,0,B|408:68,1,65,8|0,0:0|0:0,0:0:0:0:
328,72,85288,2,0,B|344:136,1,65,8|0,0:0|0:0,0:0:0:0:
259,123,85631,2,0,B|244:60,1,65,8|0,0:0|0:0,0:0:0:0:
159,46,85973,2,0,B|175:110,1,65,8|0,0:0|0:0,0:0:0:0:
75,35,86316,5,14,0:0:0:0:
159,46,86488,2,8,B|208:28,2,32.5
172,132,86831,1,2,0:0:0:0:
96,168,87002,1,4,0:0:0:0:
32,112,87173,1,4,0:0:0:0:
80,252,87345,5,2,0:0:0:0:
336,280,87688,6,0,B|316:176,1,97.5,12|0,0:0|0:0,0:0:0:0:
280,152,88031,2,0,B|300:116|360:148,1,65,8|0,0:0|0:0,0:0:0:0:
352,56,88373,2,0,B|391:44|411:109,1,65,8|0,0:0|0:0,0:0:0:0:
472,20,88716,2,0,B|508:40|476:100,1,65,8|0,0:0|0:0,0:0:0:0:
472,20,89059,5,4,0:0:0:0:
352,56,89231,1,2,0:0:0:0:
280,152,89402,1,8,0:0:0:0:
276,268,89573,1,2,0:0:0:0:
244,156,89745,1,8,0:0:0:0:
136,116,89916,1,2,0:0:0:0:
20,120,90088,6,0,B|-16:116|12:176|52:104,1,65,4|0,0:0|0:0,0:0:0:0:
96,68,90431,2,0,B|124:24|188:28,1,97.5,2|0,0:0|0:0,0:0:0:0:
272,12,90773,6,0,B|300:-8|328:44|256:40,1,65,4|0,0:0|0:0,0:0:0:0:
192,60,91116,2,0,B|136:56|108:100,1,97.5,2|0,0:0|0:0,0:0:0:0:
60,180,91459,6,0,B|108:192|108:192|60:244,1,97.5,2|0,0:0|0:0,0:0:0:0:
52,248,91802,2,0,B|32:280|64:332|116:328|144:304,1,130,8|0,0:0|0:0,0:0:0:0:
200,272,92316,1,0,0:0:0:0:
288,276,92488,1,0,0:0:0:0:
368,316,92659,2,0,B|352:356,2,32.5
436,376,93002,1,0,0:0:0:0:
440,300,93173,6,0,B|452:164,1,130,14|8,0:0|0:0,0:0:0:0:
456,96,93688,1,2,0:0:0:0:
512,176,93859,2,0,B|480:212|400:196|364:144|372:96,1,195,8|2,0:0|0:0,0:0:0:0:
384,24,94545,5,8,0:0:0:0:
371,104,94716,1,0,0:0:0:0:
304,148,94888,1,8,0:0:0:0:
228,116,95059,1,2,0:0:0:0:
212,36,95231,1,12,0:0:0:0:
48,152,95573,5,8,0:0:0:0:
48,152,95745,1,2,0:0:0:0:
48,152,95916,1,4,0:0:0:0:
124,196,96088,5,2,0:0:0:0:
256,192,96259,12,8,97288,0:0:0:0:
216,344,97459,5,8,0:0:0:0:
500,260,98145,5,2,0:0:0:0:
416,300,98316,5,8,0:0:0:0:
504,96,98659,1,12,0:0:0:0:
256,192,98831,12,4,101402,0:0:0:0:
16,232,119402,5,0,0:0:0:0:
56,312,119573,1,0,0:0:0:0:
136,344,119744,1,0,0:0:0:0:
220,340,119916,1,0,0:0:0:0:
288,292,120087,1,8,0:0:0:0:
308,208,120259,1,0,0:0:0:0:
296,120,120430,1,8,0:0:0:0:
268,200,120602,6,8,B|268:248|308:268,1,65
360,304,120945,2,0,B|392:320|456:312|472:264,1,130,0|8,0:0|0:0,0:0:0:0:
484,200,121459,2,0,B|456:344,1,130,8|4,0:0|0:0,0:0:0:0:
360,284,122145,6,0,B|320:288|304:332,1,65,8|2,0:0|0:0,0:0:0:0:
236,352,122488,1,0,0:0:0:0:
224,264,122659,2,0,B|184:172,1,97.5,2|0,0:0|0:0,0:0:0:0:
168,136,123002,2,0,B|140:68,1,65,8|0,0:0|0:0,0:0:0:0:
116,8,123345,5,8,0:0:0:0:
143,75,123516,1,8,0:0:0:0:
227,74,123688,1,2,0:0:0:0:
133,159,124031,1,8,0:0:0:0:
208,208,124202,1,8,0:0:0:0:
260,144,124373,1,0,0:0:0:0:
208,208,124545,6,0,B|196:264|88:296|40:244,1,195,4|8,0:0|0:0,0:0:0:0:
104,320,125231,1,0,0:0:0:0:
240,316,125402,5,8,0:0:0:0:
265,290,125488,1,8,0:0:0:0:
290,265,125574,1,8,0:0:0:0:
367,188,125746,1,8,0:0:0:0:
341,214,125831,1,8,0:0:0:0:
316,239,125917,1,8,0:0:0:0:
280,132,126088,6,0,B|260:72|312:24|352:16,1,130,4|8,0:0|0:0,0:0:0:0:
372,108,126602,2,0,B|396:72|448:76,1,65,0|8,0:0|0:0,0:0:0:0:
456,160,126945,1,2,0:0:0:0:
456,160,127116,1,0,0:0:0:0:
324,360,127459,5,4,0:0:0:0:
168,248,127802,1,4,0:0:0:0:
324,360,128144,1,4,0:0:0:0:
112,312,128488,5,8,0:0:0:0:
168,248,128659,1,2,0:0:0:0:
224,184,128831,2,8,B|280:124,1,65
228,72,129173,2,0,B|260:36|324:48|369:105|338:156,1,195,2|8,0:0|0:0,0:0:0:0:
338,155,129859,1,8,0:0:0:0:
338,155,130031,1,14,0:0:0:0:
340,156,130545,5,4,0:0:0:0:
359,240,130716,1,0,0:0:0:0:
486,163,130888,5,4,0:0:0:0:
416,107,131059,1,0,0:0:0:0:
449,243,131231,5,14,0:0:0:0:
466,270,131316,1,8,0:0:0:0:
483,297,131402,1,8,0:0:0:0:
288,336,131573,6,0,B|216:352,1,65,10|8,0:0|0:0,0:0:0:0:
64,380,131916,2,0,B|136:372|164:292|144:276,1,130,2|4,0:0|0:0,0:0:0:0:
224,350,132431,1,8,0:0:0:0:
288,284,132602,1,0,0:0:0:0:
256,200,132773,6,0,B|203:203|145:103|186:37,1,195,2|0,0:0|0:0,0:0:0:0:
120,100,133459,2,0,B|96:144|44:128,1,65
0,144,133802,1,0,0:0:0:0:
64,176,133973,2,0,B|116:184|136:268|100:292,1,130,0|4,0:0|0:0,0:0:0:0:
111,279,134488,1,0,0:0:0:0:
48,320,134659,6,0,B|192:312,1,130,0|8,0:0|0:0,0:0:0:0:
256,308,135173,1,2,0:0:0:0:
336,288,135345,1,0,0:0:0:0:
392,228,135516,2,0,B|428:176|416:84,1,130,2|0,0:0|0:0,0:0:0:0:
324,88,136031,2,0,B|324:128|352:160,1,65
260,144,136373,5,8,0:0:0:0:
224,136,136459,1,8,0:0:0:0:
188,128,136545,1,8,0:0:0:0:
80,104,136716,1,8,0:0:0:0:
116,112,136802,1,8,0:0:0:0:
152,120,136888,1,8,0:0:0:0:
224,224,137059,6,0,B|288:344,1,130,4|0,0:0|0:0,0:0:0:0:
368,348,137573,1,0,0:0:0:0:
320,272,137745,2,0,B|280:260|204:292|216:344,1,130,8|0,0:0|0:0,0:0:0:0:
164,380,138259,1,0,0:0:0:0:
88,344,138431,5,4,0:0:0:0:
320,272,138773,1,4,0:0:0:0:
141,108,139116,1,4,0:0:0:0:
88,344,139459,5,8,0:0:0:0:
104,260,139631,1,0,0:0:0:0:
124,172,139802,2,8,B|144:92,1,65
316,56,140316,5,0,0:0:0:0:
432,152,140488,2,0,B|420:104|376:100,1,65,4|0,0:0|0:0,0:0:0:0:
284,192,140831,2,0,B|331:205|357:169,1,65,4|0,0:0|0:0,0:0:0:0:
316,56,141173,6,0,B|280:90|298:130,1,65
343,311,141688,2,0,B|331:263|287:259,1,65
108,208,142202,2,0,B|155:221|181:185,1,65
256,192,142545,5,8,0:0:0:0:
168,200,142716,1,8,0:0:0:0:
136,116,142888,1,8,0:0:0:0:
196,52,143059,1,8,0:0:0:0:
268,104,143231,1,8,0:0:0:0:
268,104,143573,5,8,0:0:0:0:
196,52,143745,1,8,0:0:0:0:
136,116,143916,1,8,0:0:0:0:
168,200,144088,1,8,0:0:0:0:
256,192,144259,1,8,0:0:0:0:
268,104,144431,1,8,0:0:0:0:
336,160,144602,5,8,0:0:0:0:
368,164,144688,1,8,0:0:0:0:
400,168,144773,1,8,0:0:0:0:
496,180,144945,1,8,0:0:0:0:
464,176,145031,1,8,0:0:0:0:
432,172,145116,1,8,0:0:0:0:
472,272,145288,6,0,B|428:253|380:297|388:341,1,130,4|2,0:0|0:0,0:0:0:0:
324,336,145802,1,0,0:0:0:0:
452,356,145973,2,0,B|324:336,1,130,8|0,0:0|0:0,0:0:0:0:
264,280,146488,1,0,0:0:0:0:
200,344,146659,6,0,B|150:357|114:331,1,65,2|0,0:0|0:0,0:0:0:0:
136,344,147002,2,0,B|86:330|68:290,1,65,2|0,0:0|0:0,0:0:0:0:
80,312,147345,2,0,B|44:275|47:232,1,65,4|0,0:0|0:0,0:0:0:0:
48,256,147688,2,0,B|34:206|60:170,1,65,8|2,0:0|0:0,0:0:0:0:
64,116,148031,5,8,0:0:0:0:
136,156,148202,1,8,0:0:0:0:
160,236,148373,1,8,0:0:0:0:
128,316,148545,1,8,0:0:0:0:
48,344,148716,1,8,0:0:0:0:
72,84,149059,5,8,0:0:0:0:
168,144,149231,1,0,0:0:0:0:
196,240,149402,1,8,0:0:0:0:
152,340,149573,1,8,0:0:0:0:
56,384,149745,5,8,0:0:0:0:
128,316,149916,1,0,0:0:0:0:
232,316,150088,2,0,B|256:272|300:252,1,65,4|0,0:0|0:0,0:0:0:0:
352,156,150431,2,0,B|369:218,1,65,4|0,0:0|0:0,0:0:0:0:
504,272,150773,2,0,B|520:244|512:220|468:232,1,65,4|0,0:0|0:0,0:0:0:0:
483,229,151116,1,8,0:0:0:0:
484,232,151288,1,8,0:0:0:0:
484,236,151459,1,8,0:0:0:0:
432,272,151631,5,8,0:0:0:0:
340,240,151802,1,8,0:0:0:0:
400,364,151973,1,8,0:0:0:0:
308,336,152145,2,0,B|164:284,2,130,8|0|0,0:0|0:0|0:0,0:0:0:0:
108,328,153173,5,0,0:0:0:0:
185,291,153345,1,0,0:0:0:0:
72,248,153516,1,0,0:0:0:0:
148,216,153688,6,8,B|128:264,2,32.5
160,132,154031,1,0,0:0:0:0:
80,108,154203,1,4,0:0:0:0:
28,172,154374,1,4,0:0:0:0:
52,28,154545,5,2,0:0:0:0:
376,80,154888,6,0,B|400:172,1,65,4|0,0:0|0:0,0:0:0:0:
449,202,155231,2,0,B|512:220,1,65,8|0,0:0|0:0,0:0:0:0:
324,268,155573,2,0,B|391:201,1,65,8|0,0:0|0:0,0:0:0:0:
408,132,155916,2,0,B|384:40,1,65,8|0,0:0|0:0,0:0:0:0:
391,69,156259,5,4,0:0:0:0:
268,52,156431,1,2,0:0:0:0:
192,148,156602,1,8,0:0:0:0:
232,264,156773,1,2,0:0:0:0:
356,284,156945,1,8,0:0:0:0:
436,188,157116,1,2,0:0:0:0:
391,69,157288,6,0,B|428:172,1,97.5,8|0,0:0|0:0,0:0:0:0:
435,190,157631,2,0,B|448:220,1,32.5,4|0,0:0|0:0,0:0:0:0:
388,376,157973,6,0,B|351:273,1,97.5,8|0,0:0|0:0,0:0:0:0:
340,254,158316,2,0,B|328:224,1,32.5,4|0,0:0|0:0,0:0:0:0:
180,352,158659,5,8,0:0:0:0:
152,272,158831,1,0,0:0:0:0:
104,204,159002,1,8,0:0:0:0:
28,168,159173,1,0,0:0:0:0:
28,216,159345,5,0,0:0:0:0:
136,248,159516,1,0,0:0:0:0:
220,176,159688,1,0,0:0:0:0:
228,68,159859,2,0,B|220:20,2,32.5
320,128,160202,1,0,0:0:0:0:
372,60,160373,6,0,B|436:80|508:60,1,130,4|8,0:0|0:0,0:0:0:0:
440,108,160888,1,2,0:0:0:0:
504,156,161059,2,0,B|448:136|376:152,1,130,8|8,0:0|0:0,0:0:0:0:
304,200,161573,2,0,B|268:228|272:272,1,65
272,254,161916,2,0,B|264:292|272:336,1,65,2|8,0:0|0:0,0:0:0:0:
269,319,162259,2,0,B|272:368|284:388,1,65,0|8,0:0|0:0,0:0:0:0:
24,232,162773,5,8,0:0:0:0:
116,232,162945,1,2,0:0:0:0:
196,184,163116,1,2,0:0:0:0:
244,108,163288,1,2,0:0:0:0:
256,192,163459,12,8,164488,0:0:0:0:
311,62,164659,5,8,0:0:0:0:
316,296,165345,5,2,0:0:0:0:
240,368,165516,5,8,0:0:0:0:
92,152,165859,1,4,0:0:0:0:
256,192,166031,12,4,168602,0:0:0:0:
112,192,186431,6,0,B|156:324,1,130,4|0,0:0|0:0,0:0:0:0:
48,256,186945,2,8,B|22:180,1,65,8|8,0:0|0:0,0:0:0:0:
216,252,187288,2,0,B|241:327,1,65,8|0,0:0|0:0,0:0:0:0:
448,276,187802,6,8,B|400:260|392:320,1,65
448,340,188145,2,0,B|376:200,1,130,0|8,0:0|0:0,0:0:0:0:
312,176,188659,1,8,0:0:0:0:
320,88,188830,1,0,0:0:0:0:
404,80,189002,6,0,B|452:168,2,97.5,4|0|8,0:0|0:0|0:0,0:0:0:0:
484,104,189688,2,0,B|452:156|388:164|348:140,1,130,8|0,0:0|0:0,0:0:0:0:
296,120,190202,2,0,B|244:96|232:24|240:0,1,130,8|4,0:0|0:0,0:0:0:0:
320,40,190716,5,8,0:0:0:0:
108,108,191059,2,2,B|80:88,2,32.5,0|0|8,0:0|0:0|0:0,0:0:0:0:
48,176,191402,1,0,0:0:0:0:
140,192,191573,2,0,B|192:216|184:312|112:332|80:308,1,195,0|4,0:0|0:0,0:0:0:0:
164,304,192259,2,8,B|216:284|268:300,2,97.5,8|8|8,0:0|0:0|0:0,0:0:0:0:
132,376,192945,1,8,0:0:0:0:
468,184,193459,6,0,B|496:260,1,65,8|4,0:0|0:0,0:0:0:0:
352,112,193973,2,0,B|340:188,1,65,8|4,0:0|0:0,0:0:0:0:
472,52,194488,5,0,0:0:0:0:
472,52,194659,1,4,0:0:0:0:
352,112,194831,1,0,0:0:0:0:
352,112,195002,1,4,0:0:0:0:
468,184,195173,1,0,0:0:0:0:
468,184,195345,1,4,0:0:0:0:
320,364,195688,5,8,0:0:0:0:
412,348,195859,1,0,0:0:0:0:
320,364,196031,2,0,B|272:312|312:236|392:232|448:292|408:356,1,260,2|8,0:0|0:0,0:0:0:0:
408,256,196888,1,8,0:0:0:0:
424,168,197059,1,8,0:0:0:0:
468,88,197231,5,4,0:0:0:0:
468,88,198431,6,8,B|424:160|348:136,1,130,2|8,0:0|0:0,0:0:0:0:
288,108,198945,1,0,0:0:0:0:
348,168,199116,2,0,B|428:276,1,130,8|4,0:0|0:0,0:0:0:0:
480,332,199631,1,0,0:0:0:0:
312,340,199973,6,0,B|276:336|256:364,2,65,0|8|0,0:0|0:0|0:0,0:0:0:0:
396,332,200488,2,0,B|336:348|252:320|252:236,1,195,8|8,0:0|0:0,0:0:0:0:
172,200,201173,1,4,0:0:0:0:
252,242,201345,1,0,0:0:0:0:
104,256,201516,6,0,B|60:280|60:352|88:372,1,130,8|8,0:0|0:0,0:0:0:0:
4,100,202202,2,0,B|31:87|93:123|92:173,1,130,8|8,0:0|0:0,0:0:0:0:
172,200,202716,2,0,B|214:226|277:190|280:155,1,130,8|8,0:0|0:0,0:0:0:0:
260,88,203231,2,0,B|368:204,1,130
356,268,203745,5,8,0:0:0:0:
380,288,203831,1,8,0:0:0:0:
404,308,203916,1,8,0:0:0:0:
476,368,204088,1,8,0:0:0:0:
452,348,204173,1,8,0:0:0:0:
428,328,204258,1,8,0:0:0:0:
248,312,204602,6,0,B|204:288|204:288|164:348,1,97.5,8|0,0:0|0:0,0:0:0:0:
168,356,204945,2,0,B|104:384|20:356,1,130,2|8,0:0|0:0,0:0:0:0:
12,292,205459,1,0,0:0:0:0:
100,292,205631,5,4,0:0:0:0:
256,8,205973,5,4,0:0:0:0:
423,285,206316,5,4,0:0:0:0:
256,148,206659,5,2,0:0:0:0:
320,204,206831,1,2,0:0:0:0:
300,288,207002,1,8,0:0:0:0:
212,288,207173,1,2,0:0:0:0:
192,204,207345,1,0,0:0:0:0:
256,148,207516,5,2,0:0:0:0:
180,120,207688,2,0,B|104:128|56:72,1,130
80,12,208202,1,0,0:0:0:0:
128,72,208373,2,0,B|152:124|108:180|64:172,1,130,8|8,0:0|0:0,0:0:0:0:
8,144,208888,2,0,B|68:144|128:216|80:300,1,195,8|2,0:0|0:0,0:0:0:0:
244,356,209745,5,8,0:0:0:0:
272,272,209916,1,8,0:0:0:0:
328,192,210088,1,8,0:0:0:0:
416,160,210259,1,8,0:0:0:0:
508,144,210431,1,8,0:0:0:0:
244,356,210773,5,8,0:0:0:0:
268,280,210945,1,8,0:0:0:0:
304,212,211116,1,8,0:0:0:0:
368,172,211288,1,8,0:0:0:0:
440,156,211459,1,8,0:0:0:0:
512,156,211631,1,8,0:0:0:0:
416,108,211802,5,8,0:0:0:0:
388,96,211888,1,8,0:0:0:0:
360,84,211973,1,8,0:0:0:0:
276,48,212145,1,8,0:0:0:0:
304,60,212230,1,8,0:0:0:0:
332,72,212316,1,8,0:0:0:0:
224,120,212488,6,0,B|177:94|165:47|183:-1,1,130,4|2,0:0|0:0,0:0:0:0:
276,48,213002,1,0,0:0:0:0:
164,176,213173,2,0,B|97:138|79:25|104:-19,1,195,8|8,0:0|0:0,0:0:0:0:
100,180,213859,6,0,B|148:168|192:184,1,65,2|0,0:0|0:0,0:0:0:0:
164,176,214202,2,0,B|213:181|249:211,1,65,2|0,0:0|0:0,0:0:0:0:
224,196,214545,2,0,B|268:217|291:258,1,65,2|0,0:0|0:0,0:0:0:0:
320,300,214888,1,8,0:0:0:0:
320,300,214973,1,8,0:0:0:0:
320,300,215059,1,8,0:0:0:0:
396,272,215231,5,8,0:0:0:0:
448,212,215402,1,8,0:0:0:0:
416,140,215573,1,8,0:0:0:0:
340,132,215745,1,8,0:0:0:0:
296,196,215916,1,8,0:0:0:0:
324,268,216259,5,8,0:0:0:0:
264,328,216431,1,0,0:0:0:0:
172,316,216602,1,8,0:0:0:0:
100,240,216773,1,2,0:0:0:0:
100,128,216945,1,8,0:0:0:0:
140,8,217116,1,0,0:0:0:0:
176,88,217288,6,4,B|308:116,2,130
303,114,218316,1,0,0:0:0:0:
360,60,218488,1,8,0:0:0:0:
436,64,218659,1,8,0:0:0:0:
490,120,218831,1,8,0:0:0:0:
486,196,219003,1,8,0:0:0:0:
432,250,219173,1,8,0:0:0:0:
356,246,219345,1,8,0:0:0:0:
300,188,219516,1,8,0:0:0:0:
304,112,219688,5,8,0:0:0:0:
228,60,219859,1,0,0:0:0:0:
164,124,220031,1,8,0:0:0:0:
196,208,220202,1,8,0:0:0:0:
288,200,220373,5,8,0:0:0:0:
356,288,220545,1,8,0:0:0:0:
248,300,220716,5,8,0:0:0:0:
168,320,220888,2,8,B|152:356,2,32.5
88,292,221231,1,2,0:0:0:0:
40,220,221402,1,4,0:0:0:0:
48,368,221573,5,4,0:0:0:0:
48,368,221916,6,0,B|25:310|-71:143|166:29|350:200|212:385|57:354|36:248,1,585,2|4,0:0|0:0,0:0:0:0:
176,176,228945,6,0,B|188:320,1,130,4|0,2:1|0:0,0:0:0:0:
336,208,229631,2,0,B|324:64,1,130,0|0,0:0|0:0,0:0:0:0:
156,172,230316,6,0,B|168:324,1,130,0|0,0:0|0:0,0:0:0:0:
356,212,231002,2,0,B|344:60,1,130,0|0,0:0|0:0,0:0:0:0:
131,167,231688,6,0,B|144:316,1,130,0|0,0:0|0:0,0:0:0:0:
381,217,232373,2,0,B|368:68,1,130,0|0,0:0|0:0,0:0:0:0:
296,56,232888,6,0,B|302:136,1,65
210,263,233231,2,8,B|216:328,1,65
216,328,233488,1,0,0:0:0:0:
216,328,233573,1,0,0:0:0:0:
132,168,233745,5,8,0:0:0:0:
96,240,233916,1,8,0:0:0:0:
52,168,234431,6,0,B|12:148|4:112,1,65,4|0,0:0|0:0,0:0:0:0:
104,88,234773,2,0,B|89:45|109:14,1,65,8|0,0:0|0:0,0:0:0:0:
198,69,235116,2,0,B|218:29|254:21,1,65,8|0,0:0|0:0,0:0:0:0:
280,120,235459,2,0,B|322:105|353:125,1,65,8|0,0:0|0:0,0:0:0:0:
343,259,235802,6,0,B|338:233|298:213,1,65,4|2,0:0|0:0,0:0:0:0:
247,291,236145,2,0,B|261:333|247:355,1,65,4|2,0:0|0:0,0:0:0:0:
108,355,236488,2,0,B|133:350|153:310,1,65,4|2,0:0|0:0,0:0:0:0:
72,260,236831,2,0,B|29:274|8:259,1,65,8|0,0:0|0:0,0:0:0:0:
200,224,237173,6,0,B|124:212|92:140,1,130,4|8,0:0|0:0,0:0:0:0:
224,144,237688,1,2,0:0:0:0:
312,224,237859,6,0,B|388:212|420:140,1,130,4|8,0:0|0:0,0:0:0:0:
288,144,238374,1,0,0:0:0:0:
488,100,238545,5,8,0:0:0:0:
414,151,238716,1,2,0:0:0:0:
324,144,238888,1,8,0:0:0:0:
248,92,239059,1,0,0:0:0:0:
208,12,239231,5,0,0:0:0:0:
296,96,239402,1,0,0:0:0:0:
252,212,239573,2,0,B|276:248,2,32.5
128,200,239916,2,0,B|92:180|76:108|96:72,1,130,4|8,0:0|0:0,0:0:0:0:
172,124,240431,5,0,0:0:0:0:
128,200,240602,2,0,B|96:268,1,65,8|0,0:0|0:0,0:0:0:0:
184,254,240945,2,0,B|212:196,1,65,8|0,0:0|0:0,0:0:0:0:
295,193,241288,2,0,B|268:252,1,65,8|0,0:0|0:0,0:0:0:0:
356,250,241631,2,0,B|384:192,1,65,8|0,0:0|0:0,0:0:0:0:
471,189,241973,2,0,B|444:248,1,65,8|0,0:0|0:0,0:0:0:0:
508,120,242316,5,2,0:0:0:0:
443,248,242488,5,2,0:0:0:0:
379,376,242659,5,4,0:0:0:0:
256,192,242831,12,8,244031,0:0:0:0:
124,68,244202,5,8,0:0:0:0:
272,304,244888,5,8,0:0:0:0:
156,352,245059,5,2,0:0:0:0:
360,36,245402,1,4,0:0:0:0:
256,192,245573,12,4,247116,0:0:0:0:
256,192,247288,12,4,248831,0:0:0:0:
256,192,249002,12,4,250545,0:0:0:0:
256,192,250716,12,0,253716,0:0:0:0:
86,227,257402,6,0,P|149:230|214:200,1,130,2|2,0:0|0:0,0:0:0:0:
251,85,258773,2,0,P|216:138|210:209,1,130,2|2,0:0|0:0,0:0:0:0:
292,298,260145,2,0,P|263:242|204:201,1,130,2|2,0:0|0:0,0:0:0:0:
86,227,261173,5,2,0:0:0:0:
251,85,261516,1,2,0:0:0:0:
292,298,261859,1,2,0:0:0:0:
210,203,262202,2,0,B|237:193|283:197|306:217|306:217,1,97.5,2|0,0:0|0:0,0:0:0:0:
304,216,262888,6,0,P|283:156|315:95,2,130,2|2|2,0:0|0:0|0:0,0:0:0:0:
483,112,264945,2,0,P|503:171|471:232,1,130,2|2,0:0|0:0,0:0:0:0:
399,164,266488,6,0,B|292:230|186:164|186:164|79:110|0:164,1,422.5,2|2,0:0|0:0,0:0:0:0:
0,164,269231,1,2,0:0:0:0:
0,164,269745,1,2,0:0:0:0:
256,192,270431,12,0,272831,0:0:0:0:
