osu file format v13

[General]
AudioFilename: sm17094726.mp3
AudioLeadIn: 0
PreviewTime: 223116
Countdown: 0
SampleSet: Soft
StackLeniency: 0.7
Mode: 0
LetterboxInBreaks: 0
WidescreenStoryboard: 0

[Editor]
DistanceSpacing: 0.9
BeatDivisor: 2
GridSize: 8
TimelineZoom: 1

[Metadata]
Title:Kitsune no Yomeiri
TitleUnicode:狐ノ嫁入リ
Artist:Hanatan
ArtistUnicode:花たん
Creator:Beren
Version:Easy
Source:
Tags:cmn_891127 Blove vivicat niconico vocaloid yurika OSTER Project sawashiro miyuki Bakahuang kiiwa
BeatmapID:145583
BeatmapSetID:46813

[Difficulty]
HPDrainRate:2
CircleSize:3
OverallDifficulty:2
ApproachRate:2
SliderMultiplier:0.600000005960464
SliderTickRate:1

[Events]
//Background and Video events
0,0,"Kitsune.jpg",0,0
//Break Periods
2,101602,117842
2,170173,186242
//Storyboard Layer 0 (Background)
//Storyboard Layer 1 (Fail)
//Storyboard Layer 2 (Pass)
//Storyboard Layer 3 (Foreground)
//Storyboard Sound Samples
//Background Colour Transformations
3,100,163,162,255

[TimingPoints]
42431,342.857142857143,4,2,1,67,1,0
257745,-100,4,2,2,67,0,0

[Colours]
Combo1 : 213,68,151
Combo2 : 206,82,79
Combo3 : 198,160,62
Combo4 : 149,192,67

[HitObjects]
56,72,50831,5,4,0:0:0:0:
56,152,51345,1,4,0:0:0:0:
120,208,51859,1,4,0:0:0:0:
320,352,53402,5,8,0:0:0:0:
416,304,54088,1,0,0:0:0:0:
368,240,54602,2,0,P|328:176|360:112,1,150.000001490116,4|0,0:0|0:0,0:0:0:0:
440,48,56145,5,8,0:0:0:0:
336,64,56831,1,0,0:0:0:0:
256,80,57345,2,0,L|96:104,1,150.000001490116,4|0,0:0|0:0,0:0:0:0:
64,112,58545,5,2,0:0:0:0:
40,160,58888,2,0,P|24:232|40:280,1,120.000001192093,8|0,0:0|0:0,0:0:0:0:
136,304,60259,2,0,P|216:304|256:344,1,120.000001192093,0|0,0:0|0:0,0:0:0:0:
352,328,61631,2,0,P|376:224|480:192,1,210.000002086162,8|4,0:0|0:0,0:0:0:0:
312,72,64031,5,0,0:0:0:0:
256,56,64373,2,0,P|184:72|144:120,1,120.000001192093,8|0,0:0|0:0,0:0:0:0:
96,160,65573,2,0,L|64:328,1,150.000001490116,4|0,0:0|0:0,0:0:0:0:
176,320,67116,6,0,P|240:304|296:328,1,120.000001192093,8|0,0:0|0:0,0:0:0:0:
360,352,68316,2,0,L|440:224,1,150.000001490116,4|0,0:0|0:0,0:0:0:0:
456,120,69859,6,0,P|392:112|336:64,1,120.000001192093,8|0,0:0|0:0,0:0:0:0:
240,80,71059,2,0,P|176:80|104:136,1,150.000001490116,4|0,0:0|0:0,0:0:0:0:
48,248,72602,6,0,L|168:296,1,120.000001192093,8|0,0:0|0:0,0:0:0:0:
264,272,73973,2,0,L|400:256,1,120.000001192093
416,152,75345,5,8,0:0:0:0:
224,56,76716,1,8,0:0:0:0:
296,224,78088,6,0,P|272:304|312:336,1,120.000001192093,8|0,0:0|0:0,0:0:0:0:
184,304,79459,2,0,L|48:288,1,120.000001192093,4|0,0:0|0:0,0:0:0:0:
64,184,80831,5,8,0:0:0:0:
216,32,82202,1,8,0:0:0:0:
184,232,83573,6,0,P|208:304|264:328,1,120.000001192093,8|0,0:0|0:0,0:0:0:0:
352,336,84945,2,0,P|496:232|472:56,1,360.000003576278,8|4,0:0|0:0,0:0:0:0:
368,72,87688,6,0,L|224:80,1,120.000001192093,8|0,0:0|0:0,0:0:0:0:
144,120,89059,2,0,P|96:168|88:224,1,120.000001192093,8|0,0:0|0:0,0:0:0:0:
144,304,90431,5,8,0:0:0:0:
240,248,91116,1,0,0:0:0:0:
336,296,91802,2,0,L|464:280,1,120.000001192093,8|0,0:0|0:0,0:0:0:0:
448,176,93173,5,8,0:0:0:0:
472,72,93859,1,0,0:0:0:0:
368,80,94545,2,0,P|296:80|256:48,1,120.000001192093,8|0,0:0|0:0,0:0:0:0:
152,72,95916,6,0,P|72:104|48:144,1,120.000001192093,8|0,0:0|0:0,0:0:0:0:
32,232,97288,1,8,0:0:0:0:
168,328,98316,1,0,0:0:0:0:
256,192,98659,12,4,101402,0:0:0:0:
464,88,119402,6,0,P|384:88|336:144,1,150.000001490116,4|0,0:0|0:0,0:0:0:0:
328,192,120602,5,8,0:0:0:0:
320,296,121288,1,0,0:0:0:0:
240,304,121802,2,0,L|72:312,1,150.000001490116,4|0,0:0|0:0,0:0:0:0:
64,208,123345,5,8,0:0:0:0:
112,112,124031,1,0,0:0:0:0:
176,64,124545,2,0,P|248:40|312:72,1,150.000001490116,4|0,0:0|0:0,0:0:0:0:
344,112,125745,5,0,0:0:0:0:
368,160,126088,2,0,P|384:216|448:248,1,120.000001192093,8|0,0:0|0:0,0:0:0:0:
336,296,127459,2,0,L|208:328,1,120.000001192093,0|0,0:0|0:0,0:0:0:0:
112,336,128831,2,0,P|136:232|56:168,1,210.000002086162,8|4,0:0|0:0,0:0:0:0:
256,144,131231,5,8,0:0:0:0:
304,128,131573,2,0,L|432:88,1,120.000001192093,8|0,0:0|0:0,0:0:0:0:
440,168,132773,2,0,P|472:224|456:320,1,150.000001490116,4|0,0:0|0:0,0:0:0:0:
360,320,134316,6,0,P|303:301|247:317,1,120.000001192093,8|0,0:0|0:0,0:0:0:0:
168,328,135516,2,0,L|48:224,1,150.000001490116,4|0,0:0|0:0,0:0:0:0:
56,112,137059,6,0,P|120:120|168:96,1,120.000001192093,8|0,0:0|0:0,0:0:0:0:
248,88,138259,2,0,L|408:104,1,150.000001490116,4|0,0:0|0:0,0:0:0:0:
440,200,139802,6,0,P|472:248|464:320,1,120.000001192093,8|0,0:0|0:0,0:0:0:0:
360,320,141173,2,0,L|240:334,1,120.000001192093,4|0,0:0|0:0,0:0:0:0:
136,344,142545,5,8,0:0:0:0:
48,144,143916,1,8,0:0:0:0:
256,88,145288,6,0,P|232:168|272:200,1,120.000001192093,8|0,0:0|0:0,0:0:0:0:
200,280,146659,2,0,L|64:264,1,120.000001192093,4|0,0:0|0:0,0:0:0:0:
80,160,148031,5,8,0:0:0:0:
264,56,149402,1,8,0:0:0:0:
184,256,150773,6,0,P|208:328|264:352,1,120.000001192093,8|0,0:0|0:0,0:0:0:0:
352,344,152145,2,0,P|480:264|384:96,1,360.000003576278,8|4,0:0|0:0,0:0:0:0:
304,72,154888,6,0,L|160:80,1,120.000001192093,8|0,0:0|0:0,0:0:0:0:
96,136,156259,2,0,P|48:184|40:240,1,120.000001192093,8|0,0:0|0:0,0:0:0:0:
120,304,157631,5,8,0:0:0:0:
224,336,158316,1,0,0:0:0:0:
320,288,159002,2,0,P|376:264|440:280,1,120.000001192093,8|0,0:0|0:0,0:0:0:0:
440,168,160373,5,8,0:0:0:0:
392,72,161059,1,0,0:0:0:0:
288,88,161745,2,0,P|216:88|176:56,1,120.000001192093,8|0,0:0|0:0,0:0:0:0:
104,136,163116,6,0,P|24:168|0:208,1,120.000001192093,8|0,0:0|0:0,0:0:0:0:
0,320,164488,1,8,0:0:0:0:
160,336,165516,1,0,0:0:0:0:
256,192,165859,12,4,169973,0:0:0:0:
32,128,187802,5,12,0:0:0:0:
72,232,188488,2,0,P|160:288|280:208,1,240.000002384186,8|0,0:0|0:0,0:0:0:0:
360,288,190545,5,4,0:0:0:0:
416,200,191231,2,0,P|328:144|448:72,1,300.000002980232,8|0,0:0|0:0,0:0:0:0:
512,160,193631,5,0,0:0:0:0:
456,280,194488,2,0,P|400:336|312:336,1,150.000001490116
224,336,196031,2,0,P|136:272|48:312,1,210.000002086162,0|4,0:0|0:0,0:0:0:0:
72,64,198773,5,4,0:0:0:0:
176,88,199459,1,8,0:0:0:0:
240,136,199973,2,0,P|356:161|438:95,1,210.000002086162,0|0,0:0|0:0,0:0:0:0:
456,64,201516,5,4,0:0:0:0:
504,160,202202,1,8,0:0:0:0:
464,232,202716,2,0,P|368:240|320:344,1,210.000002086162,0|0,0:0|0:0,0:0:0:0:
240,328,204431,6,0,L|80:304,1,150.000001490116,0|0,0:0|0:0,0:0:0:0:
64,256,205631,2,0,P|64:192|104:160,1,120.000001192093,4|0,0:0|0:0,0:0:0:0:
144,64,207002,6,0,P|208:112|312:80,1,180.000001788139,0|0,0:0|0:0,0:0:0:0:
352,80,208373,2,0,P|405:104|448:160,1,120.000001192093,4|0,0:0|0:0,0:0:0:0:
456,256,209745,5,8,0:0:0:0:
256,344,211116,1,8,0:0:0:0:
48,288,212488,6,0,P|0:224|16:184,1,120.000001192093,8|0,0:0|0:0,0:0:0:0:
72,104,213859,2,0,L|192:80,1,120.000001192093,4|0,0:0|0:0,0:0:0:0:
296,56,215231,5,8,0:0:0:0:
496,136,216602,1,8,0:0:0:0:
360,304,217973,6,0,L|232:320,1,120.000001192093,8|0,0:0|0:0,0:0:0:0:
136,336,219345,2,0,B|16:280|64:160|64:160|128:208|216:184,1,360.000003576278,8|4,0:0|0:0,0:0:0:0:
96,136,223459,6,0,P|48:184|40:240,1,120.000001192093,4|0,0:0|0:0,0:0:0:0:
120,304,224831,2,0,L|240:320,1,120.000001192093
344,336,226202,1,0,0:0:0:0:
440,296,226888,1,0,0:0:0:0:
416,192,227573,6,0,L|392:72,1,120.000001192093
288,88,228945,1,4,0:0:0:0:
224,176,229631,1,0,0:0:0:0:
160,88,230316,2,0,P|112:120|112:192,1,120.000001192093,0|0,0:0|0:0,0:0:0:0:
40,264,231688,5,0,0:0:0:0:
120,344,232373,1,0,0:0:0:0:
224,312,233059,2,0,L|360:304,1,120.000001192093,0|4,0:0|0:0,0:0:0:0:
416,224,234431,6,0,P|400:152|424:104,1,120.000001192093,8|0,0:0|0:0,0:0:0:0:
312,80,235802,2,0,L|176:96,1,120.000001192093,8|0,0:0|0:0,0:0:0:0:
96,144,237174,5,8,0:0:0:0:
64,248,237859,1,0,0:0:0:0:
128,336,238545,6,0,P|184:312|248:328,1,120.000001192093,8|0,0:0|0:0,0:0:0:0:
344,360,239916,5,8,0:0:0:0:
424,288,240602,1,0,0:0:0:0:
424,176,241288,2,0,P|368:128|360:72,1,120.000001192093,8|0,0:0|0:0,0:0:0:0:
256,56,242659,6,0,P|176:88|152:128,1,120.000001192093,8|0,0:0|0:0,0:0:0:0:
104,208,244031,1,8,0:0:0:0:
184,344,245059,1,0,0:0:0:0:
256,192,245402,12,0,253631,0:0:0:0:
56,80,258088,6,0,L|176:112,1,120.000001192093,2|0,0:0|0:0,0:0:0:0:
176,216,259459,2,0,L|296:248,1,120.000001192093,2|0,0:0|0:0,0:0:0:0:
392,296,260831,2,0,P|408:240|384:184,2,120.000001192093,2|2|2,0:0|0:0|0:0,0:0:0:0:
288,320,262888,6,0,L|160:352,1,120.000001192093,2|0,0:0|0:0,0:0:0:0:
168,240,264259,2,0,L|40:272,1,120.000001192093,2|0,0:0|0:0,0:0:0:0:
40,160,265631,1,2,0:0:0:0:
256,192,266659,12,0,272831,0:0:0:0:
