osu file format v13

[General]
AudioFilename: sm17094726.mp3
AudioLeadIn: 0
PreviewTime: 223116
Countdown: 0
SampleSet: Soft
StackLeniency: 0.7
Mode: 0
LetterboxInBreaks: 0
WidescreenStoryboard: 0

[Editor]
Bookmarks: 50832,101403,119403,168602,186432,223118,257403,272831
DistanceSpacing: 1.2
BeatDivisor: 4
GridSize: 4
TimelineZoom: 1

[Metadata]
Title:Kitsune no Yomeiri
TitleUnicode:狐ノ嫁入リ
Artist:Hanatan
ArtistUnicode:花たん
Creator:Beren
Version:Beren & Blove's Insane
Source:
Tags:cmn_891127 Blove vivicat niconico vocaloid yurika OSTER Project sawashiro miyuki Bakahuang kiiwa
BeatmapID:153631
BeatmapSetID:46813

[Difficulty]
HPDrainRate:8
CircleSize:4
OverallDifficulty:6
ApproachRate:9
SliderMultiplier:1.8
SliderTickRate:1

[Events]
//Background and Video events
0,0,"Kitsune.jpg",0,0
//Break Periods
2,101602,118802
2,168802,185831
2,253916,256802
//Storyboard Layer 0 (Background)
//Storyboard Layer 1 (Fail)
//Storyboard Layer 2 (Pass)
//Storyboard Layer 3 (Foreground)
//Storyboard Sound Samples
//Background Colour Transformations
3,100,163,162,255

[TimingPoints]
42431,342.857142857143,4,2,1,50,1,0
52372,-100,4,2,2,50,0,0
52886,-100,4,1,1,50,0,0
53057,-100,4,2,1,50,0,0
53400,-100,4,1,1,50,0,0
53743,-100,4,2,1,50,0,0
54086,-100,4,1,1,50,0,0
54429,-100,4,2,1,50,0,0
54600,-100,4,1,1,50,0,0
54686,-100,4,2,1,50,0,0
54943,-100,4,1,1,50,0,0
55460,-100,4,2,1,50,0,0
55632,-100,4,1,1,50,0,0
55803,-100,4,2,1,50,0,0
56146,-100,4,1,1,50,0,0
56660,-100,4,2,1,50,0,0
56832,-100,4,1,1,50,0,0
57175,-100,4,2,1,50,0,0
57346,-100,4,1,1,50,0,0
57432,-100,4,2,1,50,0,0
57689,-100,4,1,1,50,0,0
58203,-100,4,2,1,50,0,0
58375,-100,4,1,1,50,0,0
58460,-100,4,2,1,50,0,0
59746,-100,4,1,1,50,0,0
59918,-100,4,2,1,50,0,0
60260,-100,4,1,1,50,0,0
60432,-100,4,2,1,50,0,0
60603,-100,4,2,2,50,0,0
60775,-100,4,2,1,50,0,0
60946,-100,4,1,1,50,0,0
61118,-100,4,2,1,50,0,0
61632,-100,4,2,2,50,0,0
61803,-100,4,2,1,50,0,0
61973,-200,4,2,1,50,0,0
62318,-200,4,1,1,30,0,0
62489,-200,4,2,1,50,0,0
63346,-100,4,2,1,50,0,0
63860,-100,4,1,1,50,0,0
63946,-100,4,2,2,50,0,0
64032,-100,4,2,1,50,0,0
64203,-100,4,2,2,50,0,0
64375,-100,4,1,1,50,0,0
64546,-100,4,2,2,50,0,0
64718,-100,4,1,1,50,0,0
64889,-100,4,2,2,50,0,0
65403,-100,4,2,1,50,0,0
65575,-100,4,2,2,50,0,0
66089,-100,4,1,1,50,0,0
66260,-100,4,2,2,50,0,0
66603,-100,4,1,1,50,0,0
66775,-100,4,2,1,50,0,0
66946,-100,4,2,2,50,0,0
67460,-100,4,1,1,50,0,0
67632,-100,4,2,2,50,0,0
67803,-100,4,1,1,50,0,0
67975,-100,4,2,2,50,0,0
68146,-100,4,2,1,50,0,0
68318,-100,4,2,2,50,0,0
68832,-100,4,1,1,50,0,0
69003,-100,4,2,2,50,0,0
70203,-100,4,1,1,50,0,0
70375,-100,4,2,1,50,0,0
70546,-100,4,1,1,50,0,0
70718,-100,4,2,1,50,0,0
71232,-100,4,2,2,50,0,0
71403,-100,4,2,1,50,0,0
71575,-100,4,1,1,50,0,0
71746,-100,4,2,1,50,0,0
71918,-100,4,1,1,50,0,0
72089,-100,4,2,1,50,0,0
72603,-100,4,1,1,50,0,0
72775,-100,4,2,1,50,0,0
73289,-100,4,1,1,50,0,0
73460,-100,4,2,1,50,0,0
73632,-100,4,1,1,50,0,0
73975,-100,4,2,2,50,0,0
75346,-100,4,1,1,50,0,0
75518,-100,4,1,1,30,0,0
75689,-100,4,1,1,50,0,0
75860,-100,4,1,1,30,0,0
76032,-100,4,1,1,50,0,0
76546,-100,4,1,1,30,0,0
76718,-100,4,1,1,50,0,0
76889,-100,4,1,1,30,0,0
77060,-100,4,1,1,50,0,0
77232,-100,4,1,1,30,0,0
77403,-100,4,2,2,50,0,0
77746,-100,4,2,1,50,0,0
77832,-100,4,2,2,50,0,0
78089,-100,4,1,1,50,0,0
78260,-100,4,2,1,50,0,0
78432,-100,4,1,1,50,0,0
78603,-100,4,2,1,50,0,0
78775,-100,4,1,1,50,0,0
78946,-100,4,2,1,50,0,0
79460,-100,4,1,1,50,0,0
79632,-100,4,2,1,50,0,0
79803,-100,4,1,1,50,0,0
79975,-100,4,2,1,50,0,0
80146,-100,4,1,1,50,0,0
80318,-100,4,2,2,50,0,0
80489,-100,4,2,1,50,0,0
80660,-100,4,1,1,30,0,0
80832,-100,4,1,1,50,0,0
81003,-100,4,1,1,30,0,0
81175,-100,4,1,1,50,0,0
81346,-100,4,1,1,30,0,0
81518,-100,4,1,1,50,0,0
81860,-100,4,2,1,50,0,0
82032,-100,4,1,1,30,0,0
82203,-100,4,1,1,50,0,0
82375,-100,4,1,1,30,0,0
82546,-100,4,1,1,50,0,0
82718,-100,4,1,1,30,0,0
82889,-100,4,1,1,50,0,0
83232,-100,4,2,1,50,0,0
83575,-100,4,1,1,50,0,0
83660,-100,4,2,1,50,0,0
83918,-100,4,1,1,50,0,0
84003,-100,4,2,1,50,0,0
84260,-100,4,1,1,50,0,0
84346,-100,4,2,2,50,0,0
84603,-100,4,1,1,50,0,0
84775,-100,4,2,1,50,0,0
84946,-100,4,1,1,50,0,0
86489,-100,4,2,2,50,0,0
86660,-100,4,1,1,50,0,0
86746,-100,4,2,1,50,0,0
87003,-100,4,1,1,50,0,0
87346,-100,4,2,1,50,0,0
87689,-100,4,1,1,50,0,0
87860,-100,4,2,1,50,0,0
88032,-100,4,1,1,50,0,0
88203,-100,4,2,1,50,0,0
88375,-100,4,1,1,50,0,0
88546,-100,4,2,1,50,0,0
89060,-100,4,1,1,50,0,0
89232,-100,4,2,1,50,0,0
89403,-100,4,1,1,50,0,0
89575,-100,4,2,1,50,0,0
89746,-100,4,1,1,50,0,0
89918,-100,4,2,1,50,0,0
90432,-100,4,1,1,50,0,0
90603,-100,4,2,1,50,0,0
90775,-100,4,1,1,50,0,0
90946,-100,4,2,1,50,0,0
91118,-100,4,1,1,50,0,0
91289,-100,4,2,1,50,0,0
91803,-100,4,1,1,50,0,0
91975,-100,4,2,1,50,0,0
92146,-100,4,1,1,50,0,0
92318,-100,4,2,1,50,0,0
92489,-100,4,1,1,50,0,0
92660,-100,4,2,2,50,0,0
92832,-100,4,2,1,50,0,0
93175,-100,4,1,1,50,0,0
93346,-100,4,2,1,50,0,0
93518,-100,4,1,1,50,0,0
93689,-100,4,2,1,50,0,0
93860,-100,4,1,1,50,0,0
94032,-100,4,2,1,50,0,0
94546,-100,4,1,1,50,0,0
94718,-100,4,2,1,50,0,0
94889,-100,4,1,1,50,0,0
95060,-100,4,2,1,50,0,0
95232,-100,4,1,1,50,0,0
95575,-100,4,2,1,50,0,0
95918,-100,4,1,1,50,0,0
96089,-100,4,2,1,50,0,0
96260,-100,4,1,1,50,0,0
96432,-100,4,2,1,50,0,0
96603,-100,4,1,1,50,0,0
96775,-100,4,2,2,50,0,0
96946,-100,4,1,2,50,0,0
97032,-100,4,2,1,50,0,0
97289,-100,4,1,1,50,0,0
97803,-100,4,2,1,50,0,0
97975,-200,4,1,1,50,0,0
98146,-100,4,2,1,50,0,0
98660,-100,4,1,1,50,0,0
98832,-100,4,2,1,50,0,0
98918,-100,4,2,1,20,0,0
119060,-100,4,1,2,50,0,0
119745,-100,4,2,2,50,0,0
119918,-100,4,1,2,50,0,0
120088,-100,4,1,2,50,0,0
120431,-100,4,2,2,50,0,0
120602,-100,4,1,2,50,0,0
121545,-100,4,2,2,50,0,0
121716,-100,4,1,2,50,0,0
124288,-100,4,2,2,50,0,0
124459,-100,4,1,2,50,0,0
126345,-100,4,2,2,50,0,0
126773,-100,4,1,1,50,0,0
127116,-100,4,2,2,50,0,0
127288,-100,4,1,2,50,0,0
127716,-100,4,2,2,50,0,0
127888,-100,4,1,2,50,0,0
128231,-100,4,2,2,50,0,0
128831,-100,4,1,2,50,0,0
129088,-100,4,2,2,50,0,0
129345,-100,4,1,2,50,0,0
129859,-100,4,2,2,50,0,0
130031,-100,4,1,2,50,0,0
130459,-100,4,2,2,50,0,0
131488,-100,4,1,2,50,0,0
132602,-100,4,2,2,50,0,0
132773,-100,4,1,2,50,0,0
135345,-100,4,2,2,50,0,0
135516,-100,4,1,2,50,0,0
136973,-100,4,2,2,50,0,0
137402,-100,4,1,2,50,0,0
137573,-100,4,2,2,50,0,0
138088,-100,4,1,2,50,0,0
138259,-100,4,2,2,50,0,0
138773,-100,4,1,2,50,0,0
138859,-100,4,2,2,50,0,0
139288,-100,4,1,2,50,0,0
139631,-100,4,2,2,50,0,0
140145,-100,4,1,2,50,0,0
140316,-100,4,2,2,50,0,0
140831,-100,4,1,2,50,0,0
141002,-100,4,2,2,50,0,0
141345,-100,4,1,2,50,0,0
141859,-100,4,2,2,50,0,0
142202,-100,4,1,2,50,0,0
142373,-100,4,2,2,50,0,0
142545,-100,4,1,2,50,0,0
144602,-100,4,2,2,50,0,0
144945,-100,4,1,2,50,0,0
145116,-100,4,2,2,50,0,0
145631,-100,4,1,2,50,0,0
145716,-100,4,2,2,50,0,0
146316,-100,4,1,2,50,0,0
146402,-100,4,2,2,50,0,0
147002,-100,4,1,2,50,0,0
147173,-100,4,2,2,50,0,0
147688,-100,4,1,2,50,0,0
147859,-100,4,2,2,50,0,0
148031,-100,4,1,2,50,0,0
149231,-100,4,2,2,50,0,0
149402,-100,4,1,2,50,0,0
149915,-100,4,2,2,50,0,0
150088,-100,4,1,2,50,0,0
150259,-100,4,2,2,50,0,0
150431,-100,4,1,2,50,0,0
150602,-100,4,2,2,50,0,0
150773,-100,4,1,2,50,0,0
154459,-100,4,2,2,50,0,0
154802,-100,4,1,2,50,0,0
188316,-100,4,2,2,50,0,0
188488,-100,4,1,2,50,0,0
188831,-100,4,2,2,50,0,0
189002,-100,4,1,2,50,0,0
190888,-100,4,2,2,50,0,0
191231,-100,4,1,2,50,0,0
196031,-100,4,2,2,50,0,0
196716,-100,4,1,2,50,0,0
198431,-100,4,2,2,50,0,0
198773,-100,4,1,2,50,0,0
199116,-100,4,2,2,50,0,0
199459,-100,4,1,2,50,0,0
199802,-100,4,2,2,50,0,0
199973,-100,4,1,2,50,0,0
201859,-100,4,2,2,50,0,0
202202,-100,4,1,2,50,0,0
202545,-100,4,2,2,50,0,0
202716,-100,4,1,2,50,0,0
212145,-100,4,2,2,50,0,0
212488,-100,4,1,2,50,0,0
221745,-133.333333333333,4,2,2,50,0,0
225431,-100,4,2,2,50,0,0
226116,-133.333333333333,4,2,2,50,0,0
229116,-133.333333333333,4,1,1,50,0,0
229459,-133.333333333333,4,2,2,50,0,0
229888,-133.333333333333,4,1,1,50,0,0
230145,-133.333333333333,4,2,2,50,0,0
230573,-133.333333333333,4,1,1,50,0,0
230745,-133.333333333333,4,2,2,50,0,0
231173,-100,4,1,2,50,0,0
231859,-100,4,2,2,50,0,0
232031,-100,4,1,2,50,0,0
232202,-100,4,2,2,50,0,0
232373,-100,4,1,2,50,0,0
232545,-100,4,2,2,50,0,0
232716,-100,4,1,2,50,0,0
232888,-100,4,2,2,50,0,0
233059,-100,4,1,2,50,0,0
252173,-100,4,2,2,5,0,0
257402,-200,4,2,2,50,0,0
266316,-200,4,2,1,5,0,0

[Colours]
Combo1 : 213,68,151
Combo2 : 206,82,79
Combo3 : 198,160,62
Combo4 : 149,192,67

[HitObjects]
112,208,50831,6,0,B|168:200|240:264|232:328,1,180,4|2,0:0|0:0,0:0:0:0:
314,59,51345,2,0,B|293:111|201:142|150:103,1,180,4|2,0:0|0:0,0:0:0:0:
341,308,51859,2,0,B|306:264|326:169|385:144,1,180,4|2,0:0|0:0,0:0:0:0:
256,192,52373,1,2,0:0:0:0:
256,192,52716,1,2,0:0:0:0:
176,264,52888,5,0,0:0:0:0:
96,192,53059,2,0,B|56:168|48:120,1,90,8|0,0:0|0:0,0:0:0:0:
232,156,53402,2,0,B|272:180|280:228,1,90,0|0,0:0|0:0,0:0:0:0:
312,360,53745,1,0,0:0:0:0:
312,360,54088,6,0,B|360:356|388:316,1,90
468,244,54431,1,8,0:0:0:0:
364,212,54602,1,0,0:0:0:0:
352,176,54688,1,0,0:0:0:0:
356,140,54773,1,0,0:0:0:0:
372,108,54859,1,0,0:0:0:0:
404,88,54945,1,0,0:0:0:0:
464,176,55116,5,0,0:0:0:0:
364,212,55288,1,0,0:0:0:0:
272,152,55459,1,0,0:0:0:0:
272,152,55631,1,0,0:0:0:0:
108,132,55802,6,0,L|216:96,1,90,8|0,0:0|0:0,0:0:0:0:
264,260,56145,2,0,L|178:288,1,90,0|0,0:0|0:0,0:0:0:0:
80,328,56488,1,0,0:0:0:0:
80,328,56831,6,0,B|40:304|24:256,1,90,0|0,0:0|0:0,0:0:0:0:
56,156,57173,1,8,0:0:0:0:
136,96,57345,1,0,0:0:0:0:
152,128,57431,1,0,0:0:0:0:
156,164,57516,1,0,0:0:0:0:
148,200,57602,1,0,0:0:0:0:
132,232,57688,1,0,0:0:0:0:
56,156,57859,5,0,0:0:0:0:
56,156,58031,1,0,0:0:0:0:
244,92,58202,1,0,0:0:0:0:
276,196,58373,5,0,0:0:0:0:
300,224,58459,1,0,0:0:0:0:
328,244,58545,1,8,0:0:0:0:
364,252,58631,1,0,0:0:0:0:
400,252,58716,1,0,0:0:0:0:
436,72,58888,2,0,B|468:112|468:160,1,90,2|0,0:0|0:0,0:0:0:0:
276,196,59231,2,0,B|244:156|244:108,1,90,4|0,0:0|0:0,0:0:0:0:
460,60,59573,5,0,0:0:0:0:
460,60,59745,2,0,B|492:100|492:148,1,90,0|8,0:0|0:0,0:0:0:0:
356,144,60088,1,0,0:0:0:0:
294,312,60259,1,0,0:0:0:0:
448,208,60431,1,0,0:0:0:0:
268,208,60602,1,2,0:0:0:0:
412,316,60773,1,0,0:0:0:0:
356,234,60945,2,0,B|356:144,1,90
316,44,61288,5,8,0:0:0:0:
356,144,61459,1,0,0:0:0:0:
268,208,61631,1,2,0:0:0:0:
180,148,61802,1,0,0:0:0:0:
216,48,61973,6,0,B|172:32|128:56,1,90
24,84,62488,2,0,B|0:48,2,45,8|2|4,0:0|0:0|0:0,0:0:0:0:
96,208,63345,5,2,0:0:0:0:
96,208,63688,1,2,0:0:0:0:
164,292,63859,1,0,0:0:0:0:
164,292,63945,1,8,0:0:0:0:
164,292,64031,2,0,B|196:328|240:336,1,90,8|8,0:0|0:0,0:0:0:0:
512,360,64373,6,0,B|480:324|436:316,1,90,0|8,0:0|0:0,0:0:0:0:
360,240,64716,2,0,B|315:231|283:195,1,90,0|8,0:0|0:0,0:0:0:0:
212,96,65059,5,8,0:0:0:0:
164,292,65231,1,0,0:0:0:0:
360,240,65402,1,8,0:0:0:0:
212,96,65573,2,0,L|112:120,1,90
40,48,65916,5,0,0:0:0:0:
20,76,66002,1,0,0:0:0:0:
8,112,66088,1,0,0:0:0:0:
12,148,66173,1,0,0:0:0:0:
28,180,66259,1,8,0:0:0:0:
52,204,66345,1,8,0:0:0:0:
84,220,66431,1,8,0:0:0:0:
228,168,66602,1,0,0:0:0:0:
360,240,66773,6,0,B|352:288|320:320,1,90,8|8,0:0|0:0,0:0:0:0:
412,144,67116,2,0,B|420:96|452:64,1,90,8|0,0:0|0:0,0:0:0:0:
412,144,67459,2,0,B|404:192|372:224,1,90,0|8,0:0|0:0,0:0:0:0:
164,328,67802,5,0,0:0:0:0:
64,280,67973,1,8,0:0:0:0:
36,176,68145,1,8,0:0:0:0:
124,112,68316,6,0,B|208:60,1,90,8|8,0:0|0:0,0:0:0:0:
292,8,68659,1,0,0:0:0:0:
428,84,68831,2,0,B|344:136,1,90,0|8,0:0|0:0,0:0:0:0:
260,188,69173,5,0,0:0:0:0:
240,220,69259,1,0,0:0:0:0:
240,256,69345,1,0,0:0:0:0:
252,288,69431,1,0,0:0:0:0:
280,316,69516,1,8,0:0:0:0:
312,328,69602,1,8,0:0:0:0:
348,320,69688,1,8,0:0:0:0:
384,220,69859,6,0,B|392:172|432:148,1,90,8|0,0:0|0:0,0:0:0:0:
252,288,70202,2,0,B|244:336|204:360,1,90
112,248,70545,5,0,0:0:0:0:
112,248,70716,2,0,B|120:200|160:176,1,90,0|8,0:0|0:0,0:0:0:0:
296,36,71059,2,0,B|288:84|248:108,1,90,0|2,0:0|0:0,0:0:0:0:
112,248,71402,5,0,0:0:0:0:
220,252,71573,1,0,0:0:0:0:
316,300,71745,1,0,0:0:0:0:
396,372,71916,2,0,B|424:332|472:324,1,90
469,324,72173,1,0,0:0:0:0:
469,324,72259,6,0,B|504:292|512:244,1,90,8|0,0:0|0:0,0:0:0:0:
464,72,72602,2,0,B|429:104|421:152,1,90
176,304,73116,5,0,0:0:0:0:
96,144,73288,1,0,0:0:0:0:
68,320,73459,1,0,0:0:0:0:
196,192,73631,1,0,0:0:0:0:
52,40,73973,5,0,0:0:0:0:
52,40,74145,1,8,0:0:0:0:
52,40,74316,1,8,0:0:0:0:
196,192,74659,5,8,0:0:0:0:
196,192,74831,1,8,0:0:0:0:
336,80,75173,5,8,0:0:0:0:
404,228,75345,1,0,0:0:0:0:
440,68,75516,1,0,0:0:0:0:
320,176,75688,1,0,0:0:0:0:
480,164,75859,1,0,0:0:0:0:
400,140,76031,1,0,0:0:0:0:
212,148,76373,5,0,0:0:0:0:
104,124,76545,1,0,0:0:0:0:
48,220,76716,1,0,0:0:0:0:
120,304,76888,1,0,0:0:0:0:
224,256,77059,1,0,0:0:0:0:
140,212,77231,1,0,0:0:0:0:
324,200,77402,5,8,0:0:0:0:
324,200,77488,1,8,0:0:0:0:
324,200,77573,1,8,0:0:0:0:
436,188,77745,1,8,0:0:0:0:
312,312,77916,1,8,0:0:0:0:
420,308,78088,6,0,B|472:308|504:280,1,90
324,200,78431,2,0,B|272:200|240:228,1,90
240,227,78688,1,0,0:0:0:0:
241,228,78773,2,0,B|209:255|157:255,1,90
52,228,79116,5,8,0:0:0:0:
52,228,79202,1,0,0:0:0:0:
52,228,79288,1,0,0:0:0:0:
132,68,79459,1,0,0:0:0:0:
164,244,79631,1,0,0:0:0:0:
32,120,79802,1,0,0:0:0:0:
212,144,79973,1,0,0:0:0:0:
52,228,80145,1,0,0:0:0:0:
120,160,80316,6,0,B|152:124,2,45,2|0|8,0:0|0:0|0:0,0:0:0:0:
272,248,80659,1,0,0:0:0:0:
424,192,80831,1,0,0:0:0:0:
288,272,81002,1,0,0:0:0:0:
408,168,81173,1,0,0:0:0:0:
312,296,81345,1,0,0:0:0:0:
384,152,81516,1,0,0:0:0:0:
80,76,81859,5,8,0:0:0:0:
92,184,82031,1,0,0:0:0:0:
180,120,82202,1,0,0:0:0:0:
80,76,82373,1,0,0:0:0:0:
108,292,82545,1,0,0:0:0:0:
280,164,82716,1,0,0:0:0:0:
248,304,82888,1,0,0:0:0:0:
248,304,83231,1,8,0:0:0:0:
248,304,83573,5,0,0:0:0:0:
280,320,83659,1,0,0:0:0:0:
316,320,83745,1,0,0:0:0:0:
352,316,83831,1,0,0:0:0:0:
380,292,83916,1,0,0:0:0:0:
400,264,84002,1,0,0:0:0:0:
404,228,84088,1,0,0:0:0:0:
392,192,84173,1,0,0:0:0:0:
368,164,84259,1,0,0:0:0:0:
276,108,84431,5,8,0:0:0:0:
180,156,84602,1,0,0:0:0:0:
76,128,84773,1,0,0:0:0:0:
104,232,84945,5,0,0:0:0:0:
108,252,85288,1,0,0:0:0:0:
112,272,85631,1,0,0:0:0:0:
116,292,85973,1,0,0:0:0:0:
120,312,86316,1,0,0:0:0:0:
224,336,86488,5,8,0:0:0:0:
240,304,86573,1,0,0:0:0:0:
268,280,86659,1,0,0:0:0:0:
300,268,86745,1,0,0:0:0:0:
336,268,86831,1,0,0:0:0:0:
464,360,87002,1,0,0:0:0:0:
464,360,87173,1,0,0:0:0:0:
440,256,87345,5,8,0:0:0:0:
484,156,87516,1,0,0:0:0:0:
376,164,87688,2,0,B|336:148|312:104,1,90
88,56,88031,2,0,B|128:72|152:116,1,90
312,224,88373,6,0,B|352:208|376:164,1,90
152,116,88716,2,0,B|112:132|88:176,1,90,8|0,0:0|0:0,0:0:0:0:
64,280,89059,1,0,0:0:0:0:
160,328,89231,1,0,0:0:0:0:
352,328,89402,5,0,0:0:0:0:
256,280,89573,1,0,0:0:0:0:
248,172,89745,2,0,B|252:120|296:96,1,90
485,27,90088,5,8,0:0:0:0:
452,128,90259,1,0,0:0:0:0:
356,180,90431,1,0,0:0:0:0:
248,172,90602,1,0,0:0:0:0:
152,60,90773,5,0,0:0:0:0:
144,168,90945,1,0,0:0:0:0:
196,264,91116,1,0,0:0:0:0:
297,297,91288,1,0,0:0:0:0:
404,296,91459,6,0,B|452:304|476:344,1,90,8|0,0:0|0:0,0:0:0:0:
348,164,91802,1,0,0:0:0:0:
312,264,91973,1,0,0:0:0:0:
168,164,92145,1,0,0:0:0:0:
196,264,92316,1,0,0:0:0:0:
256,100,92488,1,0,0:0:0:0:
256,100,92659,1,8,0:0:0:0:
108,88,92831,6,0,B|60:80|36:40,1,90,8|0,0:0|0:0,0:0:0:0:
168,164,93173,2,0,B|204:196|204:244,1,90
208,352,93516,5,0,0:0:0:0:
300,296,93688,1,0,0:0:0:0:
408,296,93859,2,0,B|456:284|488:248,1,90
300,208,94202,2,0,B|286:255|301:301,1,90,8|0,0:0|0:0,0:0:0:0:
436,164,94545,2,0,B|401:128|354:118,1,90
252,112,94888,5,0,0:0:0:0:
144,108,95059,1,0,0:0:0:0:
64,36,95231,1,0,0:0:0:0:
260,272,95573,5,8,0:0:0:0:
368,276,95745,1,0,0:0:0:0:
448,348,95916,2,0,L|480:252,1,90
484,156,96259,2,0,L|512:70,2,90,0|0|0,0:0|0:0|0:0,0:0:0:0:
400,92,96773,5,8,0:0:0:0:
368,76,96859,1,0,0:0:0:0:
332,76,96945,1,0,0:0:0:0:
296,84,97031,1,0,0:0:0:0:
268,104,97116,1,0,0:0:0:0:
216,196,97288,1,0,0:0:0:0:
216,196,97459,1,0,0:0:0:0:
156,360,97802,5,0,0:0:0:0:
96,268,97973,1,0,0:0:0:0:
156,104,98145,1,0,0:0:0:0:
216,196,98316,1,8,0:0:0:0:
324,204,98488,1,0,0:0:0:0:
412,264,98659,2,0,B|400:304|424:316|448:296|420:264,1,90
256,192,98916,12,4,101402,0:0:0:0:
272,248,119402,5,0,0:0:0:0:
172,152,119573,2,0,B|164:200|196:248,1,90,8|0,0:0|0:0,0:0:0:0:
332,196,119916,2,0,B|340:148|308:100,1,90,0|8,0:0|0:0,0:0:0:0:
216,16,120259,2,0,B|208:64|240:112,1,90,8|0,0:0|0:0,0:0:0:0:
332,196,120602,5,0,0:0:0:0:
332,196,120773,1,0,0:0:0:0:
168,280,121288,5,0,0:0:0:0:
168,280,121459,1,0,0:0:0:0:
208,176,121631,1,10,0:0:0:0:
208,176,121802,2,0,B|168:104|168:104|64:72,1,180,0|0,0:0|0:0,0:0:0:0:
48,176,122316,2,0,B|92:192|92:192|116:232,1,90,8|0,0:0|0:0,0:0:0:0:
24,288,122659,5,0,0:0:0:0:
49,313,122745,1,0,0:0:0:0:
80,328,122831,1,0,0:0:0:0:
120,328,122916,1,0,0:0:0:0:
152,320,123002,2,0,B|184:280|256:288,1,90,8|0,0:0|0:0,0:0:0:0:
340,300,123345,5,0,0:0:0:0:
268,220,123516,1,0,0:0:0:0:
508,84,124031,5,0,0:0:0:0:
508,84,124202,1,0,0:0:0:0:
448,176,124373,1,10,0:0:0:0:
448,176,124545,2,0,B|360:168|360:168|312:88,1,180
204,88,125059,2,0,B|240:116|240:116|260:156,1,90,8|0,0:0|0:0,0:0:0:0:
172,176,125402,5,0,0:0:0:0:
188,208,125488,1,0,0:0:0:0:
216,232,125573,1,0,0:0:0:0:
252,244,125659,1,0,0:0:0:0:
288,240,125745,2,0,B|332:212|372:236,1,90,8|0,0:0|0:0,0:0:0:0:
336,320,126088,5,0,0:0:0:0:
336,320,126259,1,0,0:0:0:0:
176,280,126431,2,0,B|196:324|248:328,1,90,10|0,0:0|0:0,0:0:0:0:
252,244,126773,1,0,0:0:0:0:
148,372,126945,1,0,0:0:0:0:
104,208,127116,1,10,0:0:0:0:
104,208,127288,6,0,B|98:156|123:114|160:82|212:83,1,180,0|0,0:0|0:0,0:0:0:0:
312,60,127802,1,10,0:0:0:0:
352,160,127973,1,0,0:0:0:0:
472,224,128145,2,0,B|376:256,1,90,0|10,0:0|0:0,0:0:0:0:
194,268,128488,2,0,B|280:240,1,90,10|0,0:0|0:0,0:0:0:0:
352,160,128831,2,0,L|320:300,2,135,0|0|0,0:0|0:0|0:0,0:0:0:0:
432,88,129516,5,8,0:0:0:0:
328,64,129688,1,0,0:0:0:0:
256,144,129859,1,0,0:0:0:0:
148,148,130031,2,0,B|84:188|116:236|148:276|84:316,1,180,8|0,0:0|0:0,0:0:0:0:
204,308,130545,2,0,P|236:340|280:340,2,90,2|0|2,0:0|0:0|0:0,0:0:0:0:
24,200,131059,1,8,0:0:0:0:
24,200,131145,1,8,0:0:0:0:
24,200,131231,1,8,0:0:0:0:
176,168,131402,1,8,0:0:0:0:
296,64,131573,5,0,0:0:0:0:
296,64,131745,2,0,B|206:64,1,90,0|8,0:0|0:0,0:0:0:0:
152,272,132259,1,0,0:0:0:0:
152,272,132431,2,0,B|248:272,1,90,0|10,0:0|0:0,0:0:0:0:
248,168,132773,6,0,B|328:216|328:216|344:320,1,180
432,128,133288,2,0,B|336:128,1,90,8|0,0:0|0:0,0:0:0:0:
256,72,133631,1,0,0:0:0:0:
238,102,133716,1,0,0:0:0:0:
220,133,133802,1,0,0:0:0:0:
202,164,133888,1,0,0:0:0:0:
185,194,133973,1,8,0:0:0:0:
146,295,134145,1,0,0:0:0:0:
40,280,134316,5,0,0:0:0:0:
40,280,134488,2,0,B|96:192,1,90,0|8,0:0|0:0,0:0:0:0:
336,88,135002,1,0,0:0:0:0:
336,88,135173,2,0,B|288:168,1,90,0|10,0:0|0:0,0:0:0:0:
244,291,135516,2,0,B|264:264|264:264|336:264|336:264|384:208,1,180
159,216,136031,2,0,B|113:293,1,90,0|8,0:0|0:0,0:0:0:0:
256,312,136373,5,0,0:0:0:0:
274,282,136459,1,0,0:0:0:0:
292,251,136545,1,0,0:0:0:0:
310,220,136631,1,0,0:0:0:0:
327,190,136716,1,8,0:0:0:0:
424,136,136888,1,0,0:0:0:0:
296,48,137059,5,2,0:0:0:0:
400,32,137231,1,2,0:0:0:0:
296,48,137402,2,0,B|280:96|216:104,1,90,8|2,0:0|0:0,0:0:0:0:
136,160,137745,5,2,0:0:0:0:
72,248,137916,1,2,0:0:0:0:
32,144,138088,1,8,0:0:0:0:
136,160,138259,2,0,B|187:150|230:171|265:205|269:256,1,180,2|0,0:0|0:0,0:0:0:0:
352,320,138773,2,0,B|364:372|424:376,1,90,8|2,0:0|0:0,0:0:0:0:
444,268,139116,1,0,0:0:0:0:
500,180,139288,1,8,0:0:0:0:
464,24,139459,5,8,0:0:0:0:
408,112,139631,1,0,0:0:0:0:
304,144,139802,1,2,0:0:0:0:
304,144,139973,2,0,B|272:104|216:104,1,90,2|8,0:0|0:0,0:0:0:0:
248,240,140316,1,2,0:0:0:0:
112,232,140488,2,0,B|104:280|56:304,1,90,0|2,0:0|0:0,0:0:0:0:
400,152,140831,2,8,B|408:104|456:80,1,90,8|2,0:0|0:0,0:0:0:0:
320,232,141173,6,0,B|304:328,2,90,0|0|0,0:0|0:0|0:0,0:0:0:0:
96,160,141859,1,2,0:0:0:0:
192,232,142031,1,10,0:0:0:0:
192,232,142116,1,10,0:0:0:0:
192,232,142202,2,0,B|208:336,1,90,0|2,0:0|0:0,0:0:0:0:
256,104,142545,5,0,0:0:0:0:
360,136,142716,1,0,0:0:0:0:
256,176,142888,1,0,0:0:0:0:
152,216,143059,1,0,0:0:0:0:
256,248,143231,1,0,0:0:0:0:
360,136,143573,5,0,0:0:0:0:
152,136,143745,1,0,0:0:0:0:
256,176,143916,5,0,0:0:0:0:
360,216,144088,1,0,0:0:0:0:
256,248,144259,1,0,0:0:0:0:
152,296,144431,1,0,0:0:0:0:
256,320,144602,1,2,0:0:0:0:
256,320,144773,5,8,0:0:0:0:
256,320,144859,1,8,0:0:0:0:
256,320,144945,1,8,0:0:0:0:
256,176,145116,1,10,0:0:0:0:
440,144,145288,6,0,B|448:200|400:232,1,90,0|2,0:0|0:0,0:0:0:0:
296,296,145631,2,0,B|288:240|336:208,1,90,8|2,0:0|0:0,0:0:0:0:
288,0,145973,2,0,B|296:56|248:88,1,90,0|2,0:0|0:0,0:0:0:0:
120,184,146316,2,0,B|112:128|160:96,1,90,8|2,0:0|0:0,0:0:0:0:
440,144,146659,5,2,0:0:0:0:
344,288,146831,1,2,0:0:0:0:
168,312,147002,1,8,0:0:0:0:
232,136,147173,1,2,0:0:0:0:
344,288,147345,1,0,0:0:0:0:
248,240,147516,1,8,0:0:0:0:
248,240,147602,1,8,0:0:0:0:
248,240,147688,1,8,0:0:0:0:
144,200,147859,1,8,0:0:0:0:
336,176,148031,5,0,0:0:0:0:
192,72,148202,1,0,0:0:0:0:
192,232,148373,1,0,0:0:0:0:
336,136,148545,1,0,0:0:0:0:
160,152,148716,1,0,0:0:0:0:
320,240,149059,5,8,0:0:0:0:
424,272,149231,1,0,0:0:0:0:
400,168,149402,1,8,0:0:0:0:
232,312,149573,1,8,0:0:0:0:
448,376,149745,1,0,0:0:0:0:
400,168,149916,1,2,0:0:0:0:
320,96,150088,5,8,0:0:0:0:
232,160,150259,1,10,0:0:0:0:
232,160,150345,1,10,0:0:0:0:
232,160,150431,1,8,0:0:0:0:
128,144,150602,1,10,0:0:0:0:
48,216,150773,6,0,B|72:304,1,90,8|0,0:0|0:0,0:0:0:0:
160,248,151116,2,0,B|184:336,1,90,8|0,0:0|0:0,0:0:0:0:
232,160,151459,2,0,B|256:248,1,90,8|0,0:0|0:0,0:0:0:0:
344,192,151802,2,0,B|368:280,1,90,8|0,0:0|0:0,0:0:0:0:
367,278,152145,5,0,0:0:0:0:
255,246,152316,1,0,0:0:0:0:
183,334,152488,1,8,0:0:0:0:
71,302,152659,1,0,0:0:0:0:
44,196,152831,5,8,0:0:0:0:
156,228,153002,1,0,0:0:0:0:
228,140,153173,1,8,0:0:0:0:
340,172,153345,1,0,0:0:0:0:
448,152,153516,5,0,0:0:0:0:
384,64,153688,1,8,0:0:0:0:
352,64,153773,1,0,0:0:0:0:
320,72,153859,1,0,0:0:0:0:
288,96,153945,1,0,0:0:0:0:
272,128,154031,1,0,0:0:0:0:
256,280,154202,5,8,0:0:0:0:
256,280,154373,1,8,0:0:0:0:
90,176,154545,2,0,B|136:176|168:216,1,90,2|2,0:0|0:0,0:0:0:0:
168,216,154888,6,0,B|141:255|157:311,1,90,4|0,0:0|0:0,0:0:0:0:
336,256,155231,2,0,B|361:216|348:169,1,90,8|0,0:0|0:0,0:0:0:0:
198,224,155573,2,0,B|193:271|233:313,1,90,0|0,0:0|0:0,0:0:0:0:
305,239,155916,2,0,B|310:192|276:157,1,90,8|0,0:0|0:0,0:0:0:0:
248,232,156259,5,0,0:0:0:0:
192,136,156431,1,0,0:0:0:0:
48,104,156602,5,8,0:0:0:0:
104,200,156773,1,0,0:0:0:0:
56,296,156945,6,0,B|160:312,1,90,0|8,0:0|0:0,0:0:0:0:
304,240,157288,2,0,B|215:226,1,90,8|0,0:0|0:0,0:0:0:0:
344,336,157631,5,0,0:0:0:0:
240,360,157802,1,0,0:0:0:0:
344,336,157973,2,0,B|396:324|404:272,1,90,8|0,0:0|0:0,0:0:0:0:
384,168,158316,1,0,0:0:0:0:
280,136,158488,1,0,0:0:0:0:
360,64,158659,1,8,0:0:0:0:
384,168,158831,1,0,0:0:0:0:
304,240,159002,5,0,0:0:0:0:
128,224,159173,1,0,0:0:0:0:
88,96,159345,5,8,0:0:0:0:
176,192,159516,1,0,0:0:0:0:
96,280,159688,2,0,B|63:322|80:376,1,90,0|8,0:0|0:0,0:0:0:0:
232,168,160031,2,0,B|264:125|247:71,1,90,8|0,0:0|0:0,0:0:0:0:
250,83,160373,6,0,B|276:124|316:144,1,90,8|0,0:0|0:0,0:0:0:0:
364,36,160716,1,8,0:0:0:0:
256,240,160888,1,0,0:0:0:0:
316,144,161059,2,0,B|280:181|224:165,1,90,8|0,0:0|0:0,0:0:0:0:
120,200,161402,1,8,0:0:0:0:
304,304,161573,1,0,0:0:0:0:
192,288,161745,6,0,B|136:296|128:352,1,90,8|0,0:0|0:0,0:0:0:0:
129,343,162088,1,8,0:0:0:0:
254,214,162259,1,0,0:0:0:0:
376,80,162431,2,0,B|376:136|416:160,1,90,8|0,0:0|0:0,0:0:0:0:
136,80,162773,2,0,B|136:136|96:160,1,90,8|0,0:0|0:0,0:0:0:0:
412,157,163116,6,0,B|448:248,1,90,8|0,0:0|0:0,0:0:0:0:
184,248,163459,2,0,B|184:344,1,90,8|0,0:0|0:0,0:0:0:0:
328,248,163802,2,0,B|328:344,1,90,8|0,0:0|0:0,0:0:0:0:
99,157,164145,2,0,B|64:248,1,90,8|0,0:0|0:0,0:0:0:0:
256,192,164488,5,8,0:0:0:0:
256,192,164659,1,8,0:0:0:0:
384,160,165345,5,0,0:0:0:0:
384,160,165431,1,0,0:0:0:0:
384,160,165516,2,0,B|378:107|427:72|464:103|453:153|390:171,1,180,0|4,0:0|0:0,0:0:0:0:
256,192,166031,12,4,168602,0:0:0:0:
368,296,186431,5,0,0:0:0:0:
428,208,186602,1,0,0:0:0:0:
360,124,186773,1,8,0:0:0:0:
256,160,186945,2,0,B|216:140,2,45,0|8|0,0:0|0:0|0:0,0:0:0:0:
264,268,187288,1,8,0:0:0:0:
264,268,187373,1,8,0:0:0:0:
264,268,187459,2,0,B|248:312|200:328,1,90,0|8,0:0|0:0,0:0:0:0:
24,252,187802,5,4,0:0:0:0:
24,252,187973,2,0,B|58:223|94:141|30:164|8:213|83:202|126:166,1,180
364,184,188488,1,0,0:0:0:0:
364,184,188659,2,0,B|411:168|427:124,1,90,0|2,0:0|0:0,0:0:0:0:
336,64,189002,6,0,B|304:24|256:24|208:24|176:64,1,180
85,124,189516,2,0,B|101:168|148:184,1,90,8|0,0:0|0:0,0:0:0:0:
304,140,189859,2,0,B|257:131|220:164,1,90
180,324,190202,2,0,B|210:288|200:239,1,90,8|8,0:0|0:0,0:0:0:0:
364,184,190545,5,0,0:0:0:0:
364,184,190716,2,0,B|392:224|436:232,1,90
452,124,191059,1,0,0:0:0:0:
356,76,191231,1,0,0:0:0:0:
328,100,191316,1,0,0:0:0:0:
292,112,191402,1,0,0:0:0:0:
256,112,191488,1,0,0:0:0:0:
224,100,191573,1,8,0:0:0:0:
148,24,191745,1,0,0:0:0:0:
148,24,192088,5,0,0:0:0:0:
128,52,192173,1,0,0:0:0:0:
116,88,192259,1,8,0:0:0:0:
120,124,192345,1,0,0:0:0:0:
132,156,192431,1,0,0:0:0:0:
152,184,192516,1,0,0:0:0:0:
184,204,192602,1,0,0:0:0:0:
220,208,192688,1,0,0:0:0:0:
256,204,192773,2,0,B|296:176,4,45,0|0|8|0|0,0:0|0:0|0:0|0:0|0:0,0:0:0:0:
256,204,193288,5,4,0:0:0:0:
208,300,193459,1,0,0:0:0:0:
100,316,193631,2,0,B|52:308|16:336,1,90,8|0,0:0|0:0,0:0:0:0:
32,205,193973,2,0,B|36:233|70:247|90:219|74:187|74:187|74:143|122:123,1,180,0|8,0:0|0:0,0:0:0:0:
208,60,194488,2,0,B|284:-4|376:36,1,180
472,152,195002,5,8,0:0:0:0:
472,152,195088,1,0,0:0:0:0:
472,152,195173,2,0,B|436:180|388:180,1,90
288,140,195516,1,0,0:0:0:0:
200,204,195688,2,0,B|160:228|152:280,1,90,8|0,0:0|0:0,0:0:0:0:
260,288,196031,2,0,B|284:300,11,22.5
400,208,196716,5,0,0:0:0:0:
312,52,196888,1,8,0:0:0:0:
472,128,197059,1,0,0:0:0:0:
296,168,197231,2,0,B|236:212|236:212|180:212|156:148,1,180,8|0,0:0|0:0,0:0:0:0:
216,316,197745,2,0,B|276:360|276:360|332:360|356:296,1,180,0|0,0:0|0:0,0:0:0:0:
354,300,198259,5,0,0:0:0:0:
400,200,198431,2,0,B|416:156|464:136,1,90,10|10,0:0|0:0,0:0:0:0:
500,240,198773,5,0,0:0:0:0:
500,240,198945,1,0,0:0:0:0:
354,300,199116,1,2,0:0:0:0:
208,364,199459,5,0,0:0:0:0:
208,364,199631,2,0,B|184:320|196:276,1,90,0|2,0:0|0:0,0:0:0:0:
220,172,199973,2,0,B|244:128|232:84,1,90
128,116,200316,1,0,0:0:0:0:
116,224,200488,5,8,0:0:0:0:
132,256,200573,1,0,0:0:0:0:
160,276,200659,1,0,0:0:0:0:
192,288,200745,1,0,0:0:0:0:
228,292,200831,1,0,0:0:0:0:
264,284,200916,1,0,0:0:0:0:
300,268,201002,1,0,0:0:0:0:
324,240,201088,1,0,0:0:0:0:
340,208,201173,1,8,0:0:0:0:
340,172,201259,1,0,0:0:0:0:
336,136,201345,1,0,0:0:0:0:
176,96,201516,5,0,0:0:0:0:
176,96,201688,2,0,B|136:76|120:28,1,90,0|2,0:0|0:0,0:0:0:0:
336,136,202202,1,0,0:0:0:0:
336,136,202373,2,0,B|376:116|392:68,1,90,0|2,0:0|0:0,0:0:0:0:
232,216,202716,1,0,0:0:0:0:
232,216,203059,1,0,0:0:0:0:
232,216,203231,1,8,0:0:0:0:
124,200,203402,5,0,0:0:0:0:
124,236,203488,1,0,0:0:0:0:
136,272,203573,1,0,0:0:0:0:
156,300,203659,1,0,0:0:0:0:
188,320,203745,1,0,0:0:0:0:
224,328,203831,1,0,0:0:0:0:
260,328,203916,1,8,0:0:0:0:
292,312,204002,1,0,0:0:0:0:
320,288,204088,1,0,0:0:0:0:
336,260,204173,1,0,0:0:0:0:
344,224,204259,1,4,0:0:0:0:
300,124,204431,5,0,0:0:0:0:
388,60,204602,2,0,B|420:28|468:20,1,90,8|0,0:0|0:0,0:0:0:0:
384,192,204945,2,0,B|352:224|304:232,1,90
120,196,205288,2,0,B|152:164|200:156,1,90,8|0,0:0|0:0,0:0:0:0:
204,264,205631,5,0,0:0:0:0:
248,364,205802,1,0,0:0:0:0:
304,232,205973,1,8,0:0:0:0:
260,132,206145,1,0,0:0:0:0:
344,64,206316,1,0,0:0:0:0:
436,120,206488,5,8,0:0:0:0:
408,224,206659,2,0,B|440:260,3,45,8|0|0|0,0:0|0:0|0:0|0:0,0:0:0:0:
437,257,207002,2,0,B|444:308|404:344,1,90
304,232,207345,2,0,B|297:181|340:144,1,90,8|0,0:0|0:0,0:0:0:0:
436,120,207688,5,0,0:0:0:0:
408,224,207859,1,0,0:0:0:0:
304,232,208031,1,8,0:0:0:0:
260,132,208202,1,0,0:0:0:0:
340,60,208373,5,0,0:0:0:0:
340,60,208545,1,8,0:0:0:0:
340,60,208716,1,8,0:0:0:0:
188,216,209059,5,0,0:0:0:0:
160,236,209145,1,0,0:0:0:0:
128,252,209231,1,8,0:0:0:0:
92,256,209316,1,0,0:0:0:0:
56,248,209402,1,8,0:0:0:0:
24,228,209488,1,0,0:0:0:0:
4,200,209573,1,0,0:0:0:0:
100,148,209745,5,0,0:0:0:0:
192,40,209916,1,0,0:0:0:0:
240,176,210088,1,0,0:0:0:0:
332,68,210259,1,0,0:0:0:0:
384,204,210431,1,0,0:0:0:0:
384,204,210773,5,0,0:0:0:0:
292,312,210945,1,0,0:0:0:0:
240,176,211116,1,0,0:0:0:0:
228,260,211288,1,0,0:0:0:0:
320,152,211459,1,0,0:0:0:0:
372,288,211631,1,0,0:0:0:0:
308,232,211802,1,0,0:0:0:0:
148,296,212145,5,8,0:0:0:0:
72,220,212316,1,8,0:0:0:0:
64,112,212488,6,0,B|64:64|88:28,1,90
212,104,212831,2,0,B|212:152|188:188,1,90,8|0,0:0|0:0,0:0:0:0:
212,292,213173,6,0,B|240:328|296:336,1,90
288,334,213431,1,0,0:0:0:0:
288,334,213516,2,0,B|332:332|372:360,1,90,8|0,0:0|0:0,0:0:0:0:
424,264,213859,5,0,0:0:0:0:
412,84,214031,1,0,0:0:0:0:
316,236,214202,1,8,0:0:0:0:
484,168,214373,1,0,0:0:0:0:
308,124,214545,2,0,B|260:112|240:68,1,90
240,69,214802,1,0,0:0:0:0:
240,69,214888,2,0,B|212:32|168:20,1,90,8|8,0:0|0:0,0:0:0:0:
44,152,215231,5,0,0:0:0:0:
128,312,215402,1,0,0:0:0:0:
156,136,215573,1,0,0:0:0:0:
28,264,215745,1,0,0:0:0:0:
204,236,215916,1,0,0:0:0:0:
404,304,216259,5,8,0:0:0:0:
296,160,216431,1,0,0:0:0:0:
472,132,216602,1,8,0:0:0:0:
392,200,216773,1,8,0:0:0:0:
372,88,216945,1,8,0:0:0:0:
296,160,217116,1,0,0:0:0:0:
272,56,217288,5,8,0:0:0:0:
192,128,217631,1,8,0:0:0:0:
296,160,217973,1,8,0:0:0:0:
216,240,218316,1,8,0:0:0:0:
320,264,218659,1,8,0:0:0:0:
296,160,219002,5,8,0:0:0:0:
264,168,219345,1,8,0:0:0:0:
232,176,219688,1,8,0:0:0:0:
200,184,220031,1,8,0:0:0:0:
168,192,220373,1,8,0:0:0:0:
176,296,220716,5,0,0:0:0:0:
192,328,220802,1,0,0:0:0:0:
224,352,220888,1,8,0:0:0:0:
256,360,220973,1,0,0:0:0:0:
288,352,221059,1,8,0:0:0:0:
320,328,221145,1,0,0:0:0:0:
336,296,221231,1,0,0:0:0:0:
256,232,221402,1,8,0:0:0:0:
256,232,221573,1,8,0:0:0:0:
256,192,221745,12,0,223116,0:0:0:0:
296,204,223459,6,0,B|292:128|232:88,1,134.999995976687,4|2,0:0|0:0,0:0:0:0:
216,232,224145,2,0,B|220:308|280:348,1,134.999995976687,0|2,0:0|0:0,0:0:0:0:
216,232,224831,6,0,B|144:232,1,67.4999979883433
296,204,225173,2,0,B|368:204,1,67.4999979883433,2|0,0:0|0:0,0:0:0:0:
192,152,225516,2,0,B|96:152,1,90,0|2,0:0|0:0,0:0:0:0:
320,128,225859,2,0,B|408:128,1,90,2|0,0:0|0:0,0:0:0:0:
410,128,226202,6,0,B|368:200|408:280,1,134.999995976687,0|2,0:0|0:0,0:0:0:0:
400,344,226716,1,0,0:0:0:0:
328,304,226888,2,0,B|296:240|216:240,1,134.999995976687,0|2,0:0|0:0,0:0:0:0:
192,320,227402,1,0,0:0:0:0:
56,296,227573,5,2,0:0:0:0:
120,176,227745,1,2,0:0:0:0:
240,176,227916,1,2,0:0:0:0:
216,56,228088,1,0,0:0:0:0:
296,40,228259,1,2,0:0:0:0:
296,40,228602,6,0,B|314:106|385:132,1,134.999995976687,2|4,0:0|0:0,0:0:0:0:
424,292,229288,1,0,0:0:0:0:
264,296,229631,2,0,B|224:296|184:256,1,67.4999979883433,0|2,0:0|0:0,0:0:0:0:
144,216,229973,1,0,0:0:0:0:
256,200,230316,6,0,B|304:208|328:176,1,67.4999979883433,0|2,0:0|0:0,0:0:0:0:
248,96,230659,2,0,B|200:88|176:120,1,67.4999979883433,0|2,0:0|0:0,0:0:0:0:
144,216,231002,1,0,0:0:0:0:
144,216,231345,1,0,0:0:0:0:
72,72,231688,6,0,B|112:160,1,90
200,40,232031,2,0,B|200:144,1,90,0|0,0:0|0:0,0:0:0:0:
312,40,232373,2,0,B|312:136,1,90,0|0,0:0|0:0,0:0:0:0:
440,72,232716,2,0,B|400:160,1,90
256,144,233059,5,0,0:0:0:0:
256,224,233231,1,8,0:0:0:0:
256,250,233316,1,0,0:0:0:0:
256,277,233402,1,0,0:0:0:0:
256,304,233488,1,0,0:0:0:0:
256,330,233573,1,0,0:0:0:0:
160,272,233745,5,0,0:0:0:0:
352,272,233916,1,0,0:0:0:0:
328,112,234431,6,0,B|355:151|339:207,1,90,4|0,0:0|0:0,0:0:0:0:
176,256,234773,2,0,B|151:216|164:169,1,90,8|0,0:0|0:0,0:0:0:0:
312,224,235116,2,0,B|317:271|277:313,1,90,0|0,0:0|0:0,0:0:0:0:
192,144,235459,2,0,B|187:97|221:62,1,90,8|0,0:0|0:0,0:0:0:0:
328,112,235802,5,0,0:0:0:0:
400,192,235973,1,0,0:0:0:0:
384,296,236145,1,8,0:0:0:0:
280,328,236316,1,0,0:0:0:0:
176,312,236488,2,0,B|220:301|236:245,1,90,0|8,0:0|0:0,0:0:0:0:
336,72,236831,2,0,B|291:82|275:138,1,90,8|0,0:0|0:0,0:0:0:0:
176,168,237173,5,0,0:0:0:0:
64,136,237345,1,0,0:0:0:0:
20,244,237516,2,0,B|38:292|90:296,1,90,8|0,0:0|0:0,0:0:0:0:
106,204,237859,5,0,0:0:0:0:
200,256,238031,1,0,0:0:0:0:
304,216,238202,1,8,0:0:0:0:
376,136,238373,1,0,0:0:0:0:
432,40,238545,5,0,0:0:0:0:
392,224,238716,1,0,0:0:0:0:
456,120,238888,5,8,0:0:0:0:
296,136,239059,1,0,0:0:0:0:
392,224,239231,2,0,B|425:266|408:320,1,90,0|8,0:0|0:0,0:0:0:0:
248,280,239573,2,0,B|216:237|233:183,1,90,8|0,0:0|0:0,0:0:0:0:
208,88,239916,6,0,B|211:131|168:164,1,90,8|0,0:0|0:0,0:0:0:0:
104,74,240259,1,8,0:0:0:0:
298,22,240431,1,0,0:0:0:0:
249,151,240602,2,0,B|271:203|337:201,1,90,8|0,0:0|0:0,0:0:0:0:
309,94,240945,1,8,0:0:0:0:
123,143,241116,1,0,0:0:0:0:
192,272,241288,6,0,B|248:264|256:208,1,90,8|0,0:0|0:0,0:0:0:0:
87,286,241631,1,8,0:0:0:0:
184,136,241802,1,0,0:0:0:0:
328,248,241973,2,0,B|328:304|288:328,1,90,8|0,0:0|0:0,0:0:0:0:
184,136,242316,2,0,B|184:80|224:56,1,90,8|0,0:0|0:0,0:0:0:0:
320,120,242659,5,8,0:0:0:0:
316,140,243002,1,8,0:0:0:0:
312,160,243345,1,8,0:0:0:0:
264,256,243516,5,8,0:0:0:0:
232,272,243602,1,0,0:0:0:0:
200,264,243688,1,0,0:0:0:0:
168,240,243773,1,0,0:0:0:0:
160,208,243859,1,0,0:0:0:0:
168,176,243945,1,0,0:0:0:0:
192,152,244031,2,0,B|192:208|128:200,1,90,8|8,0:0|0:0,0:0:0:0:
336,288,244888,6,0,B|336:240,2,45
352,96,245402,6,0,B|352:144,3,45
160,120,245916,6,0,B|160:72,3,45
256,208,246431,6,0,B|256:256|256:256|272:296|272:296|272:344,2,135
384,272,247116,6,0,B|384:320,3,45
128,304,247631,6,0,B|128:256,3,45
256,176,248145,6,0,B|256:128|256:128|240:88|240:88|240:40,2,135
416,144,248831,6,0,B|416:192,3,45
112,240,249345,6,0,B|112:192,3,45
256,192,249859,6,0,B|240:144|272:104|256:56,2,135
80,144,250545,6,0,B|80:192,3,45
432,240,251059,6,0,B|432:192,3,45
256,192,251573,6,0,B|272:240|240:280|256:328,2,135
256,192,252173,12,0,253716,0:0:0:0:
104,88,257402,6,0,B|112:136|164:156,1,90,2|2,0:0|0:0,0:0:0:0:
243,140,258088,2,0,B|197:122|154:157,1,90,0|0,0:0|0:0,0:0:0:0:
130,235,258773,2,0,B|167:204|158:149,1,90,2|0,0:0|0:0,0:0:0:0:
159,154,259459,2,0,B|107:195|123:291|179:307,1,180,0|2,0:0|0:0,0:0:0:0:
175,306,260488,1,0,0:0:0:0:
264,248,260831,6,0,B|296:212|344:212,1,90
320,108,261516,2,0,B|366:96|406:124,1,90,2|0,0:0|0:0,0:0:0:0:
444,24,262202,2,0,B|488:41|505:86,1,90
488,192,262888,5,2,0:0:0:0:
460,296,263231,1,2,0:0:0:0:
352,296,263573,1,0,0:0:0:0:
324,192,263916,1,0,0:0:0:0:
408,124,264259,6,0,B|364:104|352:56,1,90,2|0,0:0|0:0,0:0:0:0:
260,112,264945,2,0,B|235:70|253:24,1,90
252,25,265631,2,0,B|280:72|260:160|196:180,1,180,2|0,0:0|0:0,0:0:0:0:
256,192,266659,12,0,272831,0:0:0:0:
