osu file format v13

[General]
AudioFilename: sm17094726.mp3
AudioLeadIn: 0
PreviewTime: 223116
Countdown: 0
SampleSet: Soft
StackLeniency: 0.3
Mode: 0
LetterboxInBreaks: 0
WidescreenStoryboard: 0

[Editor]
Bookmarks: 50831,187459,223116
DistanceSpacing: 2
BeatDivisor: 4
GridSize: 4
TimelineZoom: 1

[Metadata]
Title:Kitsune no Yomeiri
TitleUnicode:狐ノ嫁入リ
Artist:Hanatan
ArtistUnicode:花たん
Creator:Beren
Version:Baka's Hard
Source:
Tags:cmn_891127 Blove vivicat niconico vocaloid yurika OSTER Project sawashiro miyuki Bakahuang kiiwa
BeatmapID:149429
BeatmapSetID:46813

[Difficulty]
HPDrainRate:7
CircleSize:4
OverallDifficulty:6
ApproachRate:7
SliderMultiplier:1.5
SliderTickRate:1

[Events]
//Background and Video events
0,0,"Kitsune.jpg",0,0
//Break Periods
2,101602,118502
2,170173,186559
2,253831,256502
//Storyboard Layer 0 (Background)
//Storyboard Layer 1 (Fail)
//Storyboard Layer 2 (Pass)
//Storyboard Layer 3 (Foreground)
//Storyboard Sound Samples
//Background Colour Transformations
3,100,163,162,255

[TimingPoints]
42431,342.857142857143,4,2,1,70,1,0
53402,-100,4,1,1,70,0,0
54602,-100,4,2,1,70,0,0
56145,-100,4,1,1,70,0,0
57345,-100,4,2,1,70,0,0
61631,-133.333333333333,4,2,1,70,0,0
63345,-100,4,2,1,100,0,0
64031,-100,4,2,1,70,0,0
64373,-100,4,1,1,70,0,0
65573,-100,4,2,1,70,0,0
67116,-100,4,1,1,70,0,0
67973,-100,4,2,1,70,0,0
68145,-100,4,1,1,70,0,0
68316,-100,4,2,1,70,0,0
73973,-100,4,2,2,70,0,0
74316,-100,4,2,1,70,0,0
75345,-100,4,1,2,70,0,0
77745,-100,4,2,2,70,0,0
80488,-100,4,2,1,70,0,0
80831,-100,4,1,2,70,0,0
83059,-100,4,2,2,70,0,0
83231,-100,4,1,2,70,0,0
83573,-100,4,1,2,70,0,0
87688,-100,4,1,2,70,0,0
88202,-100,4,2,2,70,0,0
88373,-100,4,1,2,70,0,0
88888,-100,4,2,2,70,0,0
89059,-100,4,1,2,70,0,0
89231,-100,4,2,2,70,0,0
89402,-100,4,1,2,70,0,0
89573,-100,4,2,2,70,0,0
89745,-100,4,1,2,70,0,0
90259,-100,4,2,2,70,0,0
90431,-100,4,1,2,70,0,0
90945,-100,4,2,1,70,0,0
91116,-100,4,1,2,70,0,0
91631,-100,4,2,2,70,0,0
91802,-100,4,1,2,70,0,0
91973,-100,4,2,2,70,0,0
92145,-100,4,1,2,70,0,0
92316,-100,4,2,2,70,0,0
92488,-100,4,1,2,70,0,0
93002,-100,4,2,2,70,0,0
93173,-100,4,1,2,70,0,0
93688,-100,4,2,2,70,0,0
93859,-100,4,1,2,70,0,0
94373,-100,4,2,2,70,0,0
94545,-100,4,1,2,70,0,0
95059,-100,4,2,2,70,0,0
95231,-100,4,1,2,70,0,0
95745,-100,4,2,2,70,0,0
95916,-100,4,1,2,70,0,0
96088,-100,4,2,2,70,0,0
96259,-100,4,1,2,70,0,0
96431,-100,4,2,2,70,0,0
96602,-100,4,1,2,70,0,0
96773,-100,4,2,2,70,0,0
96945,-100,4,1,2,70,0,0
97116,-100,4,2,2,70,0,0
97288,-100,4,1,2,70,0,0
97459,-200,4,1,2,70,0,0
98316,-200,4,1,2,70,0,0
101059,-100,4,2,1,70,0,0
119402,-100,4,1,2,67,0,0
128488,-133.333333333333,4,2,1,70,0,0
131573,-100,4,1,2,70,0,0
140831,-100,4,1,2,67,0,0
159002,-100,4,1,0,70,0,0
159516,-100,4,1,2,70,0,0
161745,-100,4,1,0,70,0,0
162259,-100,4,1,2,70,0,0
165173,-200,4,1,1,70,0,0
165859,-100,4,2,1,70,0,0
187802,-100,4,1,1,70,0,0
188831,-100,4,2,1,70,0,0
190545,-100,4,1,2,70,0,0
191573,-100,4,2,1,70,0,0
196031,-133.333333333333,4,2,1,70,0,0
198773,-100,4,1,1,70,0,0
199116,-100,4,2,1,70,0,0
199459,-100,4,1,1,70,0,0
199802,-100,4,2,1,70,0,0
201516,-100,4,1,1,70,0,0
201859,-100,4,2,1,70,0,0
202202,-100,4,1,1,70,0,0
202288,-100,4,2,1,70,0,0
209402,-100,4,2,2,70,0,0
209745,-100,4,1,2,70,0,0
212145,-100,4,2,2,70,0,0
215231,-100,4,1,2,70,0,0
223116,-100,4,2,2,60,0,0
223216,-100,4,2,2,70,0,0
228859,-100,4,2,1,70,0,0
231688,-100,4,1,1,70,0,0
234431,-100,4,1,2,70,0,0
252945,-100,4,2,1,5,0,0
257402,-133.333333333333,4,2,2,50,0,0
265631,-200,4,2,1,70,0,0
266316,-100,4,2,2,20,0,0

[Colours]
Combo1 : 213,68,151
Combo2 : 206,82,79
Combo3 : 198,160,62
Combo4 : 149,192,67

[HitObjects]
256,192,50831,5,4,0:0:0:0:
256,192,51345,1,4,0:0:0:0:
256,192,51859,1,4,0:0:0:0:
256,192,52373,5,0,0:0:0:0:
336,216,52545,1,0,0:0:0:0:
276,276,52716,2,0,B|260:344|208:352|208:352|160:336,1,150,0|8,0:0|0:0,0:0:0:0:
92,304,53231,1,0,0:0:0:0:
92,304,53402,6,0,L|84:144,1,150,0|0,0:0|0:0,0:0:0:0:
204,40,54088,2,0,L|212:192,1,150,0|0,0:0|0:0,0:0:0:0:
308,172,54602,6,0,B|376:192|456:172,1,150,4|0,0:0|0:0,0:0:0:0:
456,268,55116,2,0,L|452:344,1,75,8|0,0:0|0:0,0:0:0:0:
356,360,55459,2,0,L|359:285,2,75,0|0|8,0:0|0:0|0:0,0:0:0:0:
264,324,55973,1,0,0:0:0:0:
168,336,56145,6,0,P|96:320|20:336,1,150,0|0,0:0|0:0,0:0:0:0:
24,104,56831,2,0,L|20:260,1,150,0|0,0:0|0:0,0:0:0:0:
120,136,57345,6,0,P|192:150|265:134,1,150,4|0,0:0|0:0,0:0:0:0:
352,60,57859,1,8,0:0:0:0:
452,108,58031,1,0,0:0:0:0:
352,60,58202,2,0,B|332:76|332:76|376:128|336:192,1,150,0|8,0:0|0:0,0:0:0:0:
292,296,58716,1,0,0:0:0:0:
184,328,58888,6,0,P|104:344|28:328,1,150,4|8,0:0|0:0,0:0:0:0:
28,108,59573,2,0,B|68:84|104:88,1,75,0|0,0:0|0:0,0:0:0:0:
104,200,59916,1,8,0:0:0:0:
104,200,60088,6,0,B|188:176|260:200,1,150,0|0,0:0|0:0,0:0:0:0:
316,292,60602,1,8,0:0:0:0:
408,228,60773,1,0,0:0:0:0:
352,128,60945,1,0,0:0:0:0:
352,128,61288,1,8,0:0:0:0:
300,76,61459,1,0,0:0:0:0:
276,144,61631,6,0,B|260:180|252:232|252:232|228:248,1,112.500004291535,6|0,0:0|0:0,0:0:0:0:
234,243,62316,2,0,P|196:228|180:228,2,56.2500021457673,0|8|0,0:0|0:0|0:0,0:0:0:0:
188,304,62831,2,0,L|168:132,1,168.750006437302,2|0,0:0|0:0,0:0:0:0:
84,240,63688,1,0,0:0:0:0:
84,240,64031,2,0,L|92:320,1,75,8|0,0:0|0:0,0:0:0:0:
188,304,64373,6,0,P|252:312|344:336,1,150,0|0,0:0|0:0,0:0:0:0:
492,192,65059,2,0,P|428:200|336:224,1,150,0|0,0:0|0:0,0:0:0:0:
240,232,65573,6,0,P|264:168|280:88,1,150,4|0,0:0|0:0,0:0:0:0:
196,84,66088,1,8,0:0:0:0:
240,16,66259,2,0,P|276:8|284:12,2,37.5,0|0|0,0:0|0:0|0:0,0:0:0:0:
416,132,66773,2,0,B|384:144|343:150,1,75,8|0,0:0|0:0,0:0:0:0:
196,84,67116,6,0,P|192:160|176:232,1,150,0|0,0:0|0:0,0:0:0:0:
176,231,67802,2,0,P|140:256|116:280,2,75,0|0|0,0:0|0:0|0:0,0:0:0:0:
220,328,68316,6,0,P|288:320|372:328,1,150,4|0,0:0|0:0,0:0:0:0:
408,252,68831,1,8,0:0:0:0:
452,324,69002,2,0,B|452:348|444:368,2,37.5,0|0|0,0:0|0:0|0:0,0:0:0:0:
448,180,69345,1,0,0:0:0:0:
368,192,69516,2,0,P|340:220|336:256,1,75,8|0,0:0|0:0,0:0:0:0:
315,139,69859,6,0,P|271:198|268:272,1,150,4|8,0:0|0:0,0:0:0:0:
392,116,70545,2,0,B|372:80|340:64,2,75,0|0|8,0:0|0:0|0:0,0:0:0:0:
264,80,71059,2,0,P|184:88|120:64,1,150,0|0,0:0|0:0,0:0:0:0:
12,40,71573,1,8,0:0:0:0:
120,64,71745,1,0,0:0:0:0:
40,144,71916,1,0,0:0:0:0:
40,144,72259,2,0,P|60:192|68:228,1,75,8|0,0:0|0:0,0:0:0:0:
116,304,72602,6,0,B|160:344|228:316|228:316|192:360,1,150,0|8,0:0|0:0,0:0:0:0:
208,339,73116,1,0,0:0:0:0:
179,247,73288,2,0,P|171:211|171:174,2,75,0|0|8,0:0|0:0|0:0,0:0:0:0:
256,212,73802,6,0,P|268:272|284:364,1,150,0|0,0:0|0:0,0:0:0:0:
283,359,74316,1,8,0:0:0:0:
356,308,74488,2,0,P|416:288|484:336,2,150,0|0|0,0:0|0:0|0:0,0:0:0:0:
256,212,75345,5,2,0:0:0:0:
200,316,75516,1,0,0:0:0:0:
184,196,75688,1,0,0:0:0:0:
268,284,75859,1,0,0:0:0:0:
152,260,76031,1,0,0:0:0:0:
152,260,76373,5,0,0:0:0:0:
105,194,76545,1,0,0:0:0:0:
117,119,76716,2,0,L|112:44,1,75,0|0,0:0|0:0,0:0:0:0:
248,132,77059,2,0,L|242:56,2,75,0|0|2,0:0|0:0|0:0,0:0:0:0:
420,272,77745,2,0,L|425:347,1,75,0|0,0:0|0:0,0:0:0:0:
340,328,78088,6,0,B|260:308|192:336,1,150,4|8,0:0|0:0,0:0:0:0:
96,276,78602,1,0,0:0:0:0:
168,188,78773,2,0,L|192:336,1,150,0|8,0:0|0:0,0:0:0:0:
96,276,79288,1,0,0:0:0:0:
168,188,79459,5,0,0:0:0:0:
152,68,79631,1,0,0:0:0:0:
236,156,79802,1,8,0:0:0:0:
116,136,79973,1,8,0:0:0:0:
224,84,80145,2,0,P|276:96|300:188,1,150,8|8,0:0|0:0,0:0:0:0:
200,348,80831,5,2,0:0:0:0:
248,232,81002,1,0,0:0:0:0:
328,332,81173,1,0,0:0:0:0:
260,304,81345,1,0,0:0:0:0:
388,284,81516,1,0,0:0:0:0:
388,284,81859,2,0,L|476:292,1,75,2|0,0:0|0:0,0:0:0:0:
436,196,82202,6,0,L|361:189,1,75,0|0,0:0|0:0,0:0:0:0:
300,112,82545,2,0,L|140:120,1,150,8|8,0:0|0:0,0:0:0:0:
28,272,83231,2,0,L|177:264,1,150,0|0,0:0|0:0,0:0:0:0:
204,336,83916,5,2,0:0:0:0:
276,312,84259,1,2,0:0:0:0:
252,240,84602,1,2,0:0:0:0:
180,264,84945,5,2,0:0:0:0:
136,204,85288,2,0,B|120:128|140:56,2,150,2|2|2,0:0|0:0|0:0,0:0:0:0:
136,204,86316,1,2,0:0:0:0:
180,264,86488,6,0,B|144:284|144:284,2,37.5,0|8|8,0:0|0:0|0:0,0:0:0:0:
248,232,86831,1,0,0:0:0:0:
272,160,87002,1,2,0:0:0:0:
264,308,87173,1,8,0:0:0:0:
264,308,87688,6,0,B|348:324|412:276,1,150,0|8,0:0|0:0,0:0:0:0:
472,208,88202,1,0,0:0:0:0:
416,132,88373,2,0,B|332:116|268:164,1,150,0|8,0:0|0:0,0:0:0:0:
180,188,88888,1,0,0:0:0:0:
180,188,88973,1,0,0:0:0:0:
180,188,89059,6,0,P|172:232|168:272,1,75,0|0,0:0|0:0,0:0:0:0:
264,308,89402,2,0,P|259:270|252:233,1,75,8|0,0:0|0:0,0:0:0:0:
340,276,89745,1,0,0:0:0:0:
340,276,90088,2,0,B|376:280|416:272,1,75,8|0,0:0|0:0,0:0:0:0:
384,180,90431,6,0,P|444:152|476:72,1,150,0|8,0:0|0:0,0:0:0:0:
476,78,90945,1,0,0:0:0:0:
380,84,91116,2,0,L|220:92,1,150,0|8,0:0|0:0,0:0:0:0:
230,91,91631,1,0,0:0:0:0:
72,28,91802,5,2,0:0:0:0:
83,162,91973,1,8,0:0:0:0:
154,47,92145,1,10,0:0:0:0:
31,101,92316,1,8,0:0:0:0:
164,132,92488,1,2,0:0:0:0:
164,132,92831,2,0,B|168:188|168:188|160:224,1,75,8|0,0:0|0:0,0:0:0:0:
96,296,93173,6,0,P|164:280|244:296,1,150,14|8,0:0|0:0,0:0:0:0:
316,360,93688,1,0,0:0:0:0:
461,358,93859,2,0,P|388:343|316:360,1,150,10|10,0:0|0:0,0:0:0:0:
241,294,94373,1,0,0:0:0:0:
336,272,94545,6,0,L|316:120,1,150,10|8,0:0|0:0,0:0:0:0:
316,123,95059,1,0,0:0:0:0:
216,76,95231,1,10,0:0:0:0:
436,36,95573,2,0,B|400:32|400:32|352:44,1,75,8|0,0:0|0:0,0:0:0:0:
216,76,95916,6,0,L|204:152,1,75,2|0,0:0|0:0,0:0:0:0:
92,156,96259,2,0,L|104:240,1,75,8|0,0:0|0:0,0:0:0:0:
182,356,96602,2,0,L|171:281,1,75,2|0,0:0|0:0,0:0:0:0:
284,276,96945,2,0,L|295:201,1,75,8|0,0:0|0:0,0:0:0:0:
320,92,97288,1,10,0:0:0:0:
320,92,97459,1,8,0:0:0:0:
320,92,97802,6,0,P|376:92|440:96,1,112.5,0|14,0:0|0:0,0:0:0:0:
256,192,98659,12,0,101402,0:0:0:0:
220,124,119402,6,0,B|256:104|292:124,1,75,8|0,0:0|0:0,0:0:0:0:
328,188,119745,2,0,B|327:229|292:250,1,75,8|0,0:0|0:0,0:0:0:0:
216,252,120088,2,0,B|180:230|180:189,1,75,8|0,0:0|0:0,0:0:0:0:
256,188,120431,1,0,0:0:0:0:
144,124,120602,6,0,B|96:144|88:212|120:256,1,150,8|0,0:0|0:0,0:0:0:0:
256,312,121288,2,0,B|248:272|216:252,2,75,8|0|8,0:0|0:0|0:0,0:0:0:0:
288,384,121802,2,0,B|336:364|344:296|312:252,1,150,8|0,0:0|0:0,0:0:0:0:
380,216,122316,2,0,B|460:184,1,75,8|0,0:0|0:0,0:0:0:0:
256,128,122659,1,0,0:0:0:0:
256,128,123002,6,0,B|176:160,1,75,8|0,0:0|0:0,0:0:0:0:
116,184,123345,2,0,B|68:204|60:272|92:316,2,150,8|0|8,0:0|0:0|0:0,0:0:0:0:
196,264,124202,1,0,0:0:0:0:
284,192,124373,1,8,0:0:0:0:
184,144,124545,2,0,B|152:68|196:0,1,150,0|8,0:0|0:0,0:0:0:0:
260,40,125059,2,0,B|236:76|252:112,2,75,0|8|0,0:0|0:0|0:0,0:0:0:0:
320,84,125573,1,0,0:0:0:0:
340,88,125659,1,0,0:0:0:0:
360,84,125745,2,0,B|404:76|420:36,1,75,8|0,0:0|0:0,0:0:0:0:
352,8,126088,6,8,B|492:76,2,150,8|0|8,0:0|0:0|0:0,0:0:0:0:
256,68,126945,1,0,0:0:0:0:
256,68,127288,2,0,B|376:160,1,150,0|8,0:0|0:0,0:0:0:0:
276,216,127802,2,0,L|316:284,1,75,0|8,0:0|0:0,0:0:0:0:
424,348,128145,1,0,0:0:0:0:
484,252,128488,6,0,B|496:324,1,56.2499983236194,0|2,0:0|0:0,0:0:0:0:
424,348,128831,2,0,B|292:360,2,112.499996647239,0|2|0,0:0|0:0|0:0,0:0:0:0:
480,284,129688,2,0,B|488:212,1,56.2499983236194,2|0,0:0|0:0,0:0:0:0:
417,132,130031,2,0,B|400:284,2,140.624995809049,0|0|0,0:0|0:0|0:0,0:0:0:0:
360,72,131059,1,2,0:0:0:0:
276,72,131231,2,0,B|208:84,1,56.2499983236194,0|0,0:0|0:0,0:0:0:0:
168,28,131573,6,0,B|136:68|144:112|168:144|200:148,1,150,0|8,0:0|0:0,0:0:0:0:
72,216,132259,1,0,0:0:0:0:
72,216,132431,2,0,B|148:200,1,75,8|0,0:0|0:0,0:0:0:0:
200,148,132773,2,0,B|232:188|224:232|200:264|168:268,1,150,8|8,0:0|0:0,0:0:0:0:
92,284,133288,2,0,B|16:300,2,75,0|8|0,0:0|0:0|0:0,0:0:0:0:
144,340,133802,2,0,B|188:352|224:324,2,75,0|8|0,0:0|0:0|0:0,0:0:0:0:
288,312,134316,6,0,B|364:292|448:312,1,150,8|0,0:0|0:0,0:0:0:0:
472,244,134831,1,0,0:0:0:0:
508,308,135002,2,0,B|508:356|468:372,2,75,8|0|8,0:0|0:0|0:0,0:0:0:0:
440,176,135516,2,0,B|364:196|280:176,1,150,8|0,0:0|0:0,0:0:0:0:
220,152,136031,2,0,B|216:196|232:224,2,75,0|8|0,0:0|0:0|0:0,0:0:0:0:
260,88,136545,1,0,0:0:0:0:
268,72,136631,1,0,0:0:0:0:
276,56,136716,2,0,B|248:16|208:12,1,75,0|0,0:0|0:0,0:0:0:0:
180,80,137059,6,0,B|128:132|152:220,1,150,8|0,0:0|0:0,0:0:0:0:
208,360,137745,2,0,B|256:348|260:300,2,75,0|8|0,0:0|0:0|0:0,0:0:0:0:
188,288,138259,2,0,B|116:304|36:288,1,150,8|0,0:0|0:0,0:0:0:0:
72,220,138773,2,0,B|112:232|148:220,2,75,0|0|0,0:0|0:0|0:0,0:0:0:0:
180,116,139459,5,0,0:0:0:0:
112,152,139631,1,0,0:0:0:0:
248,88,139802,1,8,0:0:0:0:
326,179,139973,2,0,B|292:172|292:152|292:152|336:112|316:60,1,150,0|0,0:0|0:0,0:0:0:0:
256,16,140488,2,0,B|236:48|248:88,1,75,0|8,0:0|0:0,0:0:0:0:
316,60,140831,1,0,0:0:0:0:
444,136,141002,1,8,0:0:0:0:
316,212,141173,6,0,B|332:244|308:276|308:276|292:320|324:352,1,150,8|0,0:0|0:0,0:0:0:0:
196,212,141688,2,0,B|180:244|204:276|204:276|220:320|188:351,1,150,8|0,0:0|0:0,0:0:0:0:
188,351,142202,1,0,0:0:0:0:
108,156,142545,5,0,0:0:0:0:
52,260,142716,1,0,0:0:0:0:
36,140,142888,1,0,0:0:0:0:
120,228,143059,1,0,0:0:0:0:
4,204,143231,1,0,0:0:0:0:
91,3,143573,6,0,B|60:24|60:68,1,75,0|0,0:0|0:0,0:0:0:0:
136,64,143916,2,0,B|160:32|200:32,1,75,8|0,0:0|0:0,0:0:0:0:
268,68,144259,1,0,0:0:0:0:
204,112,144431,1,8,0:0:0:0:
348,68,144602,1,0,0:0:0:0:
348,68,144945,6,0,B|316:96|312:136,1,75,8|0,0:0|0:0,0:0:0:0:
456,92,145288,2,8,B|488:64|492:24,1,75,8|0,0:0|0:0,0:0:0:0:
436,168,145631,2,0,B|380:28,1,150,8|0,0:0|0:0,0:0:0:0:
236,76,146316,6,0,B|256:32|292:20,1,75,0|8,0:0|0:0,0:0:0:0:
148,80,146659,2,0,B|148:40|175:12,2,75,0|8|0,0:0|0:0|0:0,0:0:0:0:
192,192,147173,1,0,0:0:0:0:
148,304,147345,1,8,0:0:0:0:
148,304,147688,6,0,L|224:308,1,75,8|0,0:0|0:0,0:0:0:0:
329,353,148031,2,0,P|337:316|332:280,1,75,0|0,0:0|0:0,0:0:0:0:
268,188,148373,2,0,L|192:192,2,75,0|0|0,0:0|0:0|0:0,0:0:0:0:
80,200,149059,6,0,B|72:184|72:184|72:112,1,75,8|0,0:0|0:0,0:0:0:0:
140,40,149402,1,0,0:0:0:0:
248,76,149573,1,0,0:0:0:0:
140,40,149745,2,0,B|148:56|148:56|148:128,1,75,0|0,0:0|0:0,0:0:0:0:
248,76,150088,6,0,P|332:72|400:84,1,150,8|8,0:0|0:0,0:0:0:0:
436,304,150773,2,0,P|377:256|310:223,1,150,8|8,0:0|0:0,0:0:0:0:
84,192,151459,5,0,0:0:0:0:
168,120,151631,1,0,0:0:0:0:
256,192,151802,1,0,0:0:0:0:
344,120,151973,1,0,0:0:0:0:
428,192,152145,1,0,0:0:0:0:
468,256,152488,5,0,0:0:0:0:
416,312,152831,1,0,0:0:0:0:
348,284,153173,1,0,0:0:0:0:
352,208,153516,1,0,0:0:0:0:
428,192,153688,5,0,0:0:0:0:
428,192,153773,1,0,0:0:0:0:
428,192,153859,1,0,0:0:0:0:
436,116,154031,1,0,0:0:0:0:
368,84,154202,1,0,0:0:0:0:
320,140,154373,1,0,0:0:0:0:
352,208,154545,2,0,B|300:208|284:252,1,75,0|0,0:0|0:0,0:0:0:0:
232,320,154888,6,0,B|168:364|88:344,1,150,8|0,0:0|0:0,0:0:0:0:
48,256,155402,1,0,0:0:0:0:
48,256,155573,2,0,L|44:96,1,150,8|0,0:0|0:0,0:0:0:0:
232,320,156259,2,0,B|259:298|263:254,1,75,8|0,0:0|0:0,0:0:0:0:
194,125,156602,2,0,B|168:148|164:192,1,75,8|0,0:0|0:0,0:0:0:0:
164,191,156945,1,0,0:0:0:0:
364,88,157288,5,8,0:0:0:0:
456,156,157459,1,0,0:0:0:0:
348,192,157631,1,0,0:0:0:0:
148,88,157973,1,8,0:0:0:0:
56,156,158144,1,0,0:0:0:0:
164,192,158316,1,0,0:0:0:0:
256,312,158659,5,0,0:0:0:0:
256,312,158831,1,0,0:0:0:0:
332,228,159002,6,2,B|348:192|328:156,1,75,2|0,0:0|0:0,0:0:0:0:
184,156,159345,2,2,B|164:192|180:228,1,75,2|0,0:0|0:0,0:0:0:0:
256,192,159688,1,8,0:0:0:0:
364,296,160031,5,8,0:0:0:0:
456,228,160202,1,0,0:0:0:0:
348,192,160374,1,0,0:0:0:0:
148,296,160716,1,8,0:0:0:0:
56,228,160887,1,0,0:0:0:0:
164,192,161059,1,0,0:0:0:0:
256,72,161402,5,0,0:0:0:0:
256,72,161574,1,0,0:0:0:0:
332,156,161745,6,0,B|348:192|328:228,1,75,2|0,0:0|0:0,0:0:0:0:
184,228,162088,2,0,B|164:192|180:156,1,75,2|0,0:0|0:0,0:0:0:0:
256,192,162431,1,8,0:0:0:0:
256,340,162773,6,0,B|256:304|256:264,1,75,0|8,0:0|0:0,0:0:0:0:
188,300,163116,2,8,B|124:304|96:240|120:192,1,150,8|8,0:0|0:0,0:0:0:0:
256,192,163631,1,0,0:0:0:0:
324,300,163802,2,8,B|388:304|416:240|392:192,1,150,8|8,0:0|0:0,0:0:0:0:
328,228,164316,1,0,0:0:0:0:
184,228,164488,1,0,0:0:0:0:
256,192,164659,1,8,0:0:0:0:
256,40,165002,1,0,0:0:0:0:
192,80,165173,6,0,B|224:124|288:128|320:76,1,150,0|0,0:0|0:0,0:0:0:0:
256,192,166031,12,4,169973,0:0:0:0:
148,84,187459,6,2,B|208:88|220:172|156:196,1,150,0|0,0:0|0:0,0:0:0:0:
104,144,187973,1,0,0:0:0:0:
104,144,188488,2,0,B|72:168|60:204,1,75,0|0,0:0|0:0,0:0:0:0:
100,316,188831,1,0,0:0:0:0:
188,236,189002,6,0,B|264:212|336:232,1,150,4|0,0:0|0:0,0:0:0:0:
388,180,189516,2,0,B|420:212|404:256,2,75,8|0|0,0:0|0:0|0:0,0:0:0:0:
252,112,190202,2,0,B|244:72|184:64|152:96|152:96|152:76|140:64,1,150,8|0,0:0|0:0,0:0:0:0:
76,32,190716,1,0,0:0:0:0:
76,32,191231,2,0,B|56:68|56:104,1,75,0|0,0:0|0:0,0:0:0:0:
60,216,191573,1,0,0:0:0:0:
144,292,191745,6,0,B|224:312|288:272,1,150,2|0,0:0|0:0,0:0:0:0:
316,204,192259,2,0,B|356:216|364:260,1,75,8|8,0:0|0:0,0:0:0:0:
404,368,192602,1,0,0:0:0:0:
480,276,192773,2,0,B|496:268|508:252,2,37.5,8|8|0,0:0|0:0|0:0,0:0:0:0:
432,132,193288,6,0,B|392:84|328:96|328:96|300:64,1,150,4|8,0:0|0:0,0:0:0:0:
244,24,193802,1,0,0:0:0:0:
236,100,193973,2,0,B|200:116|160:112,2,75,0|0|8,0:0|0:0|0:0,0:0:0:0:
268,208,194488,6,0,B|196:176|116:184,1,150,0|0,0:0|0:0,0:0:0:0:
56,220,195002,2,0,B|40:260|40:292,1,75,8|0,0:0|0:0,0:0:0:0:
48,144,195345,1,0,0:0:0:0:
92,24,195516,1,0,0:0:0:0:
164,128,195688,1,8,0:0:0:0:
100,96,195859,1,0,0:0:0:0:
208,68,196031,6,0,B|264:84|320:68,1,112.499996647239,6|0,0:0|0:0,0:0:0:0:
412,128,196716,2,0,B|380:136|360:152,2,56.2499983236194,0|8|0,0:0|0:0|0:0,0:0:0:0:
424,204,197231,2,0,B|380:248|328:224|328:224|292:256|252:252,1,168.749994970858,2|0,0:0|0:0,0:0:0:0:
271,251,198088,1,0,0:0:0:0:
271,251,198431,1,0,0:0:0:0:
271,251,198773,6,0,B|240:236|196:232,2,75,0|0|8,0:0|0:0|0:0,0:0:0:0:
136,156,199459,2,0,B|167:141|211:137,2,75,0|0|8,0:0|0:0|0:0,0:0:0:0:
76,256,199973,6,0,B|84:236|80:220|80:220|40:172|64:112,2,150,0|0|0,0:0|0:0|0:0,0:0:0:0:
76,256,200831,1,0,0:0:0:0:
144,300,201002,1,0,0:0:0:0:
152,220,201173,1,8,0:0:0:0:
152,220,201516,6,0,B|228:232|300:200,1,150,0|8,0:0|0:0,0:0:0:0:
432,300,202202,2,0,B|356:288|284:320,1,150,0|8,0:0|0:0,0:0:0:0:
285,319,202716,6,0,L|260:148,1,150,0|0,0:0|0:0,0:0:0:0:
336,128,203231,2,0,L|352:212,1,75,8|0,0:0|0:0,0:0:0:0:
428,168,203573,2,0,B|440:204,3,37.5,0|0|0|0,0:0|0:0|0:0|0:0,0:0:0:0:
420,236,203916,2,0,B|408:272,3,37.5,8|0|0|0,0:0|0:0|0:0|0:0,0:0:0:0:
380,296,204259,6,0,B|300:316|228:296,1,150,4|8,0:0|0:0,0:0:0:0:
180,244,204773,1,0,0:0:0:0:
120,196,204945,2,0,B|80:192|44:208,2,75,0|0|8,0:0|0:0|0:0,0:0:0:0:
224,124,205459,6,0,B|144:132|72:100,1,150,0|0,0:0|0:0,0:0:0:0:
28,48,205973,1,8,0:0:0:0:
4,120,206145,1,0,0:0:0:0:
4,120,206488,2,0,B|20:156|8:196,2,75,0|8|0,0:0|0:0|0:0,0:0:0:0:
92,192,207002,6,0,B|80:276|104:344,1,150,0|8,0:0|0:0,0:0:0:0:
176,360,207516,1,0,0:0:0:0:
244,328,207688,2,0,B|256:244|232:176,1,150,0|8,0:0|0:0,0:0:0:0:
304,164,208202,1,0,0:0:0:0:
304,164,208373,6,0,B|380:180|452:144,2,150,0|8|0,0:0|0:0|0:0,0:0:0:0:
228,80,209231,2,0,B|232:36,2,37.5,8|8|8,0:0|0:0|0:0,0:0:0:0:
188,184,209573,1,8,0:0:0:0:
128,324,209745,5,2,0:0:0:0:
44,228,209916,1,0,0:0:0:0:
60,356,210088,1,2,0:0:0:0:
124,244,210259,1,0,0:0:0:0:
8,296,210431,1,2,0:0:0:0:
8,296,210773,5,2,0:0:0:0:
64,248,210945,1,0,0:0:0:0:
104,184,211116,1,2,0:0:0:0:
104,112,211288,1,0,0:0:0:0:
80,40,211459,1,2,0:0:0:0:
176,96,211631,1,0,0:0:0:0:
288,80,211802,1,2,0:0:0:0:
288,80,212145,6,0,B|328:80|360:104,1,75,8|0,0:0|0:0,0:0:0:0:
388,172,212488,2,8,B|428:220|492:204|492:204|508:172,2,150,0|8|0,0:0|0:0|0:0,0:0:0:0:
312,164,213345,1,0,0:0:0:0:
228,236,213516,2,0,B|192:252|152:248,1,75,8|0,0:0|0:0,0:0:0:0:
108,188,213859,6,0,B|156:248|132:332,2,150,0|8|0,0:0|0:0|0:0,0:0:0:0:
36,100,214802,2,0,B|48:60,1,37.5,0|8,0:0|0:0,0:0:0:0:
116,40,215059,1,0,0:0:0:0:
232,136,215231,5,2,0:0:0:0:
304,120,215402,1,0,0:0:0:0:
236,208,215573,1,2,0:0:0:0:
264,60,215745,1,0,0:0:0:0:
296,244,215916,1,2,0:0:0:0:
296,244,216259,5,2,0:0:0:0:
368,224,216431,1,0,0:0:0:0:
416,168,216602,1,2,0:0:0:0:
432,96,216773,1,0,0:0:0:0:
408,24,216945,1,2,0:0:0:0:
304,72,217116,1,0,0:0:0:0:
200,40,217288,6,0,B|140:56|140:56|128:100|72:112,2,150,8|10|8,0:0|0:0|0:0,0:0:0:0:
236,104,218145,2,0,B|244:144|232:184,1,75,0|10,0:0|0:0,0:0:0:0:
208,248,218488,1,0,0:0:0:0:
156,300,218659,2,0,B|180:336|248:328|264:296|264:296|272:320|296:328,1,150,8|10,0:0|0:0,0:0:0:0:
392,324,219173,1,0,0:0:0:0:
344,220,219345,6,0,B|360:184|400:168|400:168|436:156|448:120,3,150,8|10|8|10,0:0|0:0|0:0|0:0,0:0:0:0:
316,52,220716,5,0,0:0:0:0:
196,96,220888,1,0,0:0:0:0:
196,96,220973,1,0,0:0:0:0:
196,96,221059,1,8,0:0:0:0:
292,180,221231,1,0,0:0:0:0:
196,96,221402,1,8,0:0:0:0:
172,220,221573,1,10,0:0:0:0:
208,248,223116,6,0,B|192:288|148:292,1,75,0|2,0:0|0:0,0:0:0:0:
148,368,223459,2,0,B|160:292|136:212,1,150,4|0,0:0|0:0,0:0:0:0:
28,116,224145,2,0,B|16:192|40:272,2,150,2|8|0,0:0|0:0|0:0,0:0:0:0:
96,84,225002,1,0,0:0:0:0:
96,84,225173,2,0,B|124:40|176:40,1,75,8|0,0:0|0:0,0:0:0:0:
172,116,225516,2,0,B|176:120|188:112|196:104|196:104|232:124|284:112|300:68,1,150,2|0,0:0|0:0,0:0:0:0:
232,40,226031,1,0,0:0:0:0:
232,40,226202,54,0,B|252:-4|308:-16|352:8|360:40,1,150,2|8,0:0|0:0,0:0:0:0:
440,108,226716,1,0,0:0:0:0:
464,220,226888,1,8,0:0:0:0:
464,220,227231,2,0,B|420:240|408:296,1,75,0|0,0:0|0:0,0:0:0:0:
476,368,227573,6,0,B|472:328|496:292,1,75,2|0,0:0|0:0,0:0:0:0:
392,348,227916,2,0,B|308:320,1,75,2|0,0:0|0:0,0:0:0:0:
256,284,228259,1,8,0:0:0:0:
220,136,228602,38,0,B|256:112|292:136,1,75,0|8,0:0|0:0,0:0:0:0:
256,200,228945,2,0,B|196:244|128:180|144:136,1,150,4|8,0:0|0:0,0:0:0:0:
220,136,229459,1,0,0:0:0:0:
292,128,229631,2,0,B|292:72|216:44|179:73,1,150,0|8,0:0|0:0,0:0:0:0:
100,200,230145,1,0,0:0:0:0:
100,200,230316,2,0,B|144:140,1,75,2|0,0:0|0:0,0:0:0:0:
412,184,230659,2,0,B|368:244,1,75,2|0,0:0|0:0,0:0:0:0:
256,192,231002,1,4,0:0:0:0:
220,336,231345,6,0,B|256:360|292:336,1,75,8|0,0:0|0:0,0:0:0:0:
256,272,231688,2,2,B|196:228|128:292|144:336,2,150,0|0|0,0:0|0:0|0:0,0:0:0:0:
220,336,232545,1,0,0:0:0:0:
320,232,232716,1,0,0:0:0:0:
256,272,232888,1,0,0:0:0:0:
396,224,233059,2,0,B|468:204|472:112|432:88,1,150,0|0,0:0|0:0,0:0:0:0:
380,68,233573,1,0,0:0:0:0:
380,144,233745,2,0,B|336:144|312:104,1,75,0|0,0:0|0:0,0:0:0:0:
380,68,234088,2,0,B|344:44|352:0,1,75,0|0,0:0|0:0,0:0:0:0:
428,4,234431,22,0,B|272:4,1,150,8|0,0:0|0:0,0:0:0:0:
292,80,234945,1,0,0:0:0:0:
272,80,235031,1,0,0:0:0:0:
252,80,235116,2,0,B|168:80,1,75,8|0,0:0|0:0,0:0:0:0:
112,40,235459,1,0,0:0:0:0:
112,40,235631,1,0,0:0:0:0:
108,116,235802,2,0,B|96:156|112:192,1,75,8|0,0:0|0:0,0:0:0:0:
148,336,236145,2,0,B|160:296|144:260,1,75,8|0,0:0|0:0,0:0:0:0:
180,152,236488,1,8,0:0:0:0:
80,300,236831,5,0,0:0:0:0:
144,260,237002,1,0,0:0:0:0:
220,256,237173,1,8,0:0:0:0:
292,128,237516,5,0,0:0:0:0:
368,124,237687,1,0,0:0:0:0:
432,84,237858,1,8,0:0:0:0:
432,84,238202,2,0,B|452:44|488:36,1,75,0|0,0:0|0:0,0:0:0:0:
480,188,238545,6,0,B|508:96,1,75,8|0,0:0|0:0,0:0:0:0:
456,256,238888,2,0,B|428:348,1,75,8|0,0:0|0:0,0:0:0:0:
360,348,239231,1,0,0:0:0:0:
152,348,239402,1,0,0:0:0:0:
216,308,239573,6,0,B|228:264|216:216,1,75,8|0,0:0|0:0,0:0:0:0:
144,216,239916,2,0,B|112:144|144:68,1,150,8|0,0:0|0:0,0:0:0:0:
256,144,240431,1,0,0:0:0:0:
368,70,240602,2,0,B|400:144|368:216,1,150,8|0,0:0|0:0,0:0:0:0:
368,215,241116,1,0,0:0:0:0:
176,144,241288,5,8,0:0:0:0:
216,248,241459,1,0,0:0:0:0:
336,144,241631,1,8,0:0:0:0:
296,248,241802,1,0,0:0:0:0:
256,180,241973,1,8,0:0:0:0:
120,192,242316,5,8,0:0:0:0:
120,192,242488,1,0,0:0:0:0:
256,256,242659,1,8,0:0:0:0:
256,256,242831,1,0,0:0:0:0:
392,192,243002,1,8,0:0:0:0:
392,192,243173,1,0,0:0:0:0:
256,132,243345,1,8,0:0:0:0:
256,132,243516,1,0,0:0:0:0:
120,192,243688,2,0,B|84:220|88:264,1,75,8|0,0:0|0:0,0:0:0:0:
164,256,244031,5,0,0:0:0:0:
348,256,244202,1,8,0:0:0:0:
256,132,244545,5,0,0:0:0:0:
192,176,244716,2,0,B|228:192|256:216|256:216|284:192|324:180,1,150,0|0,0:0|0:0,0:0:0:0:
428,68,245402,6,0,B|428:24,2,37.5,0|0|0,0:0|0:0|0:0,0:0:0:0:
428,316,245916,2,0,B|428:360,2,37.5,0|0|0,0:0|0:0|0:0,0:0:0:0:
344,192,246431,2,0,B|476:192,2,112.5,0|0|0,0:0|0:0|0:0,0:0:0:0:
84,68,247116,6,0,B|84:24,2,37.5,0|0|0,0:0|0:0|0:0,0:0:0:0:
84,316,247630,2,0,B|84:360,2,37.5,0|0|0,0:0|0:0|0:0,0:0:0:0:
168,192,248145,2,0,B|36:192,2,112.5,0|0|0,0:0|0:0|0:0,0:0:0:0:
256,120,248831,5,0,0:0:0:0:
256,100,248916,1,0,0:0:0:0:
256,80,249002,1,0,0:0:0:0:
256,264,249345,1,0,0:0:0:0:
256,284,249430,1,0,0:0:0:0:
256,304,249516,1,0,0:0:0:0:
256,192,249859,2,0,B|132:192,2,112.5,0|0|0,0:0|0:0|0:0,0:0:0:0:
256,120,250545,5,0,0:0:0:0:
256,100,250630,1,0,0:0:0:0:
256,80,250716,1,0,0:0:0:0:
256,264,251059,1,0,0:0:0:0:
256,284,251145,1,0,0:0:0:0:
256,304,251230,1,0,0:0:0:0:
256,192,251573,2,0,B|380:192,2,112.5,0|0|0,0:0|0:0|0:0,0:0:0:0:
256,192,252259,12,0,253631,0:0:0:0:
144,84,257402,6,0,B|76:100|88:176,1,112.499996647239,0|0,0:0|0:0,0:0:0:0:
164,156,258088,2,0,B|172:228|108:240,1,112.499996647239,2|0,0:0|0:0,0:0:0:0:
32,252,258773,2,0,B|120:216|192:280,1,168.749994970858,2|0,0:0|0:0,0:0:0:0:
212,308,259459,2,0,B|300:336|380:304,1,168.749994970858,2|0,0:0|0:0,0:0:0:0:
396,340,260145,2,0,B|372:280|408:224,1,112.499996647239,2|0,0:0|0:0,0:0:0:0:
428,156,260831,1,2,0:0:0:0:
440,80,261173,1,0,0:0:0:0:
368,44,261516,1,2,0:0:0:0:
312,96,261859,1,0,0:0:0:0:
348,168,262202,1,2,0:0:0:0:
312,96,262545,1,0,0:0:0:0:
300,20,262888,5,2,0:0:0:0:
220,8,263230,1,0,0:0:0:0:
184,80,263573,1,2,0:0:0:0:
240,132,263916,1,0,0:0:0:0:
312,96,264259,1,2,0:0:0:0:
240,132,264602,1,0,0:0:0:0:
184,80,264945,2,0,B|120:88|100:152,1,112.499996647239,2|0,0:0|0:0,0:0:0:0:
176,180,265631,54,0,B|128:248|176:324,1,150,0|0,0:0|0:0,0:0:0:0:
256,192,266659,12,0,272831,0:0:0:0:
