osu file format v10

[General]
AudioFilename: Kimi no Kiseki.mp3
AudioLeadIn: 0
PreviewTime: 58894
Countdown: 0
SampleSet: Normal
StackLeniency: 0.7
Mode: 0
LetterboxInBreaks: 1

[Editor]
DistanceSpacing: 0.8
BeatDivisor: 4
GridSize: 4

[Metadata]
Title:Kimi no Kiseki
TitleUnicode:
Artist:Hanatan
ArtistUnicode:
Creator:cococanro
Version:Insane
Source:Flower Drops
Tags:
BeatmapID:180076
BeatmapSetID:59948

[Difficulty]
HPDrainRate:7
CircleSize:4
OverallDifficulty:7
ApproachRate:9
SliderMultiplier:1.9
SliderTickRate:1

[Events]
//Background and Video events
0,0,"BG.jpg"
//Break Periods
2,84413,88666
2,145045,159402
//Storyboard Layer 0 (Background)
//Storyboard Layer 1 (Fail)
//Storyboard Layer 2 (Pass)
//Storyboard Layer 3 (Foreground)
//Storyboard Sound Samples
//Background Colour Transformations
3,100,163,162,255

[TimingPoints]
845,315.789473684211,4,1,1,60,1,0
46318,-200,4,1,1,60,0,0
46634,-100,4,1,1,60,0,0
51371,-200,4,1,1,60,0,0
51687,-100,4,1,1,60,0,0
53266,-80,4,1,1,60,0,0
53581,-66.6666666666667,4,1,1,60,0,0
53897,-100,4,1,1,60,0,0
58950,-80,4,1,1,70,0,1
78687,-200,4,1,1,70,0,1
79002,-200,4,2,0,5,0,1
79160,-200,4,2,0,70,0,1
84213,-80,4,1,1,60,0,0
89266,-100,4,2,0,60,0,0
94002,-100,4,1,1,60,0,0
109476,-200,4,1,1,60,0,0
109792,-100,4,1,1,60,0,0
114529,-200,4,1,1,60,0,0
114845,-100,4,1,1,60,0,0
122108,-80,4,1,1,70,0,1
141845,-200,4,1,1,70,0,1
142160,-200,4,2,0,5,0,1
144845,-200,4,2,0,5,0,0
162529,-100,4,1,1,60,0,0
182739,-133.333333333333,4,2,0,60,0,0
184950,-133.333333333333,4,1,1,60,0,0
185108,-80,4,1,1,70,0,1
222687,-200,4,1,1,70,0,1
228213,-80,4,1,1,70,0,0

[Colours]
Combo1 : 156,32,223
Combo2 : 0,249,124
Combo3 : 24,231,225
Combo4 : 255,0,0

[HitObjects]
56,128,26108,1,4,0:0:0
152,196,26266,1,0,0:0:0
216,48,26423,2,0,B|268:48|316:88,1,95,8|0,0:0|0:0,0:0:0
448,44,26739,1,0,0:0:0
396,164,26897,1,0,0:0:0
268,160,27055,1,8,0:0:0
216,48,27213,6,0,B|296:124|272:244,1,190
232,324,27687,1,8,0:0:0
144,96,27845,6,0,B|152:204|64:268,1,190
64,80,28318,1,8,0:0:0
256,116,28476,5,0,0:0:0
372,308,28634,1,0,0:0:0
140,308,28792,1,0,0:0:0
312,208,28950,1,8,0:0:0
256,308,29108,1,0,0:0:0
200,208,29266,1,0,0:0:0
364,116,29423,2,0,B|356:60|388:24,1,95,0|8,0:0|0:0,0:0:0
448,88,29739,6,0,B|356:36|256:76,1,190
176,180,30213,1,8,0:0:0
72,84,30371,1,0,0:0:0
64,288,30529,6,0,B|184:320,1,95
444,240,30845,2,0,B|352:215,1,95,8|0,0:0|0:0,0:0:0
288,104,31160,1,0,0:0:0
176,124,31318,1,0,0:0:0
176,124,31476,1,8,0:0:0
168,232,31634,1,0,0:0:0
300,332,31792,6,0,B|280:208,1,95
212,52,32108,2,0,B|232:176,1,95,8|0,0:0|0:0,0:0:0
332,184,32423,1,0,0:0:0
440,128,32581,1,0,0:0:0
440,128,32739,1,8,0:0:0
412,28,32897,1,0,0:0:0
472,240,33055,6,0,B|420:272|424:336,1,95
240,256,33371,1,8,0:0:0
344,352,33529,1,0,0:0:0
96,304,33687,1,0,0:0:0
104,296,33766,1,0,0:0:0
112,288,33845,1,0,0:0:0
240,256,34002,5,8,0:0:0
256,240,34081,1,0,0:0:0
268,228,34160,1,0,0:0:0
396,216,34318,5,0,0:0:0
424,188,34397,1,0,0:0:0
452,160,34476,1,0,0:0:0
324,32,34634,5,8,0:0:0
188,100,34792,1,0,0:0:0
324,168,34950,1,0,0:0:0
188,32,35108,1,0,0:0:0
324,100,35266,1,8,0:0:0
188,168,35423,1,0,0:0:0
40,112,35581,5,0,0:0:0
40,132,35660,1,0,0:0:0
40,152,35739,1,0,0:0:0
40,172,35818,1,0,0:0:0
40,188,35897,1,8,0:0:0
40,208,35976,1,0,0:0:0
40,228,36055,1,0,0:0:0
40,248,36134,1,0,0:0:0
40,268,36213,2,0,B|40:364,1,95,4|0,0:0|0:0,0:0:0
128,272,36529,6,0,B|128:156,1,95,8|0,0:0|0:0,0:0:0
176,44,36845,1,0,0:0:0
268,144,37002,1,0,0:0:0
408,96,37160,1,8,0:0:0
300,32,37318,6,0,B|236:248,1,190
208,312,37792,1,8,0:0:0
156,192,37950,6,0,B|260:168|324:256,1,190
156,192,38423,5,8,0:0:0
322,254,38581,1,0,0:0:0
408,292,38739,1,0,0:0:0
400,204,38897,1,0,0:0:0
224,208,39055,5,8,0:0:0
408,292,39213,1,0,0:0:0
388,96,39371,1,0,0:0:0
240,64,39529,2,0,B|300:148,1,95,0|8,0:0|0:0,0:0:0
296,272,39845,2,0,B|280:168|180:124,1,190
72,124,40318,1,8,0:0:0
44,252,40476,1,0,0:0:0
164,332,40634,6,0,B|216:240,1,95
272,136,40950,1,8,0:0:0
396,92,41108,2,0,B|448:108|496:92,2,95
304,40,41581,2,0,B|252:24|204:40,1,95,8|0,0:0|0:0,0:0:0
96,116,41897,5,0,0:0:0
172,216,42055,1,0,0:0:0
272,136,42213,1,8,0:0:0
360,356,42371,2,0,B|409:266|361:174,1,190
428,72,42845,2,0,B|404:172|296:200,1,190,8|0,0:0|0:0,0:0:0
204,176,43318,1,0,0:0:0
160,92,43476,1,8,0:0:0
68,100,43634,1,0,0:0:0
55,283,43792,6,0,B|68:232|40:192,1,95
240,324,44108,2,0,B|188:311|148:339,1,95,8|0,0:0|0:0,0:0:0
288,152,44423,2,0,B|275:203|303:243,1,95
112,112,44739,2,0,B|163:124|203:96,1,95,8|0,0:0|0:0,0:0:0
296,56,45055,5,4,0:0:0
316,44,45134,1,0,0:0:0
336,48,45213,1,0,0:0:0
408,116,45371,1,8,0:0:0
408,140,45450,1,0,0:0:0
420,160,45529,1,0,0:0:0
316,212,45687,1,0,0:0:0
332,228,45766,1,0,0:0:0
344,248,45845,1,0,0:0:0
352,268,45923,1,0,0:0:0
356,292,46002,1,0,0:0:0
352,312,46081,1,0,0:0:0
340,332,46160,1,0,0:0:0
324,348,46239,1,0,0:0:0
304,360,46318,6,0,B|208:360,1,95,0|4,0:0|0:0,0:0:0
140,48,46950,5,0,0:0:0
260,144,47108,1,0,0:0:0
176,296,47266,1,8,0:0:0
40,176,47423,2,0,B|140:200|180:304,1,190
428,268,47897,5,8,0:0:0
312,352,48055,1,0,0:0:0
296,236,48213,2,0,B|280:136,1,95
264,36,48529,1,8,0:0:0
364,96,48687,6,0,B|288:180|184:120,1,190,4|0,0:0|0:0,0:0:0
88,68,49160,1,8,0:0:0
180,236,49318,1,0,0:0:0
16,160,49476,1,0,0:0:0
192,124,49634,1,0,0:0:0
72,260,49792,1,8,0:0:0
240,344,49950,6,0,B|204:244|248:156,1,190
300,48,50423,1,8,0:0:0
164,56,50581,2,0,B|188:156|300:176,1,190
456,108,51055,1,8,0:0:0
472,140,51134,1,0,0:0:0
480,172,51213,1,0,0:0:0
480,208,51292,1,0,0:0:0
468,240,51371,6,0,B|468:340,1,95,0|4,0:0|0:0,0:0:0
76,331,52002,6,0,B|76:236,1,95
208,160,52318,1,8,0:0:0
112,72,52476,2,0,B|88:176|156:272,1,190
248,352,52950,6,0,B|260:236,1,95,8|0,0:0|0:0,0:0:0
336,36,53266,2,0,B|324:168,1,118.75
392,372,53581,2,0,B|408:216,1,142.500005435944,8|0,0:0|0:0,0:0:0
416,136,53897,5,0,0:0:0
416,136,54055,1,0,0:0:0
96,248,54213,5,8,0:0:0
96,248,54371,1,0,0:0:0
392,272,54529,5,0,0:0:0
392,272,54687,1,0,0:0:0
120,112,54845,5,8,0:0:0
120,112,55003,1,0,0:0:0
256,328,55160,5,0,0:0:0
256,328,55318,1,0,0:0:0
256,56,55476,5,8,0:0:0
256,56,55634,1,0,0:0:0
424,44,55792,6,0,B|336:92,1,95
80,176,56108,2,0,B|163:130,1,95,8|0,0:0|0:0,0:0:0
256,56,56423,5,0,0:0:0
256,56,56581,1,0,0:0:0
392,192,56739,5,8,0:0:0
392,192,56897,1,0,0:0:0
256,328,57055,5,0,0:0:0
256,328,57213,1,0,0:0:0
120,192,57371,5,8,0:0:0
120,192,57529,1,0,0:0:0
120,48,57687,6,0,B|168:80|180:136,1,95,4|0,0:0|0:0,0:0:0
392,48,58002,2,0,B|344:80|332:136,1,95,8|0,0:0|0:0,0:0:0
256,360,58318,1,0,0:0:0
256,336,58397,1,0,0:0:0
256,312,58476,1,0,0:0:0
256,288,58555,1,0,0:0:0
256,264,58634,1,0,0:0:0
256,240,58713,1,0,0:0:0
256,216,58792,1,0,0:0:0
256,192,58871,1,0,0:0:0
256,168,58950,6,0,B|256:44,1,118.75,4|0,0:0|0:0,0:0:0
148,136,59266,5,8,0:0:0
364,136,59423,1,0,0:0:0
148,136,59581,1,0,0:0:0
364,136,59739,6,0,B|488:136,1,118.75,0|8,0:0|0:0,0:0:0
460,336,60055,2,0,B|216:336,1,237.5
76,212,60529,1,8,0:0:0
222,336,60687,1,0,0:0:0
76,212,60845,1,0,0:0:0
222,336,61002,6,0,B|240:276|228:212,1,118.75,0|8,0:0|0:0,0:0:0
56,52,61318,2,0,B|88:120|200:140|260:72,1,237.5
56,52,61792,1,8,0:0:0
258,73,61950,1,0,0:0:0
56,52,62108,1,0,0:0:0
258,73,62266,6,0,B|304:28|372:44,1,118.75,0|8,0:0|0:0,0:0:0
452,332,62581,6,0,B|432:292|432:292|464:292|464:292|448:274|448:274|452:128,1,237.5
332,128,63055,6,0,B|328:260,1,118.75,8|0,0:0|0:0,0:0:0
212,364,63371,2,0,B|215:245,2,118.75,0|0|8,0:0|0:0|0:0,0:0:0
212,364,63766,1,0,0:0:0
212,364,63845,1,0,0:0:0
212,364,63923,1,0,0:0:0
212,364,64002,5,0,0:0:0
88,240,64160,1,0,0:0:0
132,136,64318,2,0,B|148:72|132:16,2,118.75,8|0|0,0:0|0:0|0:0,0:0:0
236,168,64792,1,0,0:0:0
348,128,64950,1,8,0:0:0
400,32,65108,1,0,0:0:0
396,316,65266,5,0,0:0:0
396,316,65345,1,0,0:0:0
396,316,65423,2,0,B|280:348,1,118.75,0|8,0:0|0:0,0:0:0
120,352,65739,2,0,B|256:344|328:244,1,237.5
428,72,66213,1,8,0:0:0
416,56,66292,1,0,0:0:0
400,48,66371,1,0,0:0:0
384,44,66450,1,0,0:0:0
368,44,66529,6,0,B|288:64|288:64|256:40|224:64|224:64|136:40,2,237.5,4|8|0,0:0|0:0|0:0,0:0:0
256,148,67318,1,0,0:0:0
192,256,67476,1,8,0:0:0
320,256,67634,1,0,0:0:0
428,136,67792,5,0,0:0:0
420,160,67871,1,0,0:0:0
412,184,67950,1,0,0:0:0
100,184,68108,1,8,0:0:0
92,160,68187,1,0,0:0:0
84,136,68266,1,0,0:0:0
256,36,68423,1,0,0:0:0
256,60,68502,1,0,0:0:0
256,84,68581,1,0,0:0:0
256,108,68660,1,0,0:0:0
256,132,68739,1,8,0:0:0
256,156,68818,1,0,0:0:0
256,180,68897,1,0,0:0:0
256,204,68976,1,0,0:0:0
256,228,69055,6,0,B|256:356,1,118.75,4|0,0:0|0:0,0:0:0
376,344,69371,1,8,0:0:0
136,344,69529,1,0,0:0:0
376,344,69687,1,0,0:0:0
136,344,69845,6,0,B|136:276|84:240,1,118.75,0|8,0:0|0:0,0:0:0
80,31,70160,2,0,B|12:100|28:196|86:241,1,237.5
256,100,70634,1,8,0:0:0
86,241,70792,1,0,0:0:0
256,100,70950,1,0,0:0:0
86,241,71108,6,0,B|208:216,1,118.75,0|8,0:0|0:0,0:0:0
448,168,71423,2,0,B|332:136|256:36,1,237.5,4|0,0:0|0:0,0:0:0
255,348,71897,1,8,0:0:0
255,35,72055,1,0,0:0:0
255,348,72213,1,0,0:0:0
255,35,72371,6,0,B|224:96|156:112,1,118.75,0|8,0:0|0:0,0:0:0
64,32,72687,2,0,B|32:80|32:80|44:144,1,118.75
120,316,73002,1,0,0:0:0
152,340,73081,1,0,0:0:0
184,364,73160,2,0,B|156:244,1,118.75,8|0,0:0|0:0,0:0:0
224,28,73476,2,0,B|250:143,1,118.75
336,348,73792,5,8,0:0:0
344,312,73871,1,0,0:0:0
364,288,73950,1,0,0:0:0
392,276,74029,1,0,0:0:0
424,280,74108,2,0,B|476:256|476:256|404:208|404:148|448:104,2,237.5,4|8|0,0:0|0:0|0:0,0:0:0
208,216,74897,5,0,0:0:0
364,84,75055,1,8,0:0:0
424,280,75213,1,0,0:0:0
188,344,75371,1,0,0:0:0
160,356,75450,1,0,0:0:0
136,368,75529,2,0,B|88:244,1,118.75,0|8,0:0|0:0,0:0:0
40,76,75845,1,0,0:0:0
168,32,76002,2,0,B|216:72|284:56,2,118.75,0|0|8,0:0|0:0|0:0,0:0:0
172,160,76476,6,0,B|220:184|220:184|188:228|188:228|264:240|276:316,1,237.5
464,288,76950,2,0,B|373:364,1,118.75,8|0,0:0|0:0,0:0:0
196,308,77266,2,0,B|286:231,1,118.75
286,231,77502,1,0,0:0:0
286,231,77581,1,8,0:0:0
286,231,77660,1,0,0:0:0
286,231,77739,1,4,0:0:0
172,52,78055,5,0,0:0:0
176,84,78134,1,0,0:0:0
168,112,78213,1,0,0:0:0
152,136,78292,1,0,0:0:0
128,148,78371,1,0,0:0:0
100,152,78450,1,0,0:0:0
76,148,78529,1,0,0:0:0
52,136,78608,1,0,0:0:0
32,120,78687,6,0,B|44:236,1,95
56,340,79160,1,4,0:0:0
256,192,79239,12,0,84213,0:0:0
436,92,89266,5,4,0:0:0
400,216,89423,1,0,0:0:0
260,256,89581,2,0,B|200:344,1,95,0|0,0:0|0:0,0:0:0
20,272,89897,2,0,B|73:193,1,95
184,24,90213,1,0,0:0:0
232,176,90371,6,0,B|164:104|60:108,1,190
72,192,90845,1,0,0:0:0
159,325,91002,6,0,B|188:304|188:304|160:256|176:200|232:176,1,190
388,188,91476,5,0,0:0:0
256,256,91634,1,0,0:0:0
352,328,91792,1,0,0:0:0
124,188,91950,1,0,0:0:0
256,256,92108,1,0,0:0:0
160,328,92266,1,0,0:0:0
256,144,92423,1,0,0:0:0
368,76,92581,5,0,0:0:0
488,32,92739,2,0,B|464:152,1,95,0|0,0:0|0:0,0:0:0
384,236,93055,1,0,0:0:0
424,352,93213,1,0,0:0:0
160,328,93371,2,0,B|44:312,1,95,0|0,0:0|0:0,0:0:0
24,156,93687,5,0,0:0:0
128,216,93845,1,0,0:0:0
160,328,94002,1,8,0:0:0
268,252,94160,2,0,B|308:156|416:148,1,190
268,252,94634,1,8,0:0:0
414,148,94792,1,0,0:0:0
392,256,94950,5,0,0:0:0
144,244,95108,1,0,0:0:0
436,36,95266,1,8,0:0:0
276,56,95423,2,0,B|256:100|256:100|184:60|124:116,1,190
56,48,95897,6,0,B|160:72|200:168,1,190,8|0,0:0|0:0,0:0:0
236,256,96371,1,0,0:0:0
348,280,96529,2,0,B|380:232|436:200,1,95,8|0,0:0|0:0,0:0:0
428,104,96845,5,0,0:0:0
376,76,96923,1,0,0:0:0
324,48,97002,1,0,0:0:0
104,100,97160,5,8,0:0:0
132,116,97239,1,0,0:0:0
156,128,97318,1,0,0:0:0
208,308,97476,5,0,0:0:0
196,300,97555,1,0,0:0:0
184,292,97634,1,0,0:0:0
104,100,97792,5,8,0:0:0
236,256,97950,1,0,0:0:0
88,320,98108,1,4,0:0:0
252,36,98266,1,0,0:0:0
96,208,98423,1,8,0:0:0
244,144,98581,1,0,0:0:0
392,60,98739,5,0,0:0:0
404,72,98818,1,0,0:0:0
416,84,98897,1,0,0:0:0
428,96,98976,1,0,0:0:0
440,108,99055,1,8,0:0:0
444,124,99134,1,0,0:0:0
444,140,99213,1,0,0:0:0
444,156,99292,1,0,0:0:0
444,172,99371,2,0,B|444:288,1,95,4|0,0:0|0:0,0:0:0
328,372,99687,6,0,B|328:277,1,95,8|0,0:0|0:0,0:0:0
328,112,100002,1,0,0:0:0
244,144,100160,1,0,0:0:0
192,68,100318,1,8,0:0:0
64,176,100476,6,0,B|140:116|244:144,1,190
280,32,100950,1,8,0:0:0
100,36,101108,6,0,B|160:124|168:244,1,190
128,308,101581,1,8,0:0:0
256,264,101739,5,0,0:0:0
456,332,101897,1,0,0:0:0
332,156,102055,1,0,0:0:0
332,364,102213,1,8,0:0:0
464,208,102371,1,0,0:0:0
428,68,102529,2,0,B|372:64|320:28,1,95
228,100,102845,1,8,0:0:0
48,40,103002,6,0,B|24:272,1,190
68,328,103476,1,8,0:0:0
168,268,103634,1,0,0:0:0
284,276,103792,1,0,0:0:0
284,276,103871,1,0,0:0:0
284,276,103950,1,0,0:0:0
376,348,104108,1,8,0:0:0
220,368,104266,6,0,B|228:240,1,95,0|4,0:0|0:0,0:0:0
232,184,104581,1,0,0:0:0
292,16,104739,2,0,B|284:144,1,95,12|0,0:0|0:0,0:0:0
456,276,105055,5,0,0:0:0
456,276,105134,1,0,0:0:0
456,276,105213,1,0,0:0:0
392,188,105371,1,8,0:0:0
452,24,105529,2,0,B|424:56|424:56|400:24|400:24|292:24,1,190,4|0,0:0|0:0,0:0:0
100,132,106002,6,0,B|304:132,1,190,8|0,0:0|0:0,0:0:0
290,132,106397,1,0,0:0:0
290,132,106476,1,0,0:0:0
290,132,106555,1,0,0:0:0
290,132,106634,1,8,0:0:0
392,188,106792,1,0,0:0:0
304,340,106950,6,0,B|416:280,1,95,4|0,0:0|0:0,0:0:0
108,240,107266,2,0,B|168:352,1,95,12|0,0:0|0:0,0:0:0
208,44,107581,2,0,B|96:104,1,95,4|0,0:0|0:0,0:0:0
404,144,107897,2,0,B|344:32,1,95,12|0,0:0|0:0,0:0:0
208,44,108213,5,0,0:0:0
108,240,108371,1,0,0:0:0
304,336,108529,1,8,0:0:0
404,144,108687,1,0,0:0:0
256,188,108845,1,0,0:0:0
256,188,108923,1,0,0:0:0
256,188,109002,1,0,0:0:0
256,188,109081,1,0,0:0:0
256,188,109160,1,0,0:0:0
256,188,109239,1,0,0:0:0
256,188,109318,1,0,0:0:0
256,188,109397,1,0,0:0:0
256,188,109476,6,0,B|256:292,1,95,0|4,0:0|0:0,0:0:0
404,352,110108,5,0,0:0:0
256,284,110266,1,0,0:0:0
108,352,110423,1,8,0:0:0
60,132,110581,2,0,B|148:184|168:284,1,190
344,281,111055,6,0,B|364:184|452:132,1,190,8|0,0:0|0:0,0:0:0
384,52,111529,1,0,0:0:0
288,96,111687,1,8,0:0:0
316,192,111845,6,0,B|252:216|232:296|276:352,1,190,4|0,0:0|0:0,0:0:0
344,280,112318,1,8,0:0:0
344,280,112476,1,0,0:0:0
288,96,112634,1,0,0:0:0
192,220,112792,2,0,B|132:304,1,95,0|8,0:0|0:0,0:0:0
32,216,113108,5,4,0:0:0
44,172,113187,1,0,0:0:0
52,128,113266,1,0,0:0:0
56,84,113345,1,0,0:0:0
56,36,113423,1,0,0:0:0
164,116,113581,1,8,0:0:0
288,96,113739,1,0,0:0:0
408,144,113897,2,0,B|416:200|452:240,1,95
272,360,114213,1,0,0:0:0
292,328,114292,1,0,0:0:0
292,292,114371,1,0,0:0:0
280,260,114450,1,0,0:0:0
256,232,114529,6,0,B|256:136,1,95,0|4,0:0|0:0,0:0:0
456,32,115160,5,0,0:0:0
320,140,115318,1,0,0:0:0
468,204,115476,1,8,0:0:0
408,344,115634,2,0,B|332:292|216:300,1,190
96,344,116108,5,8,0:0:0
96,344,116266,1,0,0:0:0
256,192,116423,1,0,0:0:0
256,192,116581,1,0,0:0:0
416,40,116739,1,8,0:0:0
416,40,116897,1,0,0:0:0
192,128,117055,5,0,0:0:0
192,128,117213,1,0,0:0:0
320,256,117371,5,8,0:0:0
320,256,117529,1,0,0:0:0
256,68,117687,5,0,0:0:0
256,68,117845,1,0,0:0:0
256,316,118002,5,8,0:0:0
256,316,118160,1,0,0:0:0
336,36,118318,5,0,0:0:0
336,36,118476,1,0,0:0:0
176,348,118634,5,8,0:0:0
176,348,118792,1,0,0:0:0
336,36,118950,6,0,B|324:156,1,95
176,348,119266,2,0,B|188:228,1,95,8|0,0:0|0:0,0:0:0
204,112,119581,5,0,0:0:0
204,112,119739,1,0,0:0:0
308,272,119897,5,8,0:0:0
308,272,120055,1,0,0:0:0
132,144,120213,5,0,0:0:0
132,144,120371,1,0,0:0:0
380,240,120529,5,8,0:0:0
380,240,120687,1,0,0:0:0
84,208,120845,5,0,0:0:0
428,176,121002,1,0,0:0:0
84,208,121160,1,8,0:0:0
20,52,121318,5,0,0:0:0
32,64,121397,1,0,0:0:0
44,80,121476,1,0,0:0:0
56,96,121555,1,0,0:0:0
64,116,121634,1,0,0:0:0
68,132,121713,1,0,0:0:0
68,152,121792,1,0,0:0:0
64,172,121871,1,0,0:0:0
56,192,121950,1,0,0:0:0
48,208,122029,1,0,0:0:0
36,224,122108,2,0,B|104:236|100:308|100:308|172:288|208:344,1,237.5,4|8,0:0|0:0,0:0:0
392,312,122581,5,0,0:0:0
206,341,122739,1,0,0:0:0
392,312,122897,2,0,B|464:212,1,118.75,0|8,0:0|0:0,0:0:0
408,27,123213,6,0,B|344:84|376:200|468:216,1,237.5
472,344,123687,1,8,0:0:0
260,248,123845,1,0,0:0:0
472,344,124002,1,0,0:0:0
260,248,124160,6,0,B|152:192,1,118.75,0|8,0:0|0:0,0:0:0
129,77,124476,2,0,B|154:193,1,118.75
176,304,124792,1,0,0:0:0
376,176,124950,1,8,0:0:0
154,193,125108,1,0,0:0:0
376,176,125266,1,0,0:0:0
154,193,125423,6,0,B|96:220|60:264,1,118.75,0|8,0:0|0:0,0:0:0
44,356,125739,6,0,B|56:316|56:316|24:320|24:320|36:300|36:300|8:156,1,237.5
116,16,126213,6,0,B|140:136,1,118.75,8|0,0:0|0:0,0:0:0
256,368,126529,2,0,B|232:248,1,118.75
232,251,126766,1,0,0:0:0
232,251,126845,1,8,0:0:0
232,251,126923,1,0,0:0:0
232,251,127002,1,0,0:0:0
208,152,127160,5,4,0:0:0
276,64,127318,1,0,0:0:0
380,48,127476,1,8,0:0:0
464,108,127634,1,0,0:0:0
232,252,127792,5,0,0:0:0
328,320,127950,1,0,0:0:0
448,296,128108,1,8,0:0:0
492,200,128266,1,0,0:0:0
120,236,128423,5,0,0:0:0
120,236,128502,1,0,0:0:0
120,236,128581,2,0,B|84:120,1,118.75,0|8,0:0|0:0,0:0:0
208,24,128897,2,0,B|243:137,2,118.75
336,96,129371,1,8,0:0:0
464,44,129529,1,0,0:0:0
436,152,129687,6,0,B|404:192|404:192|424:268|376:320|376:320|380:368,2,237.5,0|8|0,0:0|0:0|0:0,0:0:0
312,236,130476,1,0,0:0:0
312,236,130634,1,8,0:0:0
204,344,130792,5,4,0:0:0
176,324,130871,1,0,0:0:0
152,308,130950,1,0,0:0:0
152,76,131108,1,0,0:0:0
176,60,131187,1,0,0:0:0
204,40,131266,1,8,0:0:0
32,192,131423,1,0,0:0:0
52,192,131502,1,0,0:0:0
72,192,131581,1,0,0:0:0
92,192,131660,1,0,0:0:0
116,192,131739,1,0,0:0:0
140,192,131818,1,0,0:0:0
160,192,131897,1,8,0:0:0
184,192,131976,1,0,0:0:0
208,192,132055,1,0,0:0:0
228,192,132134,1,0,0:0:0
248,192,132213,6,0,B|376:192,1,118.75,4|0,0:0|0:0,0:0:0
436,80,132529,1,8,0:0:0
436,304,132687,1,0,0:0:0
436,80,132845,1,0,0:0:0
436,304,133002,1,0,0:0:0
308,288,133160,1,8,0:0:0
204,360,133318,6,0,B|152:252,1,118.75
96,144,133634,1,0,0:0:0
188,48,133792,1,8,0:0:0
12,232,133950,1,0,0:0:0
188,48,134108,1,0,0:0:0
12,232,134266,6,0,B|63:338,1,118.75,0|8,0:0|0:0,0:0:0
263,255,134581,2,0,B|128:220|63:338,1,237.5
449,338,135055,1,8,0:0:0
63,338,135213,1,0,0:0:0
449,338,135371,1,0,0:0:0
63,338,135529,6,0,B|100:280|96:204,1,118.75,0|8,0:0|0:0,0:0:0
176,32,135845,2,0,B|160:156,1,118.75
172,312,136160,1,0,0:0:0
196,328,136239,1,0,0:0:0
216,344,136318,2,0,B|248:360|248:360|260:276,1,118.75,8|0,0:0|0:0,0:0:0
284,64,136634,5,0,0:0:0
304,56,136713,1,0,0:0:0
324,48,136792,1,0,0:0:0
344,40,136871,1,0,0:0:0
364,48,136950,1,8,0:0:0
384,56,137029,1,0,0:0:0
400,64,137108,1,0,0:0:0
416,72,137187,1,0,0:0:0
432,80,137266,2,0,B|392:192|392:192|432:312,2,237.5,4|8|0,0:0|0:0|0:0,0:0:0
288,148,138055,5,0,0:0:0
84,168,138213,1,8,0:0:0
228,236,138371,1,0,0:0:0
80,336,138529,1,4,0:0:0
80,336,138608,1,0,0:0:0
80,336,138687,2,0,B|152:220,1,118.75,0|8,0:0|0:0,0:0:0
256,40,139002,2,0,B|172:128|188:272,1,237.5
256,356,139476,1,8,0:0:0
360,296,139634,6,0,B|428:308|484:240|456:168|456:168|484:116,1,237.5,4|0,0:0|0:0,0:0:0
279,148,140108,2,0,B|380:212,1,118.75,8|0,0:0|0:0,0:0:0
460,360,140423,2,0,B|359:296,1,118.75
196,184,140739,1,8,0:0:0
196,184,140818,1,0,0:0:0
196,184,140897,1,0,0:0:0
48,72,141213,5,0,0:0:0
68,56,141292,1,0,0:0:0
88,44,141371,1,0,0:0:0
108,36,141450,1,0,0:0:0
132,32,141529,1,0,0:0:0
152,36,141608,1,0,0:0:0
172,48,141687,1,0,0:0:0
188,60,141766,1,0,0:0:0
204,76,141845,6,0,B|304:76,1,95
256,192,142318,12,0,144845,0:0:0
256,192,160002,12,0,162213,0:0:0
388,296,162529,5,4,0:0:0
464,200,162687,1,0,0:0:0
368,40,162845,2,0,B|320:72|244:68,1,95,8|0,0:0|0:0,0:0:0
180,48,163160,1,0,0:0:0
108,128,163318,1,0,0:0:0
176,208,163476,1,8,0:0:0
279,353,163634,6,0,B|272:244|176:208,1,190
48,192,164108,1,8,0:0:0
168,320,164266,1,0,0:0:0
240,160,164423,1,0,0:0:0
120,48,164581,1,0,0:0:0
168,320,164739,1,8,0:0:0
292,240,164897,5,0,0:0:0
324,252,164976,1,0,0:0:0
352,276,165055,2,0,B|384:312,3,47.5
416,296,165371,2,0,B|456:264,3,47.5,8|0|0|0,0:0|0:0|0:0|0:0,0:0:0
476,236,165687,5,0,0:0:0
488,200,165766,1,0,0:0:0
484,168,165845,1,0,0:0:0
472,136,165923,1,0,0:0:0
444,112,166002,2,0,B|432:16,1,95,8|0,0:0|0:0,0:0:0
296,52,166318,2,0,B|307:146,1,95
320,248,166634,5,8,0:0:0
320,248,166792,1,0,0:0:0
168,336,166950,1,0,0:0:0
172,300,167029,1,0,0:0:0
164,264,167108,1,0,0:0:0
136,232,167187,1,0,0:0:0
100,220,167266,2,0,B|96:168,3,47.5,8|0|0|0,0:0|0:0|0:0|0:0,0:0:0
64,152,167581,6,0,B|116:124|120:68,1,95,4|0,0:0|0:0,0:0:0
256,52,167897,1,8,0:0:0
408,120,168055,1,0,0:0:0
320,248,168213,1,0,0:0:0
256,88,168371,5,0,0:0:0
408,156,168529,1,8,0:0:0
320,284,168687,1,0,0:0:0
340,312,168766,1,0,0:0:0
364,344,168845,6,0,B|412:248,1,95
468,132,169160,1,8,0:0:0
344,36,169318,2,0,B|248:216,1,190
254,203,169713,1,0,0:0:0
254,203,169792,1,8,0:0:0
254,203,169871,1,0,0:0:0
254,203,169950,1,0,0:0:0
140,252,170108,6,0,B|136:308|80:320,1,95
52,148,170423,2,0,B|64:256,1,95,8|0,0:0|0:0,0:0:0
8,80,170739,2,0,B|56:52|100:84,1,95
172,136,171055,1,8,0:0:0
260,40,171213,6,0,B|320:120|440:120,1,190
472,200,171687,2,0,B|448:312,2,95,8|0|0,0:0|0:0|0:0,0:0:0
368,212,172160,1,0,0:0:0
380,348,172318,2,0,B|352:300|292:292,1,95,8|0,0:0|0:0,0:0:0
192,216,172634,5,4,0:0:0
160,228,172713,1,0,0:0:0
140,260,172792,1,0,0:0:0
140,296,172871,1,0,0:0:0
128,328,172950,2,0,B|84:344,3,47.5,8|0|0|0,0:0|0:0|0:0|0:0,0:0:0
48,332,173266,5,0,0:0:0
20,304,173345,1,0,0:0:0
16,264,173423,1,0,0:0:0
36,232,173502,1,0,0:0:0
72,224,173581,2,0,B|84:168,3,47.5,8|0|0|0,0:0|0:0|0:0|0:0,0:0:0
92,136,173897,1,0,0:0:0
92,136,173976,1,0,0:0:0
92,136,174055,1,0,0:0:0
216,24,174213,6,0,B|168:44|156:100,1,95,8|0,0:0|0:0,0:0:0
256,180,174529,2,0,B|160:172,1,95
304,108,174845,2,0,B|348:144|340:204,1,95,8|0,0:0|0:0,0:0:0
256,348,175160,5,0,0:0:0
256,348,175318,1,4,0:0:0
280,336,175634,5,4,0:0:0
304,324,175950,5,0,0:0:0
332,312,176266,6,0,B|444:116,1,190,4|0,0:0|0:0,0:0:0
476,64,176739,1,8,0:0:0
380,64,176897,2,0,B|284:88|192:36,1,190
196,38,177292,1,0,0:0:0
196,38,177371,1,8,0:0:0
196,38,177450,1,0,0:0:0
196,38,177529,1,0,0:0:0
36,112,177687,6,0,B|52:224,1,95,4|0,0:0|0:0,0:0:0
176,348,178002,2,0,B|162:253,1,95,8|0,0:0|0:0,0:0:0
144,144,178318,1,0,0:0:0
144,144,178397,1,0,0:0:0
144,144,178476,1,0,0:0:0
248,136,178634,1,8,0:0:0
344,176,178792,1,0,0:0:0
404,256,178950,1,0,0:0:0
408,356,179108,5,0,0:0:0
408,356,179187,1,0,0:0:0
408,356,179266,1,8,0:0:0
304,324,179423,1,0,0:0:0
244,236,179581,1,0,0:0:0
248,136,179739,1,0,0:0:0
304,56,179897,1,8,0:0:0
400,28,180055,1,0,0:0:0
480,140,180213,5,0,0:0:0
472,172,180292,1,0,0:0:0
456,200,180371,1,0,0:0:0
428,216,180450,1,0,0:0:0
396,204,180529,2,0,B|376:256,3,47.5,8|0|0|0,0:0|0:0|0:0|0:0,0:0:0
352,268,180845,6,0,B|296:256,3,47.5
272,272,181160,1,8,0:0:0
284,236,181239,1,0,0:0:0
280,196,181318,1,4,0:0:0
256,164,181397,1,0,0:0:0
224,144,181476,6,0,B|208:40,1,95,0|0,0:0|0:0,0:0:0
188,212,181792,6,8,B|172:108,1,95,8|8,0:0|0:0,0:0:0
152,280,182108,6,0,B|136:176,1,95,8|8,0:0|0:0,0:0:0
116,348,182423,6,0,B|100:244,1,95,8|8,0:0|0:0,0:0:0
72,80,182739,1,4,0:0:0
256,40,183055,5,0,0:0:0
104,192,183213,1,0,0:0:0
256,344,183371,1,0,0:0:0
408,192,183529,1,0,0:0:0
440,80,183845,6,0,B|292:80,1,142.500005435944
72,80,184318,5,0,0:0:0
440,80,184476,1,0,0:0:0
72,80,184634,1,0,0:0:0
440,80,184792,1,0,0:0:0
256,80,184950,5,8,0:0:0
160,144,185108,2,0,B|192:208|264:200|264:200|312:240|304:308,1,237.5,4|0,0:0|0:0,0:0:0
100,340,185581,1,8,0:0:0
304,298,185739,1,0,0:0:0
100,340,185897,1,0,0:0:0
304,298,186055,6,0,B|424:272,1,118.75,0|8,0:0|0:0,0:0:0
488,148,186371,6,0,B|476:176|476:176|456:156|456:156|440:184|440:184|420:164|420:164|284:192,1,237.5
24,164,186845,6,0,B|143:137,1,118.75,8|0,0:0|0:0,0:0:0
488,48,187160,2,0,B|368:74,1,118.75
372,74,187397,1,0,0:0:0
372,74,187476,1,8,0:0:0
372,74,187555,1,0,0:0:0
372,74,187634,1,0,0:0:0
144,48,187792,5,0,0:0:0
120,136,187950,1,0,0:0:0
172,284,188108,5,8,0:0:0
196,196,188266,1,0,0:0:0
304,132,188423,5,0,0:0:0
216,108,188581,1,0,0:0:0
8,200,188739,5,8,0:0:0
96,224,188897,1,0,0:0:0
204,364,189055,6,0,B|272:264|416:252,1,237.5,0|8,0:0|0:0,0:0:0
480,164,189529,1,0,0:0:0
468,124,189608,1,0,0:0:0
456,92,189687,2,0,B|332:132,1,118.75
142,112,190002,2,0,B|256:76,1,118.75,8|0,0:0|0:0,0:0:0
60,84,190318,2,0,B|24:144|24:144|52:192|24:232|24:232|64:300,2,237.5,0|8|0,0:0|0:0|0:0,0:0:0
144,272,191108,5,0,0:0:0
232,340,191266,1,8,0:0:0
332,284,191423,1,4,0:0:0
360,264,191502,1,0,0:0:0
388,244,191581,1,0,0:0:0
424,84,191739,1,0,0:0:0
396,104,191818,1,0,0:0:0
368,124,191897,1,8,0:0:0
256,208,192055,5,0,0:0:0
256,208,192134,1,0,0:0:0
256,208,192213,1,0,0:0:0
256,208,192292,1,0,0:0:0
256,208,192371,1,0,0:0:0
256,208,192450,1,0,0:0:0
256,208,192529,1,8,0:0:0
256,208,192608,1,0,0:0:0
256,208,192687,1,0,0:0:0
256,208,192766,1,0,0:0:0
256,208,192845,2,0,B|256:88,1,118.75,4|0,0:0|0:0,0:0:0
144,44,193160,1,8,0:0:0
368,140,193318,1,0,0:0:0
144,44,193476,1,0,0:0:0
368,140,193634,6,0,B|480:192,1,118.75,0|8,0:0|0:0,0:0:0
424,292,193950,2,0,B|396:148|504:84,1,237.5
256,208,194423,1,8,0:0:0
501,85,194581,1,0,0:0:0
256,208,194739,1,0,0:0:0
501,85,194897,6,0,B|480:24|408:28,1,118.75,0|8,0:0|0:0,0:0:0
183,137,195213,2,0,B|420:112,1,237.5
183,137,195687,1,8,0:0:0
420,112,195845,1,0,0:0:0
183,137,196002,1,0,0:0:0
420,112,196160,6,0,B|284:128,1,118.75,0|8,0:0|0:0,0:0:0
28,92,196476,2,0,B|148:128,1,118.75
332,248,196792,1,0,0:0:0
308,272,196871,1,0,0:0:0
288,292,196950,2,0,B|256:324|256:324|168:300,1,118.75,8|0,0:0|0:0,0:0:0
216,204,197266,5,0,0:0:0
216,204,197345,1,0,0:0:0
216,204,197423,1,0,0:0:0
468,136,197581,1,8,0:0:0
440,160,197660,1,0,0:0:0
408,172,197739,1,0,0:0:0
372,180,197818,1,0,0:0:0
336,176,197897,2,0,B|312:96|216:60|136:112,2,237.5,0|8|0,0:0|0:0|0:0,0:0:0
348,264,198687,5,0,0:0:0
444,296,198845,2,0,B|384:312|352:376,1,118.75,8|0,0:0|0:0,0:0:0
68,296,199160,2,0,B|128:312|160:376,1,118.75
396,216,199476,1,8,0:0:0
280,52,199634,1,0,0:0:0
116,168,199792,1,0,0:0:0
232,332,199950,1,0,0:0:0
232,332,200029,1,0,0:0:0
232,332,200108,1,8,0:0:0
84,48,200266,6,0,B|36:72|36:72|52:116|52:116|12:184|76:240,1,237.5,4|0,0:0|0:0,0:0:0
164,288,200739,5,8,0:0:0
164,288,200897,1,0,0:0:0
396,176,201055,5,0,0:0:0
396,176,201213,1,0,0:0:0
200,72,201371,5,8,0:0:0
200,72,201529,2,0,B|308:288,1,237.5
424,352,202002,2,0,B|460:232,1,118.75,8|0,0:0|0:0,0:0:0
500,76,202318,1,0,0:0:0
476,92,202397,1,0,0:0:0
444,96,202476,1,0,0:0:0
416,84,202555,1,0,0:0:0
396,60,202634,1,0,0:0:0
384,32,202713,1,0,0:0:0
360,40,202792,1,0,0:0:0
332,48,202871,1,0,0:0:0
308,56,202950,6,0,B|272:172,1,118.75,4|0,0:0|0:0,0:0:0
224,300,203266,1,8,0:0:0
308,56,203423,1,0,0:0:0
224,300,203581,1,0,0:0:0
308,56,203739,6,0,B|192:72,1,118.75,0|8,0:0|0:0,0:0:0
24,132,204055,2,0,B|144:104|264:144,1,237.5
24,132,204529,1,8,0:0:0
340,196,204687,1,0,0:0:0
24,132,204845,1,0,0:0:0
340,196,205002,6,0,B|464:224,1,118.75,0|8,0:0|0:0,0:0:0
488,120,205318,2,0,B|396:204|436:344,1,237.5,4|0,0:0|0:0,0:0:0
172,212,205792,1,8,0:0:0
488,120,205950,1,0,0:0:0
172,212,206108,1,0,0:0:0
488,120,206266,6,0,B|428:124|376:164,1,118.75,0|8,0:0|0:0,0:0:0
168,292,206581,6,0,B|196:308|196:308|196:276|196:276|216:292|216:292|216:260|216:260|292:268|336:204,1,237.5
440,44,207055,6,0,B|328:104,1,118.75,8|0,0:0|0:0,0:0:0
72,152,207371,2,0,B|176:95,1,118.75
176,95,207608,1,0,0:0:0
176,95,207687,1,8,0:0:0
176,95,207766,1,0,0:0:0
176,95,207845,1,0,0:0:0
300,128,208002,5,4,0:0:0
300,212,208160,1,0,0:0:0
335,288,208318,1,8,0:0:0
400,336,208476,1,0,0:0:0
212,256,208634,5,0,0:0:0
212,172,208792,1,0,0:0:0
176,95,208950,1,8,0:0:0
112,48,209108,1,0,0:0:0
48,96,209266,5,0,0:0:0
48,96,209345,1,0,0:0:0
48,96,209423,2,0,B|56:228,1,118.75,0|8,0:0|0:0,0:0:0
152,348,209739,2,0,B|144:229,2,118.75
256,292,210213,1,8,0:0:0
360,348,210371,1,0,0:0:0
456,272,210529,6,0,B|488:212|448:156|448:156|412:104|440:44,2,237.5,0|8|0,0:0|0:0|0:0,0:0:0
332,88,211318,1,4,0:0:0
348,216,211476,1,12,0:0:0
276,344,211634,2,0,B|244:108,1,237.5,4|0,0:0|0:0,0:0:0
140,24,212108,6,0,B|155:143,1,118.75,8|0,0:0|0:0,0:0:0
112,360,212423,1,0,0:0:0
104,300,212502,1,0,0:0:0
96,242,212581,1,0,0:0:0
44,28,212739,1,8,0:0:0
28,56,212818,1,0,0:0:0
24,92,212897,1,0,0:0:0
36,128,212976,1,0,0:0:0
56,156,213055,6,0,B|71:275,1,118.75,4|0,0:0|0:0,0:0:0
328,256,213371,1,8,0:0:0
71,273,213529,1,0,0:0:0
328,256,213687,1,0,0:0:0
71,273,213845,6,0,B|124:164,1,118.75,0|8,0:0|0:0,0:0:0
228,28,214160,2,0,B|164:136|180:276,1,237.5,4|0,0:0|0:0,0:0:0
448,176,214634,1,8,0:0:0
200,328,214792,1,0,0:0:0
448,176,214950,1,0,0:0:0
200,328,215108,6,0,B|84:312,1,118.75,0|8,0:0|0:0,0:0:0
16,160,215423,2,0,B|260:196,1,237.5,4|0,0:0|0:0,0:0:0
484,232,215897,1,8,0:0:0
16,160,216055,1,0,0:0:0
484,232,216213,1,0,0:0:0
16,160,216371,6,0,B|140:180,1,118.75,0|8,0:0|0:0,0:0:0
412,220,216687,1,4,0:0:0
400,184,216766,1,0,0:0:0
388,148,216845,2,0,B|270:129,1,118.75
80,56,217160,2,0,B|200:88|280:184,1,237.5,8|0,0:0|0:0,0:0:0
348,272,217634,5,0,0:0:0
464,300,217792,2,0,B|512:184,1,118.75,8|0,0:0|0:0,0:0:0
448,48,218108,2,0,B|444:76|444:76|420:64|420:64|380:132|308:104|308:104|300:124|300:124|272:112,2,237.5,4|8|0,0:0|0:0|0:0,0:0:0
344,32,218897,5,0,0:0:0
272,112,219055,1,8,0:0:0
304,212,219213,1,0,0:0:0
420,252,219371,2,0,B|396:244|396:244|404:276|404:276|376:272|376:272|332:352|240:336,1,237.5,0|8,0:0|0:0,0:0:0
132,308,219845,1,0,0:0:0
32,228,220002,6,0,B|164:208,1,118.75
272,188,220318,1,8,0:0:0
480,152,220476,2,0,B|352:176|248:104,1,237.5
192,48,220950,5,8,0:0:0
356,168,221108,1,0,0:0:0
156,168,221266,1,0,0:0:0
320,48,221423,1,0,0:0:0
256,336,221581,1,8,0:0:0
256,336,221660,1,0,0:0:0
256,336,221739,1,0,0:0:0
256,44,222055,5,0,0:0:0
256,68,222134,1,0,0:0:0
256,92,222213,1,0,0:0:0
256,120,222292,1,0,0:0:0
256,144,222371,1,0,0:0:0
256,168,222450,1,0,0:0:0
256,192,222529,1,0,0:0:0
256,216,222608,1,0,0:0:0
256,240,222687,2,0,B|256:340,1,95
256,192,223160,12,0,228213,0:0:0
