osu file format v10

[General]
AudioFilename: Kimi no Kiseki.mp3
AudioLeadIn: 0
PreviewTime: 58894
Countdown: 0
SampleSet: Normal
StackLeniency: 0.7
Mode: 0
LetterboxInBreaks: 1

[Editor]
Bookmarks: 26052
DistanceSpacing: 0.8
BeatDivisor: 4
GridSize: 4

[Metadata]
Title:Kimi no Kiseki
TitleUnicode:Kimi no Kiseki
Artist:Hanatan
ArtistUnicode:Hanatan
Creator:cococanro
Version:Hard
Source:Flower Drops
Tags:
BeatmapID:180121
BeatmapSetID:59948

[Difficulty]
HPDrainRate:6
CircleSize:4
OverallDifficulty:5
ApproachRate:7
SliderMultiplier:1.6
SliderTickRate:0.5

[Events]
//Background and Video events
0,0,"BG.jpg"
//Break Periods
2,84413,88366
2,145045,161629
//Storyboard Layer 0 (Background)
//Storyboard Layer 1 (Fail)
//Storyboard Layer 2 (Pass)
//Storyboard Layer 3 (Foreground)
//Storyboard Sound Samples
//Background Colour Transformations
3,100,163,162,255

[TimingPoints]
845,315.789473684211,4,1,1,60,1,0
58950,-80,4,1,1,60,0,1
78687,-133.333333333333,4,1,1,60,0,1
84213,-100,4,1,1,60,0,0
89266,-133.333333333333,4,2,1,50,0,0
94002,-100,4,1,1,50,0,0
94318,-100,4,1,1,60,0,0
122108,-80,4,1,1,60,0,1
141845,-133.333333333333,4,1,1,60,0,1
144845,315.789473684211,4,2,0,5,1,0
144845,-100,4,2,0,5,0,0
162529,-100,4,1,1,50,0,0
182739,-100,4,2,0,50,0,0
184950,-100,4,1,1,50,0,0
185108,-80,4,1,1,60,0,1
228213,-80,4,1,1,60,0,0

[Colours]
Combo1 : 156,32,223
Combo2 : 0,249,124
Combo3 : 24,231,225
Combo4 : 255,0,0

[HitObjects]
152,72,26108,2,0,B|68:72,2,80,0|0|8,0:0|0:0|0:0,0:0:0
232,72,26581,1,0,0:0:0
296,124,26739,2,0,B|296:172|328:212,1,80
376,256,27055,1,8,0:0:0
392,176,27213,6,0,B|300:192|256:264,1,160
216,328,27687,1,8,0:0:0
184,252,27845,6,0,B|284:244|336:312,1,160
404,328,28318,2,0,B|456:244,1,80,8|0,0:0|0:0,0:0:0
452,184,28634,2,0,B|432:136|460:88,2,80,0|0|8,0:0|0:0|0:0,0:0:0
376,208,29108,1,0,0:0:0
332,144,29266,2,0,B|340:92|380:64,1,80
436,36,29581,5,8,0:0:0
436,36,29739,2,0,B|368:92|268:84,1,160
216,40,30213,2,0,B|176:124,1,80,8|0,0:0|0:0,0:0:0
144,188,30528,1,0,0:0:0
68,156,30686,1,0,0:0:0
104,80,30844,1,8,0:0:0
181,112,31002,6,0,B|156:184|196:268,1,160
132,316,31476,2,0,B|196:268,1,80,8|0,0:0|0:0,0:0:0
260,224,31792,1,0,0:0:0
260,304,31950,1,0,0:0:0
200,356,32108,1,8,0:0:0
196,268,32266,6,0,B|268:324|360:320,1,160
416,280,32739,2,0,B|452:312|452:360,2,80,8|0|0,0:0|0:0|0:0,0:0:0
356,228,33213,1,0,0:0:0
428,200,33371,2,0,B|444:76,1,120,8|0,0:0|0:0,0:0:0
404,112,33687,6,0,B|376:48|316:32,1,120
296,60,34002,6,0,B|232:96|168:68,1,120,8|0,0:0|0:0,0:0:0
184,40,34318,6,0,B|168:160,1,120
192,192,34634,6,0,B|120:184|76:244,1,120,8|0,0:0|0:0,0:0:0
52,212,34950,5,0,0:0:0
48,216,35108,1,0,0:0:0
44,220,35266,1,8,0:0:0
40,224,35423,1,0,0:0:0
40,312,35581,2,0,B|56:360,3,40
128,324,35897,2,0,B|144:372,3,40
192,264,36213,6,0,B|224:284|272:288,1,80,4|0,0:0|0:0,0:0:0
352,260,36529,1,8,0:0:0
428,316,36687,1,0,0:0:0
416,196,36845,2,0,B|404:152|416:112,2,80,0|0|8,0:0|0:0|0:0,0:0:0
484,248,37318,6,0,B|424:184|336:176,1,160
280,116,37792,1,8,0:0:0
268,204,37950,6,0,B|356:188|408:120,1,160
436,52,38423,1,8,0:0:0
336,44,38581,5,0,0:0:0
220,60,38739,1,0,0:0:0
288,148,38897,1,0,0:0:0
308,68,39055,5,8,0:0:0
192,84,39213,1,0,0:0:0
260,172,39371,1,0,0:0:0
132,180,39529,6,0,B|100:152|56:144,1,80,0|8,0:0|0:0,0:0:0
88,68,39845,2,0,B|72:156|12:208,1,160
84,268,40318,2,0,B|96:320|80:360,2,80,8|0|0,0:0|0:0|0:0,0:0:0
164,152,40792,1,0,0:0:0
172,240,40950,1,8,0:0:0
84,184,41108,6,0,B|236:280,1,160
296,212,41581,2,0,B|336:240|388:228,2,80,8|0|0,0:0|0:0|0:0,0:0:0
219,269,42055,1,0,0:0:0
296,212,42213,1,8,0:0:0
240,136,42371,2,0,B|320:100|352:20,1,160
244,36,42845,6,0,B|384:160,1,160,8|0,0:0|0:0,0:0:0
424,196,43318,1,0,0:0:0
368,260,43476,1,8,0:0:0
480,132,43634,1,0,0:0:0
448,276,43792,6,0,B|412:356,1,80
280,264,44108,2,0,B|312:191,1,80,8|0,0:0|0:0,0:0:0
448,276,44423,6,0,B|412:356,1,80
280,264,44739,2,0,B|312:191,1,80,8|0,0:0|0:0,0:0:0
348,116,45055,5,4,0:0:0
348,116,45213,1,0,0:0:0
280,52,45371,1,8,0:0:0
256,76,45450,1,0,0:0:0
224,92,45529,1,0,0:0:0
188,92,45608,1,0,0:0:0
160,72,45687,2,0,B|144:120,3,40
72,140,46002,2,0,B|56:188,3,40
28,256,46318,2,0,B|104:260|136:328,1,120
144,344,46634,6,0,B|232:328,1,80,12|0,0:0|0:0,0:0:0
312,312,46950,1,0,0:0:0
312,312,47108,1,0,0:0:0
400,296,47266,1,8,0:0:0
400,296,47423,2,0,B|412:204|488:168,1,160
484,88,47897,6,0,B|400:72,1,80,8|0,0:0|0:0,0:0:0
316,56,48213,1,0,0:0:0
316,56,48371,1,0,0:0:0
232,36,48529,1,8,0:0:0
232,36,48687,2,0,B|144:200,1,160,4|0,0:0|0:0,0:0:0
111,113,49160,6,0,B|148:132|156:176,1,80,8|0,0:0|0:0,0:0:0
144,256,49476,1,0,0:0:0
60,292,49634,1,0,0:0:0
72,212,49792,1,8,0:0:0
132,340,49950,2,0,B|228:324|288:376,1,160
364,340,50423,1,8,0:0:0
296,288,50581,2,0,B|340:208|436:220,1,160
480,136,51055,6,0,B|440:136,1,40,8|0,0:0|0:0,0:0:0
404,136,51213,2,0,B|364:136,1,40
324,136,51371,2,0,B|204:136,1,120
228,172,51687,6,0,B|184:180|172:228,1,80,12|0,0:0|0:0,0:0:0
116,288,52002,1,0,0:0:0
44,236,52160,1,0,0:0:0
108,172,52318,1,8,0:0:0
36,120,52476,2,0,B|124:132|192:64,1,160
256,20,52950,6,0,B|256:108,1,80,8|0,0:0|0:0,0:0:0
336,152,53266,2,0,B|336:72,1,80
416,124,53581,2,0,B|416:212,1,80,8|0,0:0|0:0,0:0:0
320,264,53897,6,0,B|348:300|396:304,2,80,0|0|8,0:0|0:0|0:0,0:0:0
256,192,54371,1,0,0:0:0
192,264,54529,2,0,B|164:300|116:304,2,80,0|0|8,0:0|0:0|0:0,0:0:0
256,192,55003,1,0,0:0:0
348,224,55160,6,0,B|392:236|444:232,2,80,0|0|8,0:0|0:0|0:0,0:0:0
256,192,55634,1,0,0:0:0
164,224,55792,2,0,B|120:236|68:232,2,80,0|0|8,0:0|0:0|0:0,0:0:0
256,192,56266,1,0,0:0:0
352,172,56423,6,0,B|396:164|432:136,2,80,0|0|8,0:0|0:0|0:0,0:0:0
256,192,56897,1,0,0:0:0
160,172,57055,2,0,B|116:164|80:136,2,80,0|0|8,0:0|0:0|0:0,0:0:0
256,192,57529,1,0,0:0:0
256,36,57687,6,0,B|256:132,1,80,4|0,0:0|0:0,0:0:0
256,348,58002,2,0,B|256:252,1,80,8|0,0:0|0:0,0:0:0
172,252,58318,1,0,0:0:0
132,252,58397,1,0,0:0:0
96,268,58476,1,0,0:0:0
72,296,58555,1,0,0:0:0
56,336,58634,1,0,0:0:0
56,336,58713,1,0,0:0:0
56,336,58792,1,0,0:0:0
56,336,58871,1,0,0:0:0
56,336,58950,6,0,B|68:252|24:176,1,150,4|0,0:0|0:0,0:0:0
12,156,59266,2,0,B|80:80,1,100,8|0,0:0|0:0,0:0:0
236,48,59581,2,0,B|169:122,1,100
104,184,59897,1,8,0:0:0
172,268,60055,6,0,B|240:192|240:192|284:228|332:204,1,200
408,156,60529,1,8,0:0:0
388,76,60687,1,0,0:0:0
312,40,60845,2,0,B|292:152,1,100
272,268,61160,1,8,0:0:0
420,300,61318,6,0,B|316:316|228:372,1,200
148,344,61792,1,8,0:0:0
76,288,61950,1,0,0:0:0
164,260,62108,1,0,0:0:0
96,204,62266,2,0,B|128:108,1,100,0|8,0:0|0:0,0:0:0
160,32,62581,6,0,B|172:64|172:64|200:48|200:48|200:80|200:80|256:72|296:136,1,200
374,165,63055,2,0,B|340:128|286:122,1,100,8|0,0:0|0:0,0:0:0
460,208,63371,2,0,B|426:170|373:165,1,100
296,220,63687,1,8,0:0:0
296,220,63766,1,0,0:0:0
296,220,63845,1,0,0:0:0
248,292,64002,6,0,B|212:340|144:336,1,100
72,292,64318,2,0,B|108:244|176:248,1,100,8|0,0:0|0:0,0:0:0
144,164,64634,2,0,B|128:100|56:88,1,100
16,32,64950,2,0,B|68:40|120:20,1,100,8|0,0:0|0:0,0:0:0
208,56,65266,5,0,0:0:0
208,56,65345,1,0,0:0:0
208,56,65423,2,0,B|240:152,1,100,0|8,0:0|0:0,0:0:0
268,232,65739,1,0,0:0:0
328,160,65897,2,0,B|360:116|428:120,2,100,0|0|8,0:0|0:0|0:0,0:0:0
408,212,66371,1,0,0:0:0
488,264,66529,6,0,B|312:368,1,200,0|8,0:0|0:0,0:0:0
256,308,67002,1,0,0:0:0
196,365,67160,2,0,B|104:312,1,100
24,264,67476,1,8,0:0:0
116,224,67634,6,0,B|152:176|124:136|124:136|52:120|44:32,1,200,4|0,0:0|0:0,0:0:0
140,44,68108,1,8,0:0:0
216,104,68266,1,0,0:0:0
304,64,68423,2,0,B|336:20,3,50
368,128,68739,2,0,B|400:84,3,50
456,144,69055,6,0,B|440:228|464:296,1,150,4|0,0:0|0:0,0:0:0
476,320,69371,2,0,B|484:336|484:336|440:328|404:356,1,100,8|0,0:0|0:0,0:0:0
340,300,69687,2,0,B|312:256|256:252,1,100
172,296,70002,1,8,0:0:0
256,352,70160,6,0,B|356:168,1,200
392,100,70634,1,8,0:0:0
452,160,70792,1,0,0:0:0
480,80,70950,1,0,0:0:0
420,24,71108,1,0,0:0:0
336,40,71266,1,8,0:0:0
300,116,71423,6,0,B|204:291,1,200,4|0,0:0|0:0,0:0:0
144,356,71897,2,0,B|108:308|128:260,1,100,8|0,0:0|0:0,0:0:0
60,216,72213,2,0,B|92:172|148:180,1,100
212,236,72529,5,8,0:0:0
228,156,72687,2,0,B|220:76|144:40,1,150
148,84,73002,2,0,B|56:132,2,100,0|8|0,0:0|0:0|0:0,0:0:0
240,32,73476,1,0,0:0:0
304,96,73634,1,0,0:0:0
228,156,73792,2,0,B|272:184|280:240,1,100,8|0,0:0|0:0,0:0:0
268,328,74108,6,0,B|284:264|388:240|436:308,2,200,4|8|0,0:0|0:0|0:0,0:0:0
196,372,74897,1,0,0:0:0
132,316,75055,1,8,0:0:0
52,336,75213,1,0,0:0:0
16,260,75371,2,0,B|48:216|48:160,1,100
152,36,75687,2,0,B|120:80|120:136,1,100,8|0,0:0|0:0,0:0:0
136,208,76002,1,0,0:0:0
200,264,76160,1,0,0:0:0
276,228,76318,1,8,0:0:0
212,176,76476,6,0,B|228:280|312:352,1,200
396,356,76950,1,8,0:0:0
396,356,77108,1,0,0:0:0
472,312,77266,1,0,0:0:0
472,312,77423,1,0,0:0:0
488,228,77581,1,8,0:0:0
488,228,77739,6,0,B|444:120|508:36,1,200,4|0,0:0|0:0,0:0:0
468,44,78134,1,0,0:0:0
432,48,78213,2,0,B|412:92,3,50
396,128,78529,1,0,0:0:0
356,144,78608,1,0,0:0:0
320,140,78687,2,0,B|312:72|244:48,1,120.000004577637
256,192,79160,12,0,84213,0:0:0
264,48,89266,6,0,B|276:84|264:112,1,60.0000022888184,4|0,0:0|0:0,0:0:0
308,176,89581,1,0,0:0:0
368,120,89739,2,0,B|396:104|424:120,2,60.0000022888184
308,176,90213,5,0,0:0:0
372,228,90371,2,0,B|356:280|376:348,1,120.000004577637
140,156,91002,6,0,B|156:104|136:36,1,120.000004577637
136,37,91476,1,0,0:0:0
216,64,91634,1,0,0:0:0
264,132,91792,2,0,B|232:188,2,60.0000022888184
336,92,92266,1,0,0:0:0
336,172,92423,2,0,B|344:204|372:228,1,60.0000022888184
432,260,92739,1,0,0:0:0
428,188,92897,6,0,B|396:248|344:288,1,120.000004577637
268,244,93371,2,0,B|256:292|256:372,1,120.000004577637
172,328,93845,1,0,0:0:0
84,364,94002,1,8,0:0:0
84,364,94160,5,0,0:0:0
84,364,94239,1,0,0:0:0
84,364,94318,2,0,B|88:272|28:216,1,160,4|8,0:0|0:0,0:0:0
64,144,94792,1,0,0:0:0
116,72,94950,2,0,B|164:72|196:48,2,80,0|0|8,0:0|0:0|0:0,0:0:0
28,60,95423,6,0,B|152:160,1,160
236,160,95897,2,0,B|236:208|240:260,1,80,8|0,0:0|0:0,0:0:0
332,188,96213,2,0,B|332:140|328:88,1,80
264,232,96529,6,0,B|256:280|268:360,1,120,8|0,0:0|0:0,0:0:0
300,368,96845,6,0,B|348:340|420:348,1,120
432,312,97160,6,0,B|440:240|464:184,1,120,8|0,0:0|0:0,0:0:0
500,184,97476,6,0,B|432:164|388:120,1,120
368,156,97792,6,0,B|384:92|372:36,1,120,8|0,0:0|0:0,0:0:0
336,28,98107,5,4,0:0:0
332,32,98266,1,0,0:0:0
328,36,98423,1,8,0:0:0
324,40,98581,1,0,0:0:0
236,68,98739,6,0,B|208:24,3,40
176,124,99055,2,0,B|148:80,3,40
92,132,99371,2,0,B|88:212|16:276,1,160,4|8,0:0|0:0,0:0:0
44,348,99845,1,0,0:0:0
128,336,100002,1,0,0:0:0
104,260,100160,2,0,B|152:264|192:256,1,80,0|8,0:0|0:0,0:0:0
212,332,100476,6,0,B|296:320|376:332,1,160
428,268,100950,1,8,0:0:0
484,340,101108,6,0,B|464:264|476:172,1,160
488,100,101581,1,8,0:0:0
408,132,101739,5,0,0:0:0
332,76,101897,1,0,0:0:0
248,100,102055,1,0,0:0:0
320,156,102213,5,8,0:0:0
236,180,102371,1,0,0:0:0
164,124,102529,1,0,0:0:0
96,68,102687,6,0,B|104:112|96:160,1,80,0|8,0:0|0:0,0:0:0
156,208,103002,2,0,B|240:212|304:284,1,160
365,240,103476,2,0,B|328:240|296:275,1,80,8|0,0:0|0:0,0:0:0
312,352,103792,1,0,0:0:0
236,320,103950,1,0,0:0:0
160,292,104108,1,8,0:0:0
84,320,104266,6,0,B|96:268|84:240,2,80,0|4|0,0:0|0:0|0:0,0:0:0
12,276,104739,2,0,B|0:228|12:192,1,80,12|0,0:0|0:0,0:0:0
60,132,105055,6,0,B|100:152|136:136,2,80,0|0|8,0:0|0:0|0:0,0:0:0
104,64,105529,2,0,B|188:84|240:168,1,160,4|0,0:0|0:0,0:0:0
184,216,106002,2,0,B|232:136|308:108,1,160,8|0,0:0|0:0,0:0:0
328,32,106476,1,0,0:0:0
384,100,106634,1,8,0:0:0
352,176,106792,1,0,0:0:0
436,164,106950,6,0,B|472:248,1,80,4|0,0:0|0:0,0:0:0
352,320,107266,2,0,B|320:246,1,80,12|0,0:0|0:0,0:0:0
436,164,107581,6,0,B|472:248,1,80
352,320,107897,2,0,B|320:246,1,80,8|0,0:0|0:0,0:0:0
248,284,108213,5,0,0:0:0
260,204,108371,1,0,0:0:0
224,132,108529,1,8,0:0:0
152,100,108687,1,0,0:0:0
76,72,108845,2,0,B|48:36,3,40
32,148,109160,2,0,B|4:112,3,40
112,168,109476,2,0,B|148:220|112:288,1,120
88,316,109792,6,0,B|164:348,1,80,12|0,0:0|0:0,0:0:0
240,296,110108,1,0,0:0:0
240,296,110266,1,0,0:0:0
312,356,110423,1,8,0:0:0
312,356,110581,2,0,B|360:276|464:296,1,160
496,216,111055,6,0,B|472:132,1,80,8|0,0:0|0:0,0:0:0
448,52,111371,1,0,0:0:0
448,52,111529,1,0,0:0:0
352,88,111687,1,8,0:0:0
352,88,111845,2,0,B|192:36,1,160,4|0,0:0|0:0,0:0:0
128,80,112318,5,8,0:0:0
44,80,112476,1,0,0:0:0
88,152,112634,1,0,0:0:0
172,152,112792,2,0,B|196:192|172:228,1,80,0|8,0:0|0:0,0:0:0
108,272,113108,6,0,B|196:244|264:300,1,160,4|0,0:0|0:0,0:0:0
312,360,113581,1,8,0:0:0
388,320,113739,2,0,B|472:288|492:200,1,160
436,132,114213,1,8,0:0:0
412,44,114371,5,0,0:0:0
412,44,114450,1,0,0:0:0
412,44,114529,1,0,0:0:0
224,124,114845,6,0,B|264:216,1,80,12|0,0:0|0:0,0:0:0
292,276,115160,1,0,0:0:0
292,276,115318,1,0,0:0:0
240,348,115476,1,8,0:0:0
168,296,115634,2,0,B|136:204|36:192,1,160
32,116,116108,6,0,B|28:20,1,80,8|0,0:0|0:0,0:0:0
112,56,116423,2,0,B|115:135,1,80,0|0,0:0|0:3,0:0:0
200,156,116739,2,0,B|196:60,1,80,8|0,0:0|0:0,0:0:0
308,104,117055,6,0,B|392:104,2,80,0|0|8,0:0|0:0|0:0,0:0:0
308,104,117529,1,0,0:0:0
200,156,117687,6,0,B|116:156,2,80,0|0|8,0:0|0:0|0:0,0:0:0
200,156,118161,1,0,0:0:0
312,204,118318,6,0,B|396:204,2,80,0|0|8,0:0|0:0|0:0,0:0:0
312,204,118792,1,0,0:0:0
204,256,118950,6,0,B|120:256,2,80,0|0|8,0:0|0:0|0:0,0:0:0
204,256,119424,1,0,0:0:0
312,296,119581,6,0,B|312:380,2,80,0|0|8,0:0|0:0|0:0,0:0:0
312,296,120055,1,0,0:0:0
204,256,120213,6,0,B|204:176,2,80,0|0|8,0:0|0:0|0:0,0:0:0
204,256,120687,1,0,0:0:0
204,336,120845,6,0,B|152:332|132:288,1,80
312,216,121160,2,0,B|364:220|384:264,1,80,8|0,0:0|0:0,0:0:0
424,348,121476,1,0,0:0:0
452,332,121555,1,0,0:0:0
480,304,121634,1,0,0:0:0
492,272,121713,1,0,0:0:0
488,236,121792,1,0,0:0:0
476,204,121871,1,0,0:0:0
452,180,121950,1,0,0:0:0
452,180,122029,1,0,0:0:0
452,180,122108,6,0,B|480:32,1,150,12|0,0:0|0:0,0:0:0
444,52,122423,2,0,B|396:80|344:68,1,100,8|0,0:0|0:0,0:0:0
268,36,122739,2,0,B|272:96|228:128,1,100
152,148,123055,1,8,0:0:0
116,64,123213,6,0,B|56:92|40:188|116:228,1,200
200,220,123687,1,0,0:0:0
180,300,123845,1,0,0:0:0
244,352,124002,2,0,B|344:336,2,100,0|0|8,0:0|0:0|0:0,0:0:0
264,276,124476,6,0,B|452:248,1,150
452,248,124792,2,0,B|452:188|480:152,1,100,0|8,0:0|0:0,0:0:0
404,40,125108,2,0,B|404:100|377:134,1,100
292,160,125423,1,0,0:0:0
216,112,125581,1,8,0:0:0
248,24,125739,6,0,B|240:52|240:52|216:32|216:32|212:64|212:64|152:44|112:104,1,200
76,184,126213,2,0,B|80:132|117:95,1,100,8|0,0:0|0:0,0:0:0
99,281,126529,2,0,B|76:248|76:184,1,100
160,172,126845,2,0,B|180:192|184:220,2,50,8|0|0,0:0|0:0|0:0,0:0:0
216,112,127160,6,0,B|312:156,1,100,4|0,0:0|0:0,0:0:0
340,260,127476,2,0,B|249:218,1,100,8|0,0:0|0:0,0:0:0
224,300,127792,2,0,B|200:344|144:356,1,100
100,280,128108,2,0,B|104:216|76:184,1,100,8|0,0:0|0:0,0:0:0
40,112,128423,6,0,B|116:124|144:44|144:44|204:28,1,200,0|8,0:0|0:0,0:0:0
308,28,128897,2,0,B|368:44|368:44|396:124|472:112,1,200
468,204,129371,1,8,0:0:0
372,180,129529,1,0,0:0:0
400,272,129687,2,0,B|368:312|368:312|320:288|256:312|256:376,2,200,0|8|0,0:0|0:0|0:0,0:0:0
372,180,130476,5,0,0:0:0
296,240,130634,1,8,0:0:0
204,216,130792,2,0,B|220:116|204:4,1,200,4|0,0:0|0:0,0:0:0
120,44,131266,2,0,B|112:96|120:144,1,100,8|0,0:0|0:0,0:0:0
36,140,131581,2,0,B|44:192|36:240,1,100
32,328,131897,1,8,0:0:0
32,328,131976,1,0,0:0:0
32,328,132055,1,0,0:0:0
116,304,132213,6,0,B|212:304|264:356,1,150,4|0,0:0|0:0,0:0:0
288,352,132529,2,0,B|324:352|324:352|340:332|380:320,1,100,8|0,0:0|0:0,0:0:0
456,272,132845,2,0,B|452:216|484:176,1,100
444,100,133160,1,8,0:0:0
392,168,133318,6,0,B|332:256|216:264,1,200
140,240,133792,1,8,0:0:0
80,172,133950,1,0,0:0:0
164,160,134108,2,0,B|172:104|160:56,2,100,0|0|8,0:0|0:0|0:0,0:0:0
80,32,134581,6,0,B|180:80|312:68,1,200
352,36,135055,1,8,0:0:0
436,56,135213,1,0,0:0:0
460,136,135371,1,0,0:0:0
380,116,135529,1,0,0:0:0
460,136,135687,5,8,0:0:0
468,216,135845,2,0,B|444:320,1,100
356,364,136160,1,0,0:0:0
356,364,136318,2,0,B|378:266,1,100,8|0,0:0|0:0,0:0:0
396,188,136634,2,0,B|340:196|300:152,1,100
172,60,136950,2,0,B|228:52|268:96,1,100,8|0,0:0|0:0,0:0:0
196,144,137266,6,0,B|164:164|164:164|176:200|176:200|108:212|100:292,2,200,4|8|0,0:0|0:0|0:0,0:0:0
276,112,138055,1,0,0:0:0
336,176,138213,1,8,0:0:0
256,208,138371,1,0,0:0:0
316,268,138529,6,0,B|348:304|404:280|404:280|428:332|488:336,1,200,4|8,0:0|0:0,0:0:0
484,252,139002,2,0,B|460:208|456:152,1,100
456,76,139318,1,0,0:0:0
384,32,139476,1,8,0:0:0
384,112,139634,6,0,B|272:112|192:24,1,200,4|0,0:0|0:0,0:0:0
124,48,140108,1,8,0:0:0
124,48,140266,1,0,0:0:0
52,96,140423,1,0,0:0:0
52,96,140581,1,0,0:0:0
24,180,140739,1,8,0:0:0
24,180,140897,6,0,B|104:208|104:208|68:260|112:316,1,200
136,332,141292,1,0,0:0:0
168,336,141371,2,0,B|220:328,3,50
224,296,141687,1,0,0:0:0
248,272,141766,1,0,0:0:0
284,272,141845,2,0,B|340:240|344:168,1,120.000004577637
256,192,142318,12,0,144845,0:0:0
348,112,162529,6,0,B|280:68|180:88,1,160,4|8,0:0|0:0,0:0:0
140,32,163002,2,0,B|220:88|228:196,1,160
192,244,163476,6,0,B|172:288|188:336,1,80,8|0,0:0|0:0,0:0:0
264,292,163792,2,0,B|280:336|320:348,1,80
344,268,164108,2,0,B|388:288|432:280,1,80,8|0,0:0|0:0,0:0:0
480,220,164423,2,0,B|472:176|480:132,2,80,0|0|8,0:0|0:0|0:0,0:0:0
400,192,164897,5,0,0:0:0
384,112,165055,2,0,B|292:104|256:16,1,160,0|8,0:0|0:0,0:0:0
204,88,165529,1,0,0:0:0
136,52,165687,2,0,B|76:112|68:196,1,160,0|8,0:0|0:0,0:0:0
32,268,166160,1,0,0:0:0
112,264,166318,6,0,B|152:344,1,80
240,348,166634,2,0,B|204:276,1,80,8|0,0:0|0:0,0:0:0
168,204,166950,1,0,0:0:0
128,128,167108,1,0,0:0:0
128,128,167187,1,0,0:0:0
128,128,167266,1,8,0:0:0
212,132,167423,1,0,0:0:0
276,80,167581,6,0,B|324:92|364:64,2,80,4|0|8,0:0|0:0|0:0,0:0:0
292,160,168055,2,0,B|328:192|372:192,2,80
228,212,168529,1,8,0:0:0
288,264,168687,6,0,B|380:264|428:344,1,160
328,352,169160,1,8,0:0:0
240,352,169318,2,0,B|208:320|208:320|160:356|96:332,1,160
24,292,169792,2,0,B|56:256|64:204,1,80,8|0,0:0|0:0,0:0:0
144,256,170108,6,0,B|168:196|136:140|80:132,2,160,0|8|0,0:0|0:0|0:0,0:0:0
256,228,170897,1,0,0:0:0
256,228,171055,1,8,0:0:0
368,256,171213,6,0,B|344:196|376:140|432:132,2,160
448,216,172002,1,0,0:0:0
444,300,172160,1,0,0:0:0
444,300,172239,1,0,0:0:0
444,300,172318,1,8,0:0:0
364,336,172476,1,0,0:0:0
280,312,172634,6,0,B|240:321|208:356,1,80,4|0,0:0|0:0,0:0:0
156,296,172950,2,0,B|120:320|72:308,1,80,8|0,0:0|0:0,0:0:0
104,232,173266,2,0,B|96:176|56:156,2,80,0|0|8,0:0|0:0|0:0,0:0:0
184,224,173739,6,0,B|176:136|100:88,1,160
105,91,174134,1,0,0:0:0
105,91,174213,1,8,0:0:0
24,64,174371,1,0,0:0:0
88,16,174529,1,0,0:0:0
168,36,174687,1,0,0:0:0
208,108,174845,2,0,B|252:128|300:116,1,80,8|0,0:0|0:0,0:0:0
348,60,175160,6,0,B|384:132,1,80
392,144,175634,5,0,0:0:0
400,156,175950,5,0,0:0:0
408,168,176266,6,0,B|440:216|440:216|388:244|388:304,1,160,4|0,0:0|0:0,0:0:0
472,292,176739,1,8,0:0:0
432,364,176897,6,0,B|416:344|416:344|396:360|396:360|384:340|384:340|336:360|300:332,1,160
244,272,177371,1,8,0:0:0
244,272,177529,1,0,0:0:0
176,328,177687,2,0,B|160:240|80:200,1,160,4|8,0:0|0:0,0:0:0
8,168,178160,1,0,0:0:0
80,124,178318,1,0,0:0:0
132,56,178476,1,0,0:0:0
132,56,178555,5,0,0:0:0
132,56,178634,1,8,0:0:0
168,128,178792,1,0,0:0:0
244,164,178950,1,0,0:0:0
328,144,179108,5,0,0:0:0
328,144,179187,1,0,0:0:0
328,144,179266,1,8,0:0:0
308,224,179423,1,0,0:0:0
344,296,179581,1,0,0:0:0
424,316,179739,1,0,0:0:0
496,272,179897,1,8,0:0:0
500,192,180055,1,0,0:0:0
456,128,180213,6,0,B|424:88,3,40
392,112,180529,6,0,B|360:72,3,40
332,96,180845,6,0,B|300:56,3,40
272,80,181160,6,0,B|240:40,3,40,0|0|4|0,0:0|0:0|0:0|0:0,0:0:0
216,64,181476,6,0,B|192:144,1,80,0|0,0:0|0:0,0:0:0
128,232,181792,6,8,B|208:256,1,80
296,320,182108,6,8,B|320:240,1,80
384,152,182423,6,8,B|304:128,1,80
228,104,182739,5,4,0:0:0
80,160,183055,5,0,0:0:0
32,260,183213,1,0,0:0:0
136,312,183371,1,0,0:0:0
184,212,183529,1,0,0:0:0
220,292,183845,6,0,B|256:364|256:364|288:292,1,160
328,212,184318,1,0,0:0:0
376,312,184476,1,0,0:0:0
480,260,184634,1,0,0:0:0
432,160,184792,1,0,0:0:0
384,64,184950,5,8,0:0:0
288,40,185108,2,0,B|240:104|152:88,1,150,4|0,0:0|0:0,0:0:0
116,80,185423,2,0,B|132:188,2,100,0|8|0,0:0|0:0|0:0,0:0:0
48,144,185897,5,0,0:0:0
130,178,186055,1,0,0:0:0
196,120,186213,1,8,0:0:0
280,96,186371,2,0,B|288:128|288:128|316:112|316:112|320:140|320:140|376:136|412:200,1,200
431,285,186845,2,0,B|439:235|406:191,1,100,8|0,0:0|0:0,0:0:0
379,365,187160,2,0,B|424:344|431:285,1,100
500,232,187476,1,8,0:0:0
500,232,187555,1,0,0:0:0
500,232,187634,1,0,0:0:0
468,152,187792,6,0,B|412:160|372:128,1,100
332,52,188108,2,0,B|292:88|232:84,1,100,8|0,0:0|0:0,0:0:0
168,44,188423,2,0,B|136:140,1,100
52,152,188739,2,0,B|60:208|112:224,1,100,8|0,0:0|0:0,0:0:0
200,204,189055,5,0,0:0:0
200,204,189134,1,0,0:0:0
200,204,189213,2,0,B|192:264|200:316,1,100,0|8,0:0|0:0,0:0:0
116,324,189529,2,0,B|122:284|114:224,2,100
28,280,190002,1,8,0:0:0
28,280,190160,1,0,0:0:0
40,364,190318,6,0,B|108:304|176:339|176:339|208:296,1,200,0|8,0:0|0:0,0:0:0
256,236,190792,1,0,0:0:0
305,297,190950,1,0,0:0:0
384,320,191108,2,0,B|396:260|452:228,1,100,0|8,0:0|0:0,0:0:0
480,168,191423,6,0,B|340:24,1,200,4|0,0:0|0:0,0:0:0
248,44,191897,2,0,B|319:119,1,100,8|0,0:0|0:0,0:0:0
288,200,192213,2,0,B|219:127,1,100
160,64,192529,1,8,0:0:0
160,64,192608,1,0,0:0:0
160,64,192687,1,0,0:0:0
160,64,192766,1,0,0:0:0
160,64,192845,6,0,B|152:120|84:132|84:132|72:176,1,150,4|0,0:0|0:0,0:0:0
64,208,193160,2,0,B|108:240|116:300,1,100,8|0,0:0|0:0,0:0:0
112,368,193476,1,0,0:0:0
112,368,193634,1,0,0:0:0
192,324,193792,1,8,0:0:0
204,236,193950,6,0,B|284:256|360:224,1,150
332,192,194266,2,0,B|372:160|432:168,1,100,0|8,0:0|0:0,0:0:0
500,180,194581,1,0,0:0:0
448,244,194739,1,0,0:0:0
448,244,194897,1,0,0:0:0
488,320,195055,1,8,0:0:0
408,352,195213,6,0,B|416:268|388:192,1,150
364,180,195529,2,0,B|360:120|364:76,2,100,0|8|0,0:0|0:0|0:0,0:0:0
440,128,196002,1,0,0:0:0
448,48,196160,1,0,0:0:0
363,80,196318,5,8,0:0:0
288,36,196476,2,0,B|228:120,1,100
152,80,196792,1,0,0:0:0
152,80,196871,1,0,0:0:0
152,80,196950,2,0,B|132:140|168:180,1,100,8|0,0:0|0:0,0:0:0
80,192,197266,2,0,B|80:252|44:288,1,100
148,256,197581,2,0,B|204:260|236:304,1,100,8|0,0:0|0:0,0:0:0
300,360,197897,6,0,B|500:336,2,200,0|8|0,0:0|0:0|0:0,0:0:0
320,276,198687,1,0,0:0:0
400,248,198845,2,0,B|432:200|428:152,1,100,8|0,0:0|0:0,0:0:0
376,36,199160,2,0,B|344:84|348:132,1,100
268,160,199476,1,8,0:0:0
204,92,199634,6,0,B|140:140|52:100|48:32,1,200
140,24,200108,1,8,0:0:0
140,24,200266,2,0,B|56:212,1,200,4|0,0:0|0:0,0:0:0
20,280,200739,5,8,0:0:0
20,280,200897,1,0,0:0:0
100,316,201055,1,0,0:0:0
100,316,201213,1,0,0:0:0
180,348,201371,1,8,0:0:0
180,348,201529,2,0,B|244:256|356:272,1,200
432,228,202002,6,0,B|476:124,1,100,8|0,0:0|0:0,0:0:0
404,68,202318,1,0,0:0:0
384,96,202397,1,0,0:0:0
352,108,202476,1,0,0:0:0
320,108,202555,1,0,0:0:0
288,92,202634,1,0,0:0:0
268,64,202713,1,0,0:0:0
260,32,202792,1,0,0:0:0
260,32,202871,1,0,0:0:0
260,32,202950,6,0,B|156:144,1,150,4|0,0:0|0:0,0:0:0
128,168,203266,2,0,B|128:112|112:68,1,100,8|0,0:0|0:0,0:0:0
40,132,203581,2,0,B|40:188|56:232,1,100
144,252,203897,1,8,0:0:0
144,252,204055,6,0,B|224:228|300:244,1,150,4|0,0:0|0:0,0:0:0
324,256,204371,2,0,B|424:236,1,100,0|8,0:0|0:0,0:0:0
448,152,204687,2,0,B|349:171,2,100
472,72,205160,1,8,0:0:0
388,88,205318,6,0,B|416:164|384:236,1,150,4|0,0:0|0:0,0:0:0
368,268,205634,2,0,B|352:320|364:368,2,100,0|8|0,0:0|0:0|0:0,0:0:0
444,320,206108,5,0,0:0:0
363,366,206266,1,0,0:0:0
288,312,206423,1,8,0:0:0
204,344,206581,2,0,B|208:312|208:312|176:312|176:312|196:280|196:280|160:248|160:192,1,200
203,107,207055,2,0,B|164:132|159:193,1,100,8|0,0:0|0:0,0:0:0
299,94,207371,2,0,B|252:76|204:108,1,100
264,192,207687,1,8,0:0:0
264,192,207766,1,0,0:0:0
264,192,207845,1,0,0:0:0
348,156,208002,6,0,B|364:100|416:80,1,100,4|0,0:0|0:0,0:0:0
436,172,208318,2,0,B|420:228|368:248,1,100,8|0,0:0|0:0,0:0:0
288,276,208634,2,0,B|232:296|216:360,1,100,4|0,0:0|0:0,0:0:0
140,308,208950,2,0,B|64:232,1,100,8|0,0:0|0:0,0:0:0
8,180,209266,5,0,0:0:0
8,180,209345,1,0,0:0:0
8,180,209423,2,0,B|48:136|56:76,1,100,0|8,0:0|0:0,0:0:0
168,56,209739,2,0,B|128:100|120:160,2,100
256,28,210213,1,8,0:0:0
328,88,210371,1,0,0:0:0
420,64,210529,6,0,B|432:172|472:260,2,200,0|8|0,0:0|0:0|0:0,0:0:0
328,88,211318,1,4,0:0:0
328,88,211476,1,12,0:0:0
300,176,211634,6,0,B|200:232|208:344,1,200,4|0,0:0|0:0,0:0:0
121,299,212108,2,0,B|176:296|207:340,1,100,8|0,0:0|0:0,0:0:0
296,360,212423,1,0,0:0:0
320,340,212502,1,0,0:0:0
344,320,212581,1,0,0:0:0
372,300,212660,1,0,0:0:0
396,280,212739,1,0,0:0:0
424,260,212818,1,0,0:0:0
448,240,212897,1,0,0:0:0
448,240,212976,1,0,0:0:0
448,240,213055,6,0,B|432:152|444:88,1,150,4|0,0:0|0:0,0:0:0
472,60,213371,2,0,B|416:68|360:44,1,100,8|0,0:0|0:0,0:0:0
368,128,213687,2,0,B|325:109|269:117,1,100
232,52,214002,1,8,0:0:0
232,52,214160,6,0,B|288:116|272:200,1,150,4|0,0:0|0:0,0:0:0
260,224,214476,2,0,B|240:276|180:292,1,100,0|8,0:0|0:0,0:0:0
100,272,214792,2,0,B|120:220|180:204,1,100
176,124,215108,1,0,0:0:0
92,96,215266,1,8,0:0:0
92,96,215423,6,0,B|40:152|32:240,1,150,4|0,0:0|0:0,0:0:0
36,268,215739,2,0,B|80:304|88:368,2,100,0|8|0,0:0|0:0|0:0,0:0:0
124,232,216213,1,0,0:0:0
164,312,216371,1,0,0:0:0
256,324,216529,1,8,0:0:0
332,272,216687,2,0,B|300:172|336:72,1,200
412,48,217160,6,0,B|420:100|384:144,1,100,8|0,0:0|0:0,0:0:0
256,108,217476,2,0,B|248:56|284:12,1,100
336,76,217792,6,0,B|344:128|308:172,1,100,8|0,0:0|0:0,0:0:0
232,184,218108,2,0,B|196:124|104:100|36:148,2,200,4|8|0,0:0|0:0|0:0,0:0:0
264,264,218897,1,0,0:0:0
344,224,219055,2,0,B|368:272|364:336,1,100,8|0,0:0|0:0,0:0:0
468,360,219371,2,0,B|444:312|448:248,1,100
448,180,219687,1,8,0:0:0
368,136,219845,6,0,B|268:164|168:136,1,200
92,96,220318,1,8,0:0:0
168,52,220476,6,0,B|180:164|144:260,1,200
248,244,220950,1,8,0:0:0
248,244,221108,1,0,0:0:0
332,304,221266,1,0,0:0:0
332,304,221423,1,0,0:0:0
428,280,221581,1,8,0:0:0
428,280,221739,6,0,B|424:232|424:232|456:220|456:220|440:192|440:192|464:164|456:108,1,200
440,80,222134,1,0,0:0:0
408,92,222213,2,0,B|380:92|360:76,3,50
340,48,222529,2,0,B|312:36|280:44,3,50
264,64,222845,2,0,B|260:132|188:176|112:140,1,200,0|4,0:0|0:0,0:0:0
256,192,223239,12,0,228213,0:0:0
