osu file format v14

[General]
AudioFilename: Hanatan - Kagerou Variation.mp3
AudioLeadIn: 0
PreviewTime: 58663
Countdown: 0
SampleSet: Soft
StackLeniency: 0.6
Mode: 0
LetterboxInBreaks: 0
WidescreenStoryboard: 1

[Editor]
DistanceSpacing: 2
BeatDivisor: 4
GridSize: 4
TimelineZoom: 1.6

[Metadata]
Title:Kagerou Variation
TitleUnicode:影炎≒Variation
Artist:Hanatan
ArtistUnicode:花たん
Creator:RLC
Version:Haze
Source:
Tags:skystar amamiya yuko vocaloid IA Yairi ユリカ YURiCa FLOWER Shadow-Haze amakura
BeatmapID:775513
BeatmapSetID:351629

[Difficulty]
HPDrainRate:7
CircleSize:4
OverallDifficulty:9
ApproachRate:9.6
SliderMultiplier:1.9
SliderTickRate:1

[Events]
//Background and Video events
0,0,"bg.jpg",0,0
//Break Periods
2,154023,161183
//Storyboard Layer 0 (Background)
//Storyboard Layer 1 (Fail)
//Storyboard Layer 2 (Pass)
//Storyboard Layer 3 (Foreground)
//Storyboard Sound Samples

[TimingPoints]
1044,387.096774193548,4,2,1,70,1,0
1044,-200,4,2,1,70,0,0
1431,451.127819548872,4,2,1,70,1,0
1431,-200,4,2,1,70,0,0
2784,428.571428571429,4,2,1,70,1,0
2784,-200,4,2,1,70,0,0
6212,434.782608695652,4,2,1,70,1,0
6212,-200,4,2,1,70,0,0
7951,-100,4,2,1,70,0,0
8250,245.901639344262,4,1,1,70,1,0
9233,-200,4,1,1,70,0,0
9725,-100,4,1,1,70,0,0
11692,-100,4,2,1,50,0,0
12061,-100,4,1,1,40,0,0
27799,-125,4,2,1,70,0,0
33700,-111.111111111111,4,1,1,70,0,0
34069,-100,4,1,1,70,0,0
34315,-90.9090909090909,4,1,1,70,0,0
34561,-83.3333333333333,4,1,1,70,0,0
34807,-76.9230769230769,4,1,1,70,0,0
35668,-125,4,2,1,70,0,0
42676,-200,4,1,1,70,0,0
43659,-83.3333333333333,4,1,1,70,0,1
44643,-133.333333333333,4,1,1,70,0,0
45627,-83.3333333333333,4,1,1,70,0,1
46610,-133.333333333333,4,1,1,70,0,0
47594,-83.3333333333333,4,1,1,70,0,1
48577,-133.333333333333,4,1,1,70,0,0
49561,-83.3333333333333,4,1,1,70,0,1
50545,-100,4,1,1,70,0,0
52512,-100,4,1,1,70,0,0
55463,-200,4,1,1,70,0,0
57491,-200,4,1,1,40,0,0
59397,-100,4,1,1,70,0,1
79069,-133.333333333333,4,1,1,70,0,1
80545,-200,4,1,1,70,0,1
82512,-100,4,2,1,50,0,1
82881,-100,4,1,1,40,0,0
98249,-200,4,1,1,70,0,0
98618,-125,4,2,1,70,0,0
101569,-100,4,2,1,70,0,0
102553,-125,4,2,1,70,0,0
104643,-100,4,1,1,70,0,1
106487,-125,4,2,1,70,0,0
107471,-100,4,2,1,70,0,0
108454,-125,4,2,1,70,0,0
109438,-100,4,2,1,70,0,0
110422,-125,4,2,1,70,0,0
111405,-100,4,2,1,70,0,0
113495,-133.333333333333,4,1,1,70,0,0
113987,-200,4,1,1,70,0,0
114479,-83.3333333333333,4,1,1,70,0,1
115463,-133.333333333333,4,1,1,70,0,0
115954,-100,4,1,1,70,0,0
116446,-83.3333333333333,4,1,1,70,0,1
117430,-133.333333333333,4,1,1,70,0,0
118413,-83.3333333333333,4,1,1,70,0,1
119397,-133.333333333333,4,1,1,70,0,0
119889,-100,4,1,1,70,0,0
120381,-83.3333333333333,4,1,1,70,0,1
121118,-100,4,1,1,70,0,1
121364,-100,4,1,1,70,0,0
121856,-133.333333333333,4,1,1,70,0,0
122348,-100,4,1,1,70,0,0
126282,-133.333333333333,4,1,1,70,0,0
128249,-100,4,1,1,70,0,1
129725,-200,4,1,1,70,0,1
130186,-100,4,1,1,40,0,0
130217,-100,4,1,1,70,0,1
151856,-100,4,1,1,40,0,0
161692,-125,4,1,1,60,0,1
161754,-125,4,1,1,60,0,0
163168,-83.3333333333333,4,1,1,60,0,0
163659,-125,4,1,1,60,0,0
165135,-83.3333333333333,4,1,1,60,0,0
165627,-125,4,1,1,60,0,0
167102,-83.3333333333333,4,1,1,60,0,0
167594,-125,4,1,1,60,0,0
169069,-83.3333333333333,4,1,1,60,0,0
170790,-125,4,1,1,60,0,0
172676,-83.3333333333333,4,1,1,60,0,0
177428,-83.3333333333333,4,1,1,60,0,0
180871,-125,4,1,1,60,0,0
181363,-83.3333333333333,4,1,1,60,0,0
184313,-100,4,1,1,60,0,0
185297,-133.333333333333,4,1,1,60,0,0
185790,-200,4,1,1,60,0,1
186281,-83.3333333333333,4,1,1,70,0,1
187266,-133.333333333333,4,1,1,70,0,0
188249,-83.3333333333333,4,1,1,70,0,1
189233,-133.333333333333,4,1,1,70,0,0
190217,-83.3333333333333,4,1,1,70,0,1
191200,-133.333333333333,4,1,1,70,0,0
192184,-83.3333333333333,4,1,1,70,0,1
193168,-133.333333333333,4,1,1,70,0,0
193658,-100,4,1,1,70,0,0
194027,-100,4,1,1,70,0,0
198209,-200,4,1,1,70,0,0
200053,-200,4,1,1,70,0,0
200422,-200,4,1,1,40,0,0
201528,-200,4,1,1,70,0,0
202020,-100,4,1,1,70,0,1
202081,-200,4,2,1,50,0,0
203986,-100,4,1,1,70,0,0
204049,-200,4,2,1,50,0,0
205954,-100,4,1,1,70,0,0
206016,-200,4,2,1,50,0,0
207430,-133.333333333333,4,1,1,70,0,0
207799,-100,4,1,1,70,0,1
209397,-100,4,1,1,70,0,0
209889,-100,4,1,1,70,0,1
217727,-100,4,1,1,70,0,0
217758,-100,4,1,1,70,0,1
223168,-100,4,1,1,70,0,0
223536,-100,4,1,1,70,0,1
225627,-83.3333333333333,4,1,1,70,0,1
233495,-100,4,1,1,70,0,1
235463,-133.333333333333,4,1,1,70,0,1
236446,-100,4,1,1,70,0,1
238905,-100,4,1,1,40,0,0
239889,245.901639344262,4,1,1,40,1,0
239889,-200,4,1,1,40,0,0
240872,-133.333333333333,4,1,1,40,0,0
242348,-66.6666666666667,4,1,1,40,0,0
242716,-133.333333333333,4,1,1,40,0,0
248864,-100,4,1,1,40,0,0
249602,-200,4,1,1,40,0,0
250093,-100,4,1,1,40,0,0

[Colours]
Combo1 : 0,170,170
Combo2 : 213,198,160
Combo3 : 170,190,170

[HitObjects]
74,225,1044,6,0,P|66:283|57:337,1,95
53,115,1882,1,2,0:0:0:0:
223,354,2333,1,0,0:0:0:0:
279,246,2784,2,0,L|383:238,2,95,0|0|2,0:0|0:0|0:0,0:0:0:0:
150,258,4069,1,0,0:0:0:0:
336,348,4498,6,0,P|344:290|335:244,1,95
382,56,5355,2,0,P|374:114|383:160,1,95,2|0,0:0|0:0,0:0:0:0:
459,104,5998,1,0,0:0:0:0:
450,202,6212,6,0,B|360:167|358:250|262:213,1,190,2|0,0:0|0:0,0:0:0:0:
267,215,7516,6,0,P|265:262|263:319,1,95,0|0,3:0|3:0,0:0:0:0:
263,309,8250,6,0,B|194:312|194:312|150:351|150:351|56:358,1,190,4|0,0:0|0:0,0:0:0:0:
94,123,8577,2,0,L|102:203,1,63.3333333333333
111,267,8741,1,8,0:0:0:0:
416,116,8987,1,0,0:0:0:0:
250,58,9233,6,0,L|265:212,1,142.5,0|0,0:0|2:0,0:0:0:0:
267,215,9725,6,0,B|264:183|249:152|249:152|273:105|273:105|248:73|249:15,1,190,4|0,0:0|0:0,0:0:0:0:
487,195,10094,6,0,P|431:182|375:203,1,95,4|0,0:0|0:0,0:0:0:0:
188,344,10340,1,0,0:0:0:0:
188,344,10401,1,0,0:0:0:0:
188,344,10463,2,0,P|265:372|362:295,1,190,8|8,0:0|0:0,0:0:0:0:
308,24,10831,2,0,L|298:118,1,95
260,276,11077,6,0,B|250:210|250:210|212:165|212:165|200:93,1,190
120,272,11446,1,0,0:0:0:0:
120,272,11508,1,0,0:0:0:0:
120,272,11569,2,0,L|180:260,1,47.5
352,355,11692,6,2,L|320:349,8,23.75
379,366,12061,6,0,L|389:263,1,95,4|0,0:0|0:0,0:0:0:0:
470,171,12307,1,0,0:0:0:0:
298,195,12430,2,0,L|289:290,1,95
474,148,12676,2,0,L|484:45,1,95,8|0,0:0|0:0,0:0:0:0:
491,271,12922,5,0,0:0:0:0:
334,112,13045,2,0,P|271:113|231:150,1,95,0|2,0:0|2:0,0:0:0:0:
196,195,13229,5,2,2:0:0:0:
179,191,13290,2,0,L|74:176,1,95
298,195,13536,1,2,0:2:0:0:
222,357,13659,1,8,0:0:0:0:
377,256,13782,2,0,L|482:241,1,95,2|0,0:2|0:0,0:0:0:0:
35,245,14028,6,0,L|44:356,1,95
15,137,14274,1,0,0:0:0:0:
203,160,14397,2,0,L|194:271,1,95
7,127,14643,2,0,L|16:238,1,95,8|0,0:0|0:0,0:0:0:0:
115,59,14889,5,8,0:0:0:0:
170,349,15012,2,0,P|231:342|264:313,1,95,8|2,0:0|0:2,0:0:0:0:
313,266,15196,5,2,0:2:0:0:
313,266,15258,1,0,0:0:0:0:
94,144,15504,5,2,0:2:0:0:
466,55,15749,5,2,0:2:0:0:
347,338,15995,6,0,L|234:325,1,95,4|0,0:2|0:0,0:0:0:0:
409,196,16241,1,0,0:0:0:0:
295,183,16364,2,0,L|406:195,1,95
466,55,16610,2,0,L|366:48,1,95,8|0,0:0|0:0,0:0:0:0:
475,272,16856,5,0,0:0:0:0:
222,240,16979,2,0,P|211:190|226:119,1,95,0|2,0:0|2:0,0:0:0:0:
193,128,17163,5,2,2:0:0:0:
193,128,17225,2,0,P|143:124|75:105,1,95
162,313,17471,2,0,P|190:271|240:222,1,95,2|8,0:2|0:0,0:0:0:0:
19,195,17717,2,0,P|40:240|58:308,1,95,2|0,0:2|0:0,0:0:0:0:
297,191,17963,5,8,0:0:0:0:
232,359,18086,1,0,0:0:0:0:
232,359,18147,1,0,0:0:0:0:
232,359,18209,1,8,0:0:0:0:
152,200,18331,1,8,0:0:0:0:
345,263,18454,1,0,0:0:0:0:
345,263,18516,1,0,0:0:0:0:
345,263,18577,2,0,P|401:272|452:281,1,95,12|0,0:2|0:0,0:0:0:0:
396,176,18823,1,12,0:2:0:0:
447,376,18946,6,0,P|449:312|484:186,1,190,0|2,0:0|0:2,0:0:0:0:
495,80,19315,2,0,P|439:89|377:95,1,95,0|2,0:0|0:2,0:0:0:0:
297,191,19499,1,0,0:0:0:0:
297,191,19561,2,0,L|304:136,1,47.5,10|0,0:2|2:0,0:0:0:0:
221,35,19684,2,0,L|226:89,1,47.5,2|0,0:2|2:0,0:0:0:0:
151,211,19807,2,0,L|157:153,1,47.5,2|0,0:2|2:0,0:0:0:0:
99,29,19930,1,4,0:2:0:0:
409,226,20176,5,0,0:0:0:0:
409,226,20299,2,0,L|422:117,1,95,8|0,0:0|0:0,0:0:0:0:
495,192,20545,1,0,0:0:0:0:
348,81,20668,1,0,0:0:0:0:
326,266,20790,1,8,0:0:0:0:
183,154,20913,6,0,L|346:170,1,142.5,0|2,0:0|2:0,0:0:0:0:
347,172,21159,2,0,B|334:126|334:126|352:68,1,95,4|8,0:2|0:0,0:0:0:0:
326,266,21405,2,0,B|339:312|339:312|321:370,1,95,4|0,0:2|0:0,0:0:0:0:
246,310,21651,5,2,0:2:0:0:
426,132,21774,1,10,0:2:0:0:
202,54,21897,1,4,0:2:0:0:
23,320,22143,5,0,0:0:0:0:
23,320,22266,2,0,L|136:308,1,95,8|0,0:0|0:0,0:0:0:0:
274,145,22512,1,0,0:0:0:0:
237,356,22635,1,0,0:0:0:0:
180,241,22758,1,8,0:0:0:0:
322,261,22881,6,0,L|161:239,1,142.5,0|2,0:0|2:0,0:0:0:0:
157,235,23127,2,0,L|170:165,2,47.5,0|0|8,3:0|3:0|0:0,0:0:0:0:
61,41,23372,2,0,L|69:100,1,47.5,0|0,3:0|3:0,0:0:0:0:
80,167,23495,1,8,0:0:0:0:
181,80,23618,1,0,3:0:0:0:
181,80,23680,1,0,3:0:0:0:
181,80,23741,1,8,0:0:0:0:
41,266,23864,6,0,B|60:124|60:124|83:175,1,190,4|0,0:2|0:0,0:0:0:0:
247,195,24233,2,0,L|349:183,1,95,8|0,0:0|0:0,0:0:0:0:
306,275,24479,1,0,0:0:0:0:
280,103,24602,1,0,0:0:0:0:
435,169,24725,1,8,0:0:0:0:
247,195,24848,6,0,B|199:201|199:201|160:226|160:226|97:237,1,142.5,0|2,0:0|2:0,0:0:0:0:
90,243,25094,2,0,L|185:252,1,95,4|8,0:2|0:0,0:0:0:0:
417,153,25340,2,0,L|322:161,1,95,4|0,0:2|0:0,0:0:0:0:
157,97,25586,5,2,0:2:0:0:
306,275,25709,1,10,0:2:0:0:
354,48,25831,1,4,0:2:0:0:
489,294,26077,5,0,0:0:0:0:
489,294,26200,2,0,L|381:279,1,95,8|0,0:0|0:0,0:0:0:0:
224,228,26446,1,0,0:0:0:0:
326,371,26569,1,0,0:0:0:0:
324,181,26692,1,8,0:0:0:0:
124,346,26815,2,0,L|232:331,1,95
306,275,27061,5,0,3:0:0:0:
194,161,27184,1,8,3:1:0:0:
348,112,27307,1,0,3:0:0:0:
182,253,27430,5,2,3:2:0:0:
178,265,27553,1,2,2:0:0:0:
173,276,27676,1,2,2:0:0:0:
318,199,27799,6,0,P|382:188|481:230,1,152,4|0,1:0|0:0,0:0:0:0:
166,288,28168,2,0,P|220:289|263:265,1,76,2|0,1:2|0:0,0:0:0:0:
348,112,28413,2,0,P|294:111|251:135,1,76,8|0,0:0|0:0,0:0:0:0:
206,206,28659,1,2,1:2:0:0:
117,212,28782,6,0,B|106:125|132:156|119:51,1,152
35,96,29151,1,2,3:2:0:0:
202,32,29274,2,0,P|209:79|210:125,1,76,0|8,0:0|0:0,0:0:0:0:
37,263,29520,2,0,P|30:216|29:170,1,76,0|2,0:0|0:2,0:0:0:0:
133,275,29766,6,0,B|210:259|198:313|298:290,1,152,0|0,1:0|1:0,0:0:0:0:
439,221,30135,2,0,P|385:219|344:239,1,76,2|0,0:2|0:0,0:0:0:0:
104,359,30381,2,0,P|158:361|199:341,1,76,8|0,0:0|0:0,0:0:0:0:
248,212,30627,5,2,3:2:0:0:
248,212,30749,1,0,3:0:0:0:
439,334,30995,1,2,3:2:0:0:
432,79,31241,1,2,3:2:0:0:
351,117,31364,2,0,P|303:126|265:128,1,76,8|2,0:0|3:2,0:0:0:0:
198,94,31610,1,0,0:0:0:0:
150,226,31733,6,0,P|95:238|9:191,1,152,4|0,1:2|1:0,0:0:0:0:
290,296,32102,2,0,P|233:294|192:313,1,76,2|0,0:2|0:0,0:0:0:0:
41,374,32348,2,0,P|84:374|123:355,1,76,8|0,0:0|0:0,0:0:0:0:
150,226,32594,1,2,1:2:0:0:
87,147,32717,2,0,P|80:87|153:14,1,152
135,19,33086,1,2,3:2:0:0:
135,19,33331,6,0,L|150:107,1,76,8|0,0:0|0:0,0:0:0:0:
150,226,33577,5,2,0:2:0:0:
26,169,33700,2,0,L|13:73,1,76,8|0,0:0|0:0,0:0:0:0:
303,78,33946,5,8,0:0:0:0:
442,190,34069,2,0,L|451:96,1,95,8|0,0:0|0:0,0:0:0:0:
454,77,34254,1,0,0:0:0:0:
456,58,34315,1,8,0:0:0:0:
380,338,34438,1,0,0:0:0:0:
144,256,34561,6,0,L|133:373,1,113.999996520996,8|2,0:0|0:2,0:0:0:0:
354,188,34807,6,0,L|376:321,1,123.499994346619,0|2,0:0|3:2,0:0:0:0:
257,92,35053,5,0,3:0:0:0:
257,92,35176,1,0,3:0:0:0:
198,23,35299,5,8,0:0:0:0:
223,177,35422,1,8,0:0:0:0:
345,79,35545,1,8,0:0:0:0:
166,110,35668,6,0,P|105:121|7:86,1,152,4|0,1:2|0:0,0:0:0:0:
223,177,36036,2,0,P|276:181|311:192,1,76,2|0,1:2|0:0,0:0:0:0:
74,262,36282,2,0,P|33:274|-4:273,1,76,8|0,0:0|0:0,0:0:0:0:
80,177,36528,1,2,1:2:0:0:
152,370,36651,6,0,B|140:279|171:321|153:217,1,152
69,344,37020,1,2,3:2:0:0:
240,261,37143,2,0,P|242:304|234:345,2,76,0|8|0,0:0|0:0|0:0,0:0:0:0:
223,177,37512,1,2,0:2:0:0:
338,290,37635,6,0,P|393:292|471:230,1,152,4|0,1:2|0:0,0:0:0:0:
478,157,38004,1,2,1:2:0:0:
309,366,38249,1,8,0:0:0:0:
281,102,38495,1,2,0:2:0:0:
223,177,38618,2,0,P|170:191|135:190,1,76,0|0,3:0|0:0,0:0:0:0:
76,130,38864,1,0,3:0:0:0:
76,130,38987,1,2,3:2:0:0:
62,366,39233,6,0,P|105:352|164:349,1,76,8|0,0:0|3:0,0:0:0:0:
225,355,39479,1,2,0:2:0:0:
62,366,39602,6,0,P|52:317|66:212,1,152,4|0,1:2|0:0,0:0:0:0:
155,91,39971,2,0,P|160:137|152:177,1,76,2|0,1:2|0:0,0:0:0:0:
76,130,40217,1,8,0:0:0:0:
139,256,40340,2,0,P|184:251|222:236,1,76,0|2,0:0|0:2,0:0:0:0:
304,234,40586,6,0,P|375:241|431:316,1,152,0|0,3:0|3:0,0:0:0:0:
212,240,40954,2,0,P|223:188|249:156,1,76,2|0,3:2|0:0,0:0:0:0:
254,339,41200,1,8,0:0:0:0:
144,318,41323,2,0,P|126:276|126:230,1,76,0|2,3:0|0:2,0:0:0:0:
106,136,41569,6,0,L|28:126,2,76,4|0|0,1:2|0:0|0:0,0:0:0:0:
190,100,41938,1,2,1:2:0:0:
262,155,42061,1,0,0:0:0:0:
341,110,42184,2,0,P|338:70|337:23,1,76,8|0,0:0|0:0,0:0:0:0:
427,169,42430,2,0,P|430:129|431:82,1,76,2|0,0:2|1:0,0:0:0:0:
357,211,42676,5,0,0:0:0:0:
357,211,42737,1,0,0:0:0:0:
357,211,42799,2,0,L|361:251,1,23.75
413,335,42922,1,0,0:0:0:0:
413,335,42983,1,0,0:0:0:0:
413,335,43045,2,0,L|417:295,1,23.75
460,269,43168,6,0,L|302:285,1,142.5,12|2,0:2|2:0,0:0:0:0:
54,110,43659,6,2,B|138:80|138:80|182:142|147:221,1,227.999993041992,6|2,0:0|2:1,0:0:0:0:
281,349,44028,2,2,B|221:275|271:187|271:187|315:240,1,227.999993041992,2|2,0:0|2:1,0:0:0:0:
490,39,44397,2,2,B|326:78|326:78|380:141,1,227.999993041992,2|2,0:0|2:1,0:0:0:0:
162,358,44766,6,2,L|181:212,1,142.500005435944,2|0,0:0|2:0,0:0:0:0:
105,151,45135,5,8,0:0:0:0:
281,151,45258,1,8,0:0:0:0:
96,127,45381,5,8,0:0:0:0:
268,174,45504,1,8,0:0:0:0:
85,105,45627,6,2,B|57:277|57:277|114:239,1,227.999993041992,6|2,0:0|2:1,0:0:0:0:
315,351,45995,2,2,B|343:274|287:235|287:235|191:289,1,227.999993041992,2|2,0:0|2:1,0:0:0:0:
145,31,46364,2,2,B|186:35|219:66|219:66|286:38|286:38|335:62|385:60,1,227.999993041992,2|2,0:0|2:1,0:0:0:0:
385,163,46733,6,2,B|292:134|292:134|218:163,1,142.500005435944,2|0,0:0|3:1,0:0:0:0:
219,163,47040,1,0,3:0:0:0:
219,163,47102,1,0,3:0:0:0:
278,284,47225,5,0,3:0:0:0:
383,267,47348,1,0,3:0:0:0:
489,250,47471,1,0,3:0:0:0:
272,374,47594,6,2,B|195:400|160:332|160:332|181:228,1,227.999993041992,6|2,0:0|3:1,0:0:0:0:
69,36,47963,2,2,B|122:112|122:112|86:259,1,227.999993041992,2|2,0:0|3:1,0:0:0:0:
362,116,48331,2,2,B|282:139|213:76|213:76|223:112|211:144,1,227.999993041992,2|2,0:0|3:1,0:0:0:0:
114,371,48700,5,2,0:0:0:0:
33,126,48823,2,2,L|137:114,1,71.2500027179719,0|2,0:0|0:0,0:0:0:0:
223,200,49008,1,0,0:0:0:0:
223,200,49069,2,0,L|171:196,1,47.5000018119813,8|8,0:0|0:0,0:0:0:0:
37,238,49233,2,0,L|29:304,1,47.5000018119813,8|8,0:0|0:0,0:0:0:0:
221,293,49397,2,0,L|224:353,1,47.5000018119813,8|8,0:0|0:0,0:0:0:0:
114,371,49561,6,2,B|130:208|130:208|148:287,1,227.999993041992,6|2,0:0|3:1,0:0:0:0:
308,155,49930,2,2,B|175:204|217:85|86:133,1,227.999993041992,2|2,0:0|3:1,0:0:0:0:
94,131,50237,1,0,0:0:0:0:
94,131,50299,5,10,0:0:0:0:
234,252,50422,1,2,0:0:0:0:
263,73,50545,1,0,0:0:0:0:
130,208,50668,5,10,0:0:0:0:
308,155,50790,1,0,0:0:0:0:
173,20,50913,1,2,0:0:0:0:
356,65,51036,5,8,0:0:0:0:
220,158,51159,1,8,0:0:0:0:
416,200,51282,1,8,0:0:0:0:
205,161,51405,1,8,0:0:0:0:
350,335,51528,1,6,0:0:0:0:
350,335,51774,5,0,0:0:0:0:
193,165,51897,1,2,0:0:0:0:
152,345,52020,1,8,0:0:0:0:
277,98,52143,1,2,0:0:0:0:
42,83,52266,1,2,0:0:0:0:
42,83,52512,6,0,L|142:97,1,95
339,316,52758,2,2,P|279:318|235:289,1,95,0|2,0:0|0:0,0:0:0:0:
182,260,52942,1,0,0:0:0:0:
182,260,53004,2,0,L|194:162,1,95,8|0,3:1|3:0,0:0:0:0:
212,32,53249,1,2,3:2:0:0:
300,218,53372,1,2,3:2:0:0:
91,122,53495,6,2,P|44:165|78:285,1,190,6|2,0:0|0:0,0:0:0:0:
264,313,53864,1,0,0:0:0:0:
264,313,53926,1,0,0:0:0:0:
264,313,53987,1,10,0:0:0:0:
182,131,54110,1,0,0:0:0:0:
170,349,54233,1,2,0:0:0:0:
352,281,54356,1,0,0:0:0:0:
218,218,54479,6,0,P|162:212|119:205,1,95
440,246,54725,2,2,P|447:302|424:357,1,95,0|2,0:0|0:0,0:0:0:0:
355,366,54909,1,0,0:0:0:0:
355,366,54971,1,8,3:1:0:0:
453,151,55094,1,0,3:0:0:0:
435,338,55217,1,2,3:2:0:0:
294,209,55340,1,2,3:2:0:0:
512,297,55463,5,0,0:0:0:0:
512,297,55586,1,0,0:0:0:0:
440,247,55709,2,2,L|429:148,1,95,0|2,2:1|2:1,0:0:0:0:
0,297,56200,5,0,0:0:0:0:
0,297,56323,1,0,0:0:0:0:
72,247,56446,2,2,L|83:148,1,95,0|2,2:1|2:1,0:0:0:0:
256,136,56938,5,0,0:0:0:0:
256,348,57184,1,0,0:0:0:0:
440,80,57430,5,0,0:0:0:0:
344,196,57676,1,2,2:1:0:0:
348,44,57922,1,2,2:1:0:0:
436,168,58168,1,2,2:1:0:0:
436,168,58290,1,2,2:1:0:0:
288,112,58536,1,2,2:1:0:0:
288,112,58659,2,2,L|188:96,2,95,0|0|2,2:1|2:1|2:2,2:1:0:0:
460,280,59397,6,2,P|416:336|284:324,1,190,6|10,0:0|0:0,0:0:0:0:
35,129,59766,2,0,P|83:109|143:121,1,95,2|0,0:2|0:0,0:0:0:0:
212,365,60012,5,2,0:2:0:0:
212,365,60073,1,0,0:0:0:0:
212,365,60135,2,2,B|204:306|204:306|231:243|231:243|220:169,1,190,10|2,0:1|0:0,0:0:0:0:
304,35,60504,1,2,3:2:0:0:
304,35,60565,1,2,3:2:0:0:
304,35,60627,2,0,B|293:82|293:82|306:140,1,95,10|2,0:1|0:2,0:0:0:0:
328,241,60872,1,0,3:0:0:0:
407,65,60995,1,2,3:2:0:0:
208,123,61118,1,8,0:1:0:0:
208,123,61364,6,2,P|147:138|40:58,1,190,6|10,0:0|0:0,0:0:0:0:
35,333,61733,2,0,P|82:313|138:306,1,95,0|0,0:2|0:0,0:0:0:0:
318,130,61979,1,2,0:2:0:0:
349,329,62102,2,2,P|289:323|247:300,1,95,8|2,0:2|0:2,0:0:0:0:
137,173,62348,5,2,3:1:0:0:
137,173,62430,2,0,L|148:241,1,63.3333333333333,0|0,3:0|3:0,0:0:0:0:
171,340,62594,1,10,0:1:0:0:
39,198,62717,1,2,3:2:0:0:
238,111,62840,1,0,3:0:0:0:
238,111,62922,2,0,L|229:208,1,63.3333333333333,0|0,3:0|3:0,0:0:0:0:
171,340,63086,1,8,0:0:0:0:
171,340,63331,6,2,P|238:349|330:263,1,190,6|10,0:0|0:0,0:0:0:0:
439,122,63700,2,0,P|457:189|450:229,1,95,0|0,0:2|0:0,0:0:0:0:
369,376,63946,5,2,0:2:0:0:
369,376,64008,1,0,0:0:0:0:
369,376,64069,2,2,L|355:182,1,190,10|2,0:0|0:0,0:0:0:0:
296,108,64438,1,2,3:2:0:0:
296,108,64499,1,2,3:2:0:0:
296,108,64561,1,10,0:0:0:0:
454,213,64684,1,2,3:2:0:0:
269,327,64807,1,2,3:2:0:0:
482,307,64930,1,2,3:2:0:0:
281,212,65053,1,10,0:2:0:0:
468,79,65176,6,2,B|416:69|416:69|351:117|351:117|284:106,1,190,6|0,0:0|0:2,0:0:0:0:
189,39,65483,1,2,0:2:0:0:
177,31,65545,2,0,L|187:137,1,95,12|2,0:2|0:2,0:0:0:0:
372,207,65729,1,0,0:0:0:0:
384,199,65791,2,0,L|374:305,1,95,12|2,0:2|0:2,0:0:0:0:
146,245,65975,1,2,0:2:0:0:
134,237,66037,2,0,L|144:343,1,95,12|2,0:2|0:2,0:0:0:0:
52,173,66221,1,0,0:0:0:0:
44,160,66282,5,0,3:0:0:0:
92,118,66364,1,0,3:0:0:0:
155,118,66446,1,0,3:0:0:0:
201,160,66528,1,0,3:0:0:0:
241,208,66610,1,0,3:0:0:0:
304,211,66692,1,0,3:0:0:0:
349,167,66774,6,0,L|364:43,1,95,0|2,3:0|2:0,0:0:0:0:
270,103,67020,1,8,0:0:0:0:
450,136,67143,1,8,0:0:0:0:
484,298,67266,6,2,P|420:264|318:338,1,190,6|10,0:0|0:0,0:0:0:0:
209,364,67635,1,2,0:2:0:0:
270,103,67758,2,0,P|285:162|282:200,1,95,2|2,0:0|0:2,0:0:0:0:
148,266,68004,1,0,0:0:0:0:
24,129,68127,6,2,P|81:105|189:168,1,190,10|2,0:0|3:1,0:0:0:0:
186,162,68434,1,2,3:2:0:0:
186,162,68495,1,8,0:0:0:0:
49,301,68618,2,0,L|-8:315,2,47.5,2|0|8,3:2|3:0|0:0,0:0:0:0:
246,259,68864,1,2,3:2:0:0:
246,259,68926,1,2,3:2:0:0:
246,259,68987,1,8,0:0:0:0:
91,185,69110,1,10,0:2:0:0:
270,103,69233,6,2,L|374:86,1,95,4|2,0:0|0:1,0:0:0:0:
457,70,69479,1,8,0:0:0:0:
186,162,69602,2,2,P|175:122|174:61,1,95,2|0,0:2|0:0,0:0:0:0:
308,2,69848,1,2,0:2:0:0:
340,188,69971,1,0,0:0:0:0:
173,68,70094,6,2,P|106:55|26:157,1,190,10|2,0:0|0:0,0:0:0:0:
89,380,70463,2,0,P|98:328|107:272,1,95,8|2,0:0|0:2,0:0:0:0:
104,267,70647,1,0,0:0:0:0:
101,248,70709,5,0,3:0:0:0:
157,220,70790,1,0,3:0:0:0:
216,241,70872,1,0,3:0:0:0:
247,295,70954,1,0,3:0:0:0:
281,348,71036,1,0,3:0:0:0:
344,354,71118,1,0,3:0:0:0:
396,319,71200,6,2,L|504:306,1,95,6|2,0:0|0:2,0:0:0:0:
160,320,71446,1,8,0:0:0:0:
338,165,71569,2,0,P|336:230|324:282,1,95,2|0,0:2|0:0,0:0:0:0:
315,76,71815,5,2,0:2:0:0:
428,200,71938,1,2,0:2:0:0:
460,32,72061,1,10,0:1:0:0:
330,259,72184,5,0,0:0:0:0:
240,116,72307,1,2,0:2:0:0:
400,108,72430,1,10,0:1:0:0:
260,205,72553,5,2,3:2:0:0:
260,205,72614,1,0,3:0:0:0:
260,205,72676,2,0,L|199:232,1,63.3333333333333,0|0,3:0|3:0,0:0:0:0:
145,117,72840,2,0,L|198:156,1,63.3333333333333,0|0,3:0|3:0,0:0:0:0:
120,264,73004,2,0,L|127:197,1,63.3333333333333,0|0,3:0|3:0,0:0:0:0:
58,90,73168,6,2,P|23:136|50:236,1,142.5,6|2,0:0|0:2,0:0:0:0:
32,216,73413,2,2,L|138:198,1,95,8|2,0:0|0:2,0:0:0:0:
262,382,73659,1,0,0:0:0:0:
262,382,73721,1,0,0:0:0:0:
262,382,73782,2,2,P|279:336|277:287,1,95,8|10,0:2|0:0,0:0:0:0:
145,117,74028,6,0,L|149:173,1,47.5,2|0,3:2|3:0,0:0:0:0:
157,254,74151,1,12,0:2:0:0:
58,90,74274,2,0,L|0:100,2,47.5,2|0|12,3:2|3:0|0:2,0:0:0:0:
235,130,74520,5,0,3:0:0:0:
235,130,74581,1,0,3:0:0:0:
235,130,74643,2,0,L|300:138,1,47.5,4|0,3:2|3:0,0:0:0:0:
79,210,74766,2,0,L|14:218,1,47.5,0|0,3:0|3:0,0:0:0:0:
108,361,74889,6,0,L|111:313,1,47.5,12|0,0:2|0:0,0:0:0:0:
232,220,75012,2,0,L|236:267,1,47.5,8|0,0:0|0:0,0:0:0:0:
329,328,75135,6,2,P|385:338|454:289,1,142.5,6|2,0:0|0:0,0:0:0:0:
452,291,75381,2,0,L|441:182,1,95,8|2,0:0|0:2,0:0:0:0:
323,62,75627,1,0,0:0:0:0:
279,244,75749,1,2,0:2:0:0:
442,196,75872,1,8,0:0:0:0:
206,189,75995,6,0,P|151:184|94:172,1,95,6|0,0:0|0:0,0:0:0:0:
96,310,76241,1,2,3:2:0:0:
279,244,76364,2,0,P|310:198|349:155,1,95,10|2,0:0|3:2,0:0:0:0:
191,285,76610,2,0,P|214:335|232:390,1,95,0|2,3:0|3:2,0:0:0:0:
372,257,76856,1,8,0:0:0:0:
249,121,76979,1,8,0:0:0:0:
391,43,77102,6,2,P|457:106|441:195,1,190,6|10,0:0|0:0,0:0:0:0:
344,365,77471,1,2,0:2:0:0:
279,244,77594,2,2,L|286:134,1,95,0|2,0:0|0:0,0:0:0:0:
453,101,77840,1,8,0:0:0:0:
374,268,77963,6,2,B|267:247|298:327|175:302,1,190,6|2,0:0|3:1,0:0:0:0:
52,157,78331,1,10,0:0:0:0:
89,368,78454,1,2,3:2:0:0:
229,208,78577,5,0,3:1:0:0:
213,146,78659,1,0,3:0:0:0:
160,110,78741,1,0,3:0:0:0:
96,111,78823,1,0,3:0:0:0:
52,157,78905,1,0,3:0:0:0:
45,220,78987,1,0,3:0:0:0:
79,273,79069,6,0,L|216:262,1,106.875004076958,0|0,3:0|2:0,0:0:0:0:
255,305,79315,2,0,L|246:372,2,47.5000018119813,0|0|0,3:0|3:0|3:0,0:0:0:0:
311,225,79561,1,0,3:0:0:0:
15,83,79807,1,0,3:0:0:0:
426,43,80053,1,2,0:2:0:0:
426,43,80545,6,2,L|437:143,1,95,2|2,0:0|2:1,0:0:0:0:
483,205,80913,1,4,0:0:0:0:
256,192,81036,12,0,82389,2:0:0:0:
325,93,82512,6,2,L|331:61,8,23.75
319,114,82881,6,0,P|365:111|424:104,1,95,4|0,0:0|0:0,0:0:0:0:
376,224,83127,1,0,0:0:0:0:
493,169,83249,2,0,P|495:215|503:274,1,95
268,288,83495,2,0,P|265:241|258:183,1,95,8|0,0:0|0:0,0:0:0:0:
376,224,83741,1,0,0:0:0:0:
443,341,83864,2,0,P|396:343|338:351,1,95,0|2,0:0|2:0,0:0:0:0:
273,378,84049,5,2,2:0:0:0:
273,378,84110,2,0,P|211:369|173:333,1,95
143,99,84356,1,2,0:2:0:0:
89,342,84479,1,8,0:0:0:0:
0,186,84602,2,0,P|45:163|102:170,1,95,2|0,0:2|0:0,0:0:0:0:
224,246,84848,6,0,P|232:193|241:130,1,95
320,206,85094,1,0,0:0:0:0:
392,276,85217,2,0,P|342:295|283:319,1,95
334,109,85463,2,0,P|375:142|425:181,1,95,8|0,0:0|0:0,0:0:0:0:
496,234,85709,5,8,0:0:0:0:
342,22,85831,2,0,P|283:31|249:72,1,95,8|2,0:0|0:2,0:0:0:0:
209,119,86016,5,2,0:2:0:0:
209,119,86077,1,0,0:0:0:0:
496,234,86323,5,2,0:2:0:0:
11,370,86568,5,2,0:2:0:0:
88,166,86815,6,0,L|74:59,1,95,4|0,0:2|0:0,0:0:0:0:
48,287,87061,1,0,0:0:0:0:
254,209,87184,2,0,L|268:316,1,95
190,100,87430,2,0,L|297:86,1,95,8|0,0:0|0:0,0:0:0:0:
75,71,87676,1,0,0:0:0:0:
143,275,87799,2,0,L|36:289,1,95,0|2,0:0|2:0,0:0:0:0:
48,287,87983,1,2,2:0:0:0:
48,287,88045,5,0,0:0:0:0:
170,189,88168,1,0,0:0:0:0:
188,353,88290,5,2,0:2:0:0:
87,205,88413,1,8,0:0:0:0:
229,265,88536,5,2,0:2:0:0:
103,354,88659,1,0,0:0:0:0:
321,292,88782,6,0,L|329:191,1,95,8|0,0:0|0:0,0:0:0:0:
335,123,88967,1,0,0:0:0:0:
337,106,89028,1,8,0:0:0:0:
509,337,89151,2,0,L|501:236,1,95,8|0,0:0|0:0,0:0:0:0:
495,168,89336,1,0,0:0:0:0:
493,151,89397,2,0,P|441:151|391:174,1,95,12|0,0:2|0:0,0:0:0:0:
321,292,89643,1,12,0:2:0:0:
210,74,89766,6,0,B|321:40|279:118|409:67,1,190
339,6,90135,1,0,0:0:0:0:
254,153,90258,1,0,0:0:0:0:
254,153,90319,1,0,0:0:0:0:
254,153,90381,2,0,L|260:222,1,47.5,10|0,0:2|2:0,0:0:0:0:
379,209,90504,2,0,L|369:281,1,47.5,2|0,0:2|2:0,0:0:0:0:
228,296,90627,2,0,L|245:359,1,47.5,2|0,0:2|2:0,0:0:0:0:
326,367,90749,1,4,0:2:0:0:
72,100,90995,5,0,0:0:0:0:
72,100,91118,2,0,B|91:144|91:144|80:202,1,95,8|0,0:0|0:0,0:0:0:0:
0,151,91364,1,0,0:0:0:0:
163,228,91487,1,0,0:0:0:0:
152,56,91610,1,8,0:0:0:0:
301,134,91733,6,0,B|246:143|246:143|216:133|216:133|147:143,1,142.5,0|2,0:0|2:0,0:0:0:0:
148,155,91979,2,0,B|134:128|134:128|148:55,1,95,4|8,0:2|0:0,0:0:0:0:
94,270,92225,2,0,B|108:297|108:297|94:370,1,95,4|0,0:2|0:0,0:0:0:0:
40,181,92471,5,2,0:2:0:0:
261,219,92594,1,10,0:2:0:0:
27,180,92717,1,4,0:2:0:0:
410,130,92963,5,0,0:0:0:0:
410,130,93086,2,0,L|431:245,1,95,8|0,0:0|0:0,0:0:0:0:
255,307,93331,1,0,0:0:0:0:
428,324,93454,1,0,0:0:0:0:
341,237,93577,1,8,0:0:0:0:
331,373,93700,6,0,B|356:317|356:317|339:220,1,142.5,0|2,0:0|2:0,0:0:0:0:
335,146,93946,2,0,L|342:81,2,47.5,0|0|8,3:0|3:0|3:1,0:0:0:0:
219,201,94192,2,0,L|290:192,1,47.5,0|0,3:0|3:0,0:0:0:0:
414,180,94315,1,8,0:0:0:0:
253,86,94438,1,0,3:0:0:0:
253,86,94499,1,0,3:0:0:0:
253,86,94561,1,8,0:0:0:0:
38,295,94684,6,0,B|61:343|61:343|75:184,1,190,4|0,0:2|0:0,0:0:0:0:
145,47,95053,2,0,P|157:101|141:146,1,95,8|0,0:0|0:0,0:0:0:0:
66,88,95299,1,0,0:0:0:0:
159,241,95422,1,0,0:0:0:0:
261,113,95545,1,8,0:0:0:0:
266,274,95668,6,0,P|239:220|254:133,1,142.5,0|2,0:0|2:0,0:0:0:0:
261,113,95913,2,0,L|154:124,1,95,4|8,0:2|0:0,0:0:0:0:
42,265,96159,2,0,L|149:254,1,95,4|0,0:2|0:0,0:0:0:0:
375,238,96405,5,2,0:2:0:0:
159,241,96528,1,10,0:2:0:0:
394,254,96651,1,4,0:2:0:0:
176,103,96897,5,0,0:0:0:0:
176,103,97020,2,0,P|184:54|168:2,1,95,8|0,0:0|0:0,0:0:0:0:
137,262,97266,2,0,P|129:311|145:363,1,95
94,61,97512,1,8,3:2:0:0:
34,167,97635,6,0,B|137:145|104:224|219:188,1,190
176,103,98004,1,8,0:0:0:0:
57,252,98127,1,0,0:0:0:0:
216,190,98249,6,0,L|311:192,1,95,0|2,3:0|2:0,0:0:0:0:
431,164,98618,5,4,1:0:0:0:
431,164,98864,2,2,P|432:217|430:260,1,76,0|2,2:0|1:1,1:0:0:0:
297,117,99110,1,0,0:0:0:0:
258,306,99233,2,2,P|253:262|254:216,1,76,8|2,2:0|2:1,1:0:0:0:
343,200,99479,5,2,1:2:0:0:
343,200,99602,2,0,B|328:297|356:266|342:370,1,152,2|0,0:1|0:0,0:0:0:0:
344,351,99971,1,2,3:2:0:0:
75,269,100217,1,8,0:0:0:0:
140,327,100340,2,0,P|194:325|224:308,1,76,0|2,0:0|0:2,0:0:0:0:
256,243,100586,1,0,1:0:0:0:
256,243,100831,5,0,1:0:0:0:
431,194,100954,2,0,P|437:238|436:275,1,76,2|0,0:1|0:0,0:0:0:0:
75,269,101200,2,2,P|75:231|81:194,1,76,8|2,2:0|2:1,1:0:0:0:
256,88,101446,1,2,1:2:0:0:
114,97,101569,6,0,L|7:53,1,95,2|0,3:1|2:0,0:0:0:0:
327,212,101815,2,0,L|362:322,1,95,2|0,3:1|2:0,0:0:0:0:
185,212,102061,2,0,L|150:322,1,95,2|8,3:1|2:0,0:0:0:0:
398,97,102307,2,0,L|505:53,1,95,2|0,3:1|2:0,0:0:0:0:
438,366,102553,5,4,1:2:0:0:
438,366,102799,1,0,1:0:0:0:
487,279,102922,2,0,P|490:241|483:204,1,76,2|0,0:1|0:0,0:0:0:0:
396,252,103168,1,8,0:0:0:0:
402,159,103290,2,0,P|401:125|419:77,1,76,2|2,0:1|1:2,0:0:0:0:
473,26,103536,2,0,P|428:58|310:70,1,152,2|0,0:1|0:0,0:0:0:0:
256,44,103905,1,2,3:2:0:0:
63,172,104151,6,0,P|112:155|150:159,1,76,8|0,0:0|0:0,0:0:0:0:
217,178,104397,1,2,0:2:0:0:
137,349,104520,6,2,L|142:260,1,76,8|0,0:1|0:1,0:1:0:0:
412,121,104766,1,8,0:0:0:0:
370,311,104889,6,0,L|358:206,1,95,10|0,0:1|0:0,0:0:0:0:
356,197,105073,1,0,0:0:0:0:
353,177,105135,1,10,0:1:0:0:
73,228,105258,5,2,0:1:0:0:
142,53,105381,2,0,L|133:177,1,95,8|2,0:0|3:2,0:0:0:0:
370,311,105627,5,0,3:0:0:0:
197,212,105749,1,2,3:2:0:0:
315,212,105872,5,2,3:2:0:0:
142,311,105994,1,2,3:2:0:0:
376,132,106118,5,10,0:1:0:0:
256,364,106241,1,8,0:0:0:0:
136,132,106364,1,8,0:0:0:0:
315,212,106487,6,0,P|368:226|468:185,1,152,4|0,1:2|0:0,0:0:0:0:
271,278,106856,2,0,P|233:279|198:294,1,76,2|0,1:2|0:0,0:0:0:0:
79,191,107102,2,0,P|143:213|179:209,1,76,8|0,0:0|0:0,0:0:0:0:
233,168,107348,1,2,1:2:0:0:
108,310,107471,6,0,P|60:305|13:303,1,95,2|2,0:2|0:2,0:0:0:0:
109,34,107717,1,2,0:2:0:0:
219,76,107840,2,0,P|266:80|313:82,1,95,2|2,3:2|0:2,0:0:0:0:
377,235,108086,1,10,0:2:0:0:
217,186,108209,2,0,P|212:233|210:280,1,95,2|2,0:2|0:2,0:0:0:0:
474,201,108454,6,0,P|484:147|431:37,1,152,4|0,1:2|0:0,0:0:0:0:
311,170,108823,2,0,P|349:150|404:144,1,76,2|0,1:2|0:0,0:0:0:0:
230,222,109069,2,0,P|184:219|142:204,1,76,8|0,0:0|0:0,0:0:0:0:
319,269,109315,1,2,0:2:0:0:
248,108,109438,6,0,P|244:64|240:10,1,95,2|2,3:2|0:2,0:2:0:0:
246,244,109684,1,2,3:2:0:0:
76,190,109807,2,0,P|80:234|84:288,1,95,2|2,3:2|0:2,0:2:0:0:
156,141,110053,1,10,0:2:0:0:
21,62,110176,2,0,L|68:58|115:54,1,95,2|2,3:2|0:2,0:2:0:0:
165,290,110422,6,0,B|156:234|156:234|167:197|167:197|156:141,1,152,4|0,1:2|0:0,0:0:0:0:
319,237,110790,2,0,B|280:252|280:252|246:244,1,76,2|0,1:2|0:0,0:0:0:0:
4,198,111036,2,0,B|42:182|42:182|76:190,1,76,8|0,0:0|0:0,0:0:0:0:
275,163,111282,1,2,0:2:0:0:
71,304,111405,6,0,P|117:294|164:289,1,95,2|2,3:2|0:2,0:2:0:0:
216,52,111651,1,2,3:2:0:0:
411,98,111774,2,0,P|364:107|317:112,1,95,2|2,3:2|0:2,0:2:0:0:
181,122,112020,1,10,0:2:0:0:
319,237,112143,1,2,3:2:0:0:
164,289,112266,1,2,0:2:0:0:
317,111,112389,6,0,L|327:59,2,47.5,4|0|0,3:2|3:0|1:2,0:0:0:0:
272,321,112635,1,0,1:0:0:0:
108,200,112758,6,0,L|216:207,1,95,4|0,1:2|1:0,0:0:0:0:
424,44,113004,2,0,L|316:51,1,95,8|0,1:0|1:0,0:0:0:0:
224,54,113249,5,4,1:2:0:0:
318,219,113372,1,0,1:0:0:0:
151,102,113495,5,0,0:0:0:0:
151,102,113557,1,0,0:0:0:0:
151,102,113618,2,0,L|112:105,1,35.625001358986
84,263,113741,1,4,0:2:0:0:
84,263,113803,1,0,0:0:0:0:
84,263,113864,2,0,L|45:266,1,35.625001358986
30,190,113987,6,0,L|182:175,1,142.5,12|2,0:2|2:0,0:0:0:0:
455,66,114479,6,0,B|400:89|338:57|338:57|302:117|337:176,1,227.999993041992,4|0,3:1|2:1,0:0:0:0:
254,368,114848,2,0,B|301:288|236:204|236:204|226:280,1,227.999993041992,4|0,3:1|2:1,0:0:0:0:
26,100,115217,2,0,B|99:91|153:149|153:149|176:109|232:103,1,227.999993041992,4|0,3:1|3:1,0:0:0:0:
362,245,115586,6,2,P|320:208|216:214,1,142.500005435944
180,266,115893,5,0,0:0:0:0:
180,266,115955,2,0,L|176:313,1,47.5,2|0,0:0|2:0,0:0:0:0:
25,172,116077,2,0,L|20:219,1,47.5,2|0,0:0|2:0,0:0:0:0:
284,198,116201,6,0,L|277:245,1,47.5,2|0,0:0|2:0,0:0:0:0:
129,104,116324,2,0,L|123:151,1,47.5,0|0,0:0|2:0,0:0:0:0:
224,116,116446,6,0,B|298:129|348:69|348:69|384:107|363:167,1,227.999993041992,4|0,3:1|2:0,0:0:0:0:
433,369,116815,2,0,B|407:309|430:219|430:219|400:248|354:244,1,227.999993041992,4|0,3:1|2:0,0:0:0:0:
242,44,117184,2,0,B|153:64|153:64|110:127|155:192,1,227.999993041992,4|0,3:1|3:0,0:0:0:0:
364,155,117553,6,2,B|281:178|308:118|229:137,1,142.500005435944
229,136,117860,1,0,0:0:0:0:
229,136,117922,1,2,1:0:0:0:
426,249,118045,1,2,1:0:0:0:
244,219,118168,1,2,1:0:0:0:
348,73,118291,1,0,1:2:0:0:
336,278,118414,6,0,B|260:295|260:295|211:352|211:352|125:368,1,227.999993041992,4|0,3:1|3:0,0:0:0:0:
91,151,118783,2,0,B|65:287|65:287|168:268,1,227.999993041992,4|0,3:1|3:0,0:0:0:0:
307,160,119151,2,0,B|333:24|333:24|230:43,1,227.999993041992,4|0,3:1|3:0,0:0:0:0:
91,151,119520,5,2,0:0:0:0:
415,125,119643,2,2,L|403:208,1,71.2500027179719,0|2,0:0|0:0,0:0:0:0:
396,278,119828,1,0,0:0:0:0:
396,278,119889,2,0,P|430:278|464:254,1,63.3333333333333,10|8,0:1|0:0,0:0:0:0:
415,125,120053,2,2,P|398:95|360:78,1,63.3333333333333,8|10,0:1|0:1,0:0:0:0:
282,187,120217,2,0,P|265:216|268:257,1,63.3333333333333,8|8,0:1|0:0,0:0:0:0:
340,328,120381,6,0,B|351:249|351:249|404:198|404:198|414:124,1,227.999993041992,4|0,3:1|3:0,0:0:0:0:
296,32,120749,2,0,B|279:192|279:192|346:142,1,227.999993041992,4|0,3:1|3:0,0:0:0:0:
332,151,121057,1,0,3:0:0:0:
332,151,121119,5,8,0:0:0:0:
478,66,121242,2,0,P|498:121|489:169,1,95
332,151,121487,5,8,0:0:0:0:
186,236,121610,2,0,P|166:181|175:133,1,95,2|0,0:1|0:0,0:0:0:0:
185,43,121856,5,10,0:1:0:0:
74,223,121979,1,8,0:0:0:0:
252,180,122102,1,10,0:1:0:0:
102,84,122225,1,8,0:0:0:0:
179,330,122348,2,0,L|186:225,1,95,4|0,0:1|0:0,0:0:0:0:
274,92,122594,5,0,0:0:0:0:
325,259,122717,1,2,0:0:0:0:
279,78,122840,1,8,0:0:0:0:
133,162,122963,1,0,0:0:0:0:
286,65,123086,2,0,L|294:174,1,95,2|0,0:0|0:0,0:0:0:0:
511,223,123332,6,0,L|411:214,1,95
179,330,123578,2,2,P|235:335|280:309,1,95,0|2,0:0|0:0,0:0:0:0:
325,259,123762,1,0,0:0:0:0:
325,259,123824,2,0,L|332:155,1,95,8|0,3:1|3:0,0:0:0:0:
458,105,124069,1,2,3:2:0:0:
441,325,124192,1,2,3:2:0:0:
456,124,124315,6,2,B|443:189|443:189|460:236|460:236|442:316,1,190,6|2,0:0|0:0,0:0:0:0:
232,170,124684,5,0,0:0:0:0:
232,170,124746,1,0,0:0:0:0:
232,170,124807,1,10,0:0:0:0:
277,344,124930,1,0,0:0:0:0:
338,85,125053,5,2,0:0:0:0:
325,259,125176,1,0,0:0:0:0:
460,39,125299,5,0,0:0:0:0:
412,219,125422,1,0,0:0:0:0:
232,170,125545,2,2,P|176:169|130:188,1,95,0|2,0:0|0:0,0:0:0:0:
90,238,125729,5,0,0:0:0:0:
90,238,125791,1,8,3:1:0:0:
172,94,125914,1,0,3:0:0:0:
153,297,126037,5,2,3:2:0:0:
94,71,126160,1,2,3:2:0:0:
361,239,126282,5,0,3:1:0:0:
361,239,126405,1,0,3:0:0:0:
323,162,126528,5,8,0:0:0:0:
399,317,126651,1,8,0:0:0:0:
284,278,126774,1,8,0:0:0:0:
439,202,126897,1,8,0:0:0:0:
149,179,127020,5,0,3:1:0:0:
149,179,127143,1,0,3:0:0:0:
187,102,127266,5,8,0:0:0:0:
111,257,127389,1,8,0:0:0:0:
226,218,127512,1,8,0:0:0:0:
71,142,127635,1,8,0:0:0:0:
272,39,127758,5,4,0:0:0:0:
240,346,128004,1,4,0:0:0:0:
352,72,128249,6,0,L|418:56,1,63.3333333333333,8|8,0:0|0:0,0:0:0:0:
503,28,128413,2,0,L|483:93,1,63.3333333333333,8|0,0:0|0:0,0:0:0:0:
466,181,128577,2,0,L|419:131,1,63.3333333333333
322,150,128741,6,0,L|315:218,1,63.3333333333333,8|8,0:0|0:0,0:0:0:0:
240,346,128905,2,0,L|247:278,1,63.3333333333333,8|0,0:0|0:0,0:0:0:0:
224,196,129069,2,0,L|217:264,1,63.3333333333333
128,308,129233,5,8,0:0:0:0:
128,308,129315,1,8,0:0:0:0:
128,308,129397,1,0,0:0:0:0:
128,308,129479,1,0,0:0:0:0:
128,308,129561,1,0,3:0:0:0:
128,308,129643,1,0,3:0:0:0:
128,308,129725,2,0,L|29:319,1,95,8|2,0:0|2:0,0:0:0:0:
153,4,130217,6,2,P|216:42|180:168,1,190,6|10,0:0|0:0,0:0:0:0:
57,98,130586,2,0,L|151:87,1,95,2|0,0:2|0:0,0:0:0:0:
392,155,130831,1,2,0:2:0:0:
392,155,130893,1,0,0:0:0:0:
392,155,130954,6,2,B|312:163|312:163|270:142|270:142|168:150,1,190,10|2,0:1|0:0,0:0:0:0:
345,33,131323,2,0,L|333:102,1,47.5,2|2,3:2|3:2,0:0:0:0:
259,228,131446,2,0,L|352:269,1,95,10|2,0:1|0:2,0:0:0:0:
238,52,131692,1,0,3:0:0:0:
135,243,131815,1,2,3:2:0:0:
29,76,131938,2,0,B|14:122|14:122|40:207,1,95,8|0,0:1|0:0,0:0:0:0:
169,340,132184,6,2,L|176:136,1,190,6|10,0:0|0:0,0:0:0:0:
397,92,132553,2,0,B|337:109|337:109|318:179|318:179|231:212,1,190,0|2,0:2|0:2,0:0:0:0:
266,198,132860,1,0,0:0:0:0:
266,198,132922,2,2,L|262:292,1,95,8|2,0:2|0:1,0:0:0:0:
69,349,133168,5,2,3:1:0:0:
89,303,133249,1,0,3:0:0:0:
82,252,133331,1,0,3:0:0:0:
51,211,133413,2,0,L|60:87,1,95,10|2,0:1|3:2,0:0:0:0:
181,376,133659,5,0,3:0:0:0:
182,376,133741,2,0,L|172:298,1,63.3333333333333,0|0,3:0|3:0,0:0:0:0:
146,172,133905,1,8,0:0:0:0:
0,288,134028,1,0,0:0:0:0:
245,284,134151,6,2,B|348:253|322:334|426:302,1,190,6|10,0:0|0:0,0:0:0:0:
381,135,134520,2,0,L|386:229,1,95,0|0,0:2|0:0,0:0:0:0:
109,282,134766,1,2,0:2:0:0:
109,282,134827,1,0,0:0:0:0:
109,282,134889,6,2,P|198:282|234:200,1,190,10|2,0:0|0:0,0:0:0:0:
180,35,135258,1,2,3:2:0:0:
180,35,135319,1,2,3:2:0:0:
180,35,135381,1,10,0:0:0:0:
157,210,135504,1,2,3:2:0:0:
168,24,135627,5,2,3:2:0:0:
167,217,135749,1,2,3:2:0:0:
0,120,135872,1,10,0:2:0:0:
273,29,135995,2,0,L|388:34,1,95,6|0,0:0|2:0,0:0:0:0:
212,316,136241,5,0,0:2:0:0:
212,316,136303,1,2,0:2:0:0:
212,316,136364,1,12,0:2:0:0:
228,148,136487,2,0,L|234:88,2,47.5,2|0|12,0:2|0:0|0:2,0:0:0:0:
339,300,136733,2,0,L|263:289,1,47.5,2|2,0:2|0:2,0:0:0:0:
149,254,136856,1,12,0:2:0:0:
350,139,136979,1,2,0:2:0:0:
350,139,137040,1,0,0:0:0:0:
350,139,137102,6,0,P|342:172|334:218,1,63.3333333333333,0|0,3:0|3:0,0:0:0:0:
225,377,137266,2,0,P|217:344|209:298,1,63.3333333333333,0|0,3:0|3:0,0:0:0:0:
93,113,137430,2,0,P|85:146|77:192,1,63.3333333333333,0|0,3:0|3:0,0:0:0:0:
5,218,137594,6,0,B|108:187|82:268|186:236,1,190,4|8,3:2|0:0,0:0:0:0:
164,23,137963,1,8,0:0:0:0:
47,292,138086,6,2,B|37:340|37:340|61:408,1,95,4|2,0:0|2:1,0:0:0:0:
267,133,138331,2,0,B|276:84|276:84|253:17,1,95,10|2,0:0|0:2,0:0:0:0:
170,251,138577,1,2,0:0:0:0:
164,156,138700,2,0,L|169:250,1,95,2|0,0:2|2:0,0:0:0:0:
296,339,138946,6,2,B|235:326|235:326|180:346|180:346|97:332,1,190,10|2,0:0|3:1,0:0:0:0:
111,334,139254,1,2,3:2:0:0:
111,334,139315,1,8,0:0:0:0:
296,210,139438,2,0,L|288:257,2,47.5,2|0|8,3:2|3:0|0:0,0:0:0:0:
100,47,139684,2,0,L|105:100,1,47.5,2|2,3:2|3:2,0:0:0:0:
93,228,139807,1,8,0:0:0:0:
186,82,139930,1,10,0:2:0:0:
46,152,140053,6,2,B|146:118|128:193|232:157,1,190,6|10,0:0|0:0,0:0:0:0:
451,26,140422,1,2,0:2:0:0:
372,267,140545,1,2,0:0:0:0:
360,178,140668,2,0,L|347:66,1,95,2|0,0:2|2:0,0:0:0:0:
279,311,140913,6,2,P|371:304|443:364,1,190,10|2,0:0|0:0,0:0:0:0:
178,332,141282,1,8,0:0:0:0:
254,224,141405,1,2,0:2:0:0:
254,224,141467,1,0,0:0:0:0:
254,224,141528,6,0,P|230:242|157:252,1,63.3333333333333,0|0,3:0|3:0,0:0:0:0:
61,164,141692,2,0,P|88:175|133:234,1,63.3333333333333,0|0,3:0|3:0,0:0:0:0:
105,361,141856,2,0,P|101:331|129:262,1,63.3333333333333,0|0,3:0|3:0,0:0:0:0:
189,77,142020,6,0,L|196:193,1,95,6|2,0:0|0:2,0:0:0:0:
396,384,142266,2,0,L|403:268,1,95,10|2,0:0|0:2,0:0:0:0:
410,74,142512,5,2,0:0:0:0:
448,173,142635,1,2,0:2:0:0:
342,156,142758,1,2,0:2:0:0:
434,71,142881,5,10,0:1:0:0:
369,278,143004,1,0,0:0:0:0:
222,118,143127,1,2,0:2:0:0:
342,156,143249,6,0,B|356:203|356:203|337:265,1,95,10|2,0:1|3:2,0:0:0:0:
338,266,143434,1,0,3:0:0:0:
334,284,143495,5,0,3:0:0:0:
282,249,143577,1,0,3:0:0:0:
220,257,143658,1,0,0:0:0:0:
179,304,143741,1,0,3:0:0:0:
142,353,143822,1,0,0:0:0:0:
81,359,143904,1,0,0:0:0:0:
34,319,143987,6,0,P|32:276|19:193,1,95,6|0,0:0|0:0,0:0:0:0:
265,341,144233,1,10,0:0:0:0:
155,129,144356,2,0,P|148:176|145:223,1,95,2|0,0:2|0:0,0:0:0:0:
145,223,144540,1,0,0:0:0:0:
145,223,144602,1,8,0:2:0:0:
247,54,144725,1,10,0:0:0:0:
89,58,144848,5,2,3:2:0:0:
89,58,144909,1,0,3:0:0:0:
89,58,144971,1,12,0:2:0:0:
244,192,145094,2,0,L|304:194,2,47.5,2|0|12,3:2|3:0|0:2,0:0:0:0:
52,320,145340,2,0,L|47:253,1,47.5,0|0,3:0|3:0,0:0:0:0:
21,158,145463,5,4,3:2:0:0:
21,158,145524,1,0,3:0:0:0:
21,158,145586,2,0,L|87:168,1,47.5,0|0,3:0|3:0,0:0:0:0:
160,170,145709,2,0,L|135:107,1,47.5,12|0,0:2|0:0,0:0:0:0:
100,43,145831,2,0,L|58:95,1,47.5,8|0,0:0|0:0,0:0:0:0:
107,238,145954,6,0,L|113:359,1,95,6|0,0:0|2:0,0:0:0:0:
362,168,146200,2,2,B|309:178|309:178|289:206|289:206|228:219,1,142.5,8|2,0:0|2:1,0:0:0:0:
218,223,146446,1,0,0:0:0:0:
322,79,146569,1,2,0:2:0:0:
359,257,146692,1,8,0:0:0:0:
239,133,146815,6,2,P|178:82|49:113,1,190,6|2,0:0|3:1,0:0:0:0:
109,319,147184,1,10,0:0:0:0:
138,187,147307,1,2,3:2:0:0:
236,306,147430,5,0,3:0:0:0:
220,215,147553,1,2,3:2:0:0:
377,351,147676,5,8,0:0:0:0:
306,213,147799,1,8,0:0:0:0:
473,255,147922,6,2,B|432:259|404:229|404:229|369:247|369:247|344:217|306:213,1,190,6|10,0:0|0:0,0:0:0:0:
470,168,148290,1,2,0:2:0:0:
301,298,148413,1,0,0:0:0:0:
370,143,148536,1,2,0:0:0:0:
401,325,148659,1,8,0:0:0:0:
236,153,148782,6,0,B|205:128|162:131|162:131|128:200|44:181,1,190,6|2,0:0|3:1,0:0:0:0:
75,9,149151,2,0,L|83:113,1,95,10|2,0:0|3:2,0:0:0:0:
85,122,149336,1,0,0:0:0:0:
87,140,149397,5,0,3:1:0:0:
136,176,149478,1,0,3:0:0:0:
197,166,149560,1,0,3:0:0:0:
233,115,149643,1,0,3:0:0:0:
253,57,149724,1,0,3:0:0:0:
308,29,149806,1,0,3:0:0:0:
367,47,149889,6,0,L|476:53,1,95,0|0,3:0|2:0,0:0:0:0:
260,271,150135,2,0,L|196:284,2,63.3333333333333,0|0|0,3:0|3:0|3:0,0:0:0:0:
316,210,150381,2,0,L|319:116,1,95,0|0,3:0|2:0,0:0:0:0:
462,287,150627,2,0,L|464:381,1,95,0|0,3:0|2:0,0:0:0:0:
396,228,150872,1,2,0:2:0:0:
85,318,151364,6,2,P|53:265|170:296,1,285,0|6,1:0|0:0,1:0:0:0:
256,192,151856,12,0,153823,0:0:0:0:
420,56,161692,6,0,P|353:44|293:133,1,152
386,179,162020,2,0,L|369:108,1,50.6666666666667
265,10,162184,6,0,L|252:184,1,152,8|0,0:0|0:0,0:0:0:0:
241,284,162512,1,0,0:0:0:0:
241,284,162594,1,0,0:0:0:0:
241,284,162676,6,0,B|287:274|287:274|351:293,1,101.333333333333,0|0,0:0|2:0,0:0:0:0:
177,337,162922,1,0,0:0:0:0:
162,339,163004,1,0,0:0:0:0:
147,341,163086,1,0,0:0:0:0:
99,273,163168,6,0,B|48:276|48:276|-14:254,2,75.9999976806641,8|0|0,0:0|0:0|0:0,0:0:0:0:
2,138,163413,2,0,B|53:135|53:135|115:157,2,75.9999976806641,8|0|0,0:0|0:0|0:0,0:0:0:0:
152,68,163659,6,0,B|174:129|174:129|159:250,1,152
249,219,163987,2,0,B|259:132|259:132,1,50.6666666666667
396,84,164151,6,0,B|319:96|319:96|249:72,1,152,8|0,0:0|0:0,0:0:0:0:
84,131,164479,1,0,0:0:0:0:
84,131,164561,1,0,0:0:0:0:
84,131,164643,6,0,L|97:251,1,101.333333333333,0|0,0:0|2:0,0:0:0:0:
164,338,164889,1,0,0:0:0:0:
164,338,164971,2,0,L|170:277,1,50.6666666666667,0|0,0:0|2:0,0:0:0:0:
239,121,165135,6,0,B|216:119|216:119|202:115|202:115|186:123|186:123|152:124,2,75.9999976806641,8|0|0,0:0|0:0|0:0,0:0:0:0:
88,45,165381,2,0,B|111:47|111:47|125:51|125:51|141:43|141:43|175:42,2,75.9999976806641,8|0|0,0:0|0:0|0:0,0:0:0:0:
255,216,165627,6,0,P|261:154|363:115,1,152
383,202,165954,2,0,L|305:186,1,50.6666666666667
144,286,166118,6,0,B|223:265|209:319|292:295,1,152,8|0,0:0|0:0,0:0:0:0:
181,365,166446,1,0,0:0:0:0:
181,365,166528,1,0,0:0:0:0:
181,365,166610,6,0,L|44:358,1,101.333333333333,0|0,0:0|2:0,0:0:0:0:
57,228,166856,1,0,0:0:0:0:
72,226,166938,1,0,0:0:0:0:
87,224,167020,1,0,0:0:0:0:
151,181,167102,6,0,B|158:125|158:125|149:102,2,75.9999976806641,8|0|0,0:0|0:0|0:0,0:0:0:0:
260,155,167348,2,0,B|253:99|253:99|262:76,2,75.9999976806641,8|0|0,0:0|0:0|0:0,0:0:0:0:
359,217,167594,6,0,B|478:203|478:203|451:234,1,152
405,348,167922,2,0,L|401:281,1,50.6666666666667
378,83,168086,6,0,B|340:117|340:117|364:246,1,152,8|0,0:0|0:0,0:0:0:0:
281,285,168413,1,0,0:0:0:0:
281,285,168495,1,0,0:0:0:0:
281,285,168577,6,0,L|150:298,1,101.333333333333,0|0,0:0|2:0,0:0:0:0:
89,182,168823,1,0,0:0:0:0:
89,182,168905,2,0,L|154:188,1,50.6666666666667,0|0,0:0|2:0,0:0:0:0:
235,64,169069,6,0,B|247:101|247:101|221:159,2,75.9999976806641,8|0|0,0:0|0:0|0:0,0:0:0:0:
197,316,169315,2,0,B|185:279|185:279|211:221,2,75.9999976806641,8|0|0,0:0|0:0|0:0,0:0:0:0:
309,194,169561,6,0,L|480:206,1,151.999995361328,0|0,0:0|2:0,0:0:0:0:
411,44,169807,2,0,P|390:67|384:146,1,75.9999976806641,8|0,0:0|0:0,0:0:0:0:
281,285,169971,1,0,0:0:0:0:
281,285,170053,6,0,B|203:264|220:318|123:290,1,151.999995361328,0|0,0:0|2:0,0:0:0:0:
135,145,170299,1,8,0:0:0:0:
135,145,170381,2,0,P|156:168|162:247,1,75.9999976806641
50,301,170545,5,0,0:0:0:0:
50,301,170627,1,0,0:0:0:0:
50,301,170709,1,0,0:0:0:0:
50,301,170790,6,0,L|46:229,2,50.6666666666667,2|0|0,0:0|2:0|0:0,0:0:0:0:
135,145,171036,6,0,L|199:177,2,50.6666666666667,2|0|0,0:0|2:0|0:0,0:0:0:0:
227,296,171282,6,0,L|166:335,2,50.6666666666667,2|0|0,0:0|2:0|0:0,0:0:0:0:
164,240,171528,5,0,3:0:0:0:
206,213,171609,1,0,0:0:0:0:
255,217,171691,1,0,0:0:0:0:
293,249,171774,1,0,0:0:0:0:
315,294,171855,1,0,0:0:0:0:
359,317,171937,1,0,3:0:0:0:
408,308,172019,1,0,3:0:0:0:
442,272,172101,1,0,0:0:0:0:
448,223,172184,1,0,0:0:0:0:
428,177,172265,1,0,3:0:0:0:
435,127,172347,1,0,0:0:0:0:
466,89,172429,1,0,0:0:0:0:
512,72,172512,5,0,3:0:0:0:
227,296,172758,5,8,0:0:0:0:
227,296,172840,2,0,P|233:333|237:376,1,75.9999976806641
56,266,173004,5,0,0:0:0:0:
52,243,173086,1,0,0:0:0:0:
54,220,173168,1,0,0:0:0:0:
64,199,173249,5,8,0:0:0:0:
84,158,173331,1,0,0:0:0:0:
81,112,173413,1,0,0:0:0:0:
57,72,173495,5,8,0:0:0:0:
92,99,173576,1,0,0:0:0:0:
137,102,173658,1,0,0:0:0:0:
175,78,173741,1,8,0:0:0:0:
208,47,173822,1,0,0:0:0:0:
252,39,173904,1,0,0:0:0:0:
293,57,173986,5,8,0:0:0:0:
317,95,174068,1,0,0:0:0:0:
317,140,174150,1,0,0:0:0:0:
291,177,174233,1,8,0:0:0:0:
265,213,174314,1,0,0:0:0:0:
266,258,174396,1,0,0:0:0:0:
294,293,174478,5,8,0:0:0:0:
242,261,174561,1,0,0:0:0:0:
182,275,174643,1,0,0:0:0:0:
149,326,174725,1,8,0:0:0:0:
93,347,174806,1,0,0:0:0:0:
36,329,174888,1,0,0:0:0:0:
2,280,174970,5,8,0:0:0:0:
6,221,175052,1,0,0:0:0:0:
46,177,175134,1,0,0:0:0:0:
105,167,175216,1,8,0:0:0:0:
159,144,175299,1,0,0:0:0:0:
183,90,175381,1,0,0:0:0:0:
161,34,175463,5,8,0:0:0:0:
91,260,175586,1,0,0:0:0:0:
91,260,175709,1,0,0:0:0:0:
97,86,175831,5,8,0:0:0:0:
322,156,175954,1,0,0:0:0:0:
322,156,176077,1,0,0:0:0:0:
176,289,176200,5,8,0:0:0:0:
270,76,176323,1,0,0:0:0:0:
270,76,176446,1,0,0:0:0:0:
387,242,176569,5,8,0:0:0:0:
164,203,176692,1,0,0:0:0:0:
164,203,176815,1,0,0:0:0:0:
367,73,176938,5,8,0:0:0:0:
312,360,177061,1,8,0:0:0:0:
185,118,177184,1,8,0:0:0:0:
476,200,177307,1,8,0:0:0:0:
192,316,177430,6,0,B|120:298|124:350|42:328,1,151.999995361328,0|0,0:0|2:0,0:0:0:0:
26,128,177676,2,0,P|81:176|81:250,1,151.999995361328,10|0,0:0|2:0,0:0:0:0:
44,328,177922,1,10,0:0:0:0:
321,133,178168,6,0,P|259:98|166:136,1,151.999995361328,0|0,0:0|2:0,0:0:0:0:
137,47,178413,2,0,L|150:199,1,151.999995361328,10|0,0:0|2:0,0:0:0:0:
257,294,178659,2,0,B|236:242|236:242|248:186,1,113.999996520996,10|0,0:0|0:0,0:0:0:0:
321,133,178844,1,0,0:0:0:0:
321,133,178905,5,8,0:0:0:0:
298,366,179028,1,8,0:0:0:0:
179,163,179151,1,8,0:0:0:0:
393,256,179274,1,8,0:0:0:0:
163,307,179397,6,0,B|46:323|46:323|10:286,1,151.999995361328,0|0,0:0|2:0,0:0:0:0:
154,166,179643,2,0,B|178:189|178:189|162:306,1,151.999995361328,10|0,0:0|2:0,0:0:0:0:
149,384,179889,1,10,0:0:0:0:
124,63,180135,6,0,B|203:46|195:96|282:81,1,151.999995361328,0|0,0:0|2:0,0:0:0:0:
335,23,180381,2,0,L|303:220,1,151.999995361328,10|0,0:0|2:0,0:0:0:0:
354,274,180627,2,0,P|307:213|204:232,1,151.999995361328,10|0,0:0|2:0,0:0:0:0:
156,269,180872,5,8,0:0:0:0:
202,286,180954,1,8,0:0:0:0:
250,270,181036,1,8,0:0:0:0:
277,229,181117,1,8,0:0:0:0:
311,193,181200,1,8,0:0:0:0:
360,183,181282,1,8,0:0:0:0:
407,202,181364,6,0,L|384:26,1,151.999995361328,0|0,0:0|2:0,0:0:0:0:
489,274,181610,2,0,P|421:244|354:274,1,151.999995361328,10|0,0:0|2:0,0:0:0:0:
307,345,181856,1,10,0:0:0:0:
46,34,182102,6,0,P|121:25|184:123,1,151.999995361328,0|0,0:0|2:0,0:0:0:0:
221,154,182348,2,0,L|228:-20,1,151.999995361328,10|0,0:0|2:0,0:0:0:0:
94,111,182594,1,10,0:0:0:0:
455,33,182840,6,0,B|425:95|425:95|452:235,1,151.999995361328,0|0,0:0|2:0,0:0:0:0:
369,228,183086,2,0,B|332:40|332:40,1,151.999995361328,10|0,0:0|2:0,0:0:0:0:
512,106,183331,1,10,0:0:0:0:
112,265,183577,6,0,B|170:256|170:256|214:273|214:273|298:263,1,151.999995361328,0|0,0:0|2:0,0:0:0:0:
238,41,183823,2,0,L|225:209,1,151.999995361328,10|0,0:0|2:0,0:0:0:0:
166,340,184069,1,10,0:0:0:0:
27,18,184315,5,8,0:0:0:0:
54,88,184397,1,8,0:0:0:0:
121,123,184479,1,8,0:0:0:0:
194,103,184561,5,10,0:0:0:0:
238,41,184643,1,8,0:0:0:0:
310,19,184725,1,8,0:0:0:0:
377,53,184807,5,10,0:0:0:0:
407,122,184889,1,8,0:0:0:0:
369,188,184971,1,8,0:0:0:0:
295,208,185053,5,8,0:0:0:0:
256,273,185135,1,8,0:0:0:0:
285,342,185217,1,8,0:0:0:0:
359,359,185299,6,2,B|417:354|417:354|444:336|444:336|514:332,1,142.5,2|2,3:1|3:1,1:0:0:0:
476,252,185668,1,2,2:0:0:0:
476,252,185790,6,0,B|424:254|424:254|397:272|397:272|339:277,1,142.5,0|0,2:0|2:0,0:0:0:0:
74,82,186282,6,2,B|139:89|229:54|229:54|191:77|186:139,1,227.999993041992,6|2,0:0|2:1,0:0:0:0:
350,329,186651,2,2,B|286:299|292:236|292:236|321:180|278:135,1,227.999993041992,2|2,0:0|2:1,0:0:0:0:
101,298,187020,2,2,B|131:299|153:340|153:340|151:252|211:198,1,227.999993041992,2|2,0:0|2:1,0:0:0:0:
397,103,187389,6,0,L|379:267,1,142.500005435944,2|0,0:0|2:0,0:0:0:0:
220,365,187758,5,8,0:0:0:0:
251,160,187881,1,8,0:0:0:0:
301,368,188004,5,8,0:0:0:0:
224,169,188127,1,8,0:0:0:0:
413,246,188249,6,2,B|363:235|326:259|326:259|280:237|280:237|249:268|182:258,1,227.999993041992,6|2,0:0|2:1,0:0:0:0:
84,131,188618,2,2,B|241:102|241:102|224:169,1,227.999993041992,2|2,0:0|2:1,0:0:0:0:
186,373,188987,2,2,B|130:304|146:206|146:206|196:277,1,227.999993041992,2|2,0:0|2:1,0:0:0:0:
263,286,189356,6,0,L|434:267,1,142.500005435944,2|0,0:0|3:1,0:0:0:0:
404,270,189663,1,0,3:0:0:0:
404,270,189725,1,0,3:0:0:0:
252,89,189848,5,0,3:0:0:0:
272,171,189971,1,0,3:0:0:0:
292,253,190094,1,0,3:0:0:0:
476,99,190217,6,2,B|402:86|402:86|320:101|320:101|252:89,1,227.999993041992,6|2,0:0|3:1,0:0:0:0:
67,265,190586,2,2,B|224:240|224:240|291:253,1,227.999993041992,2|2,0:0|3:1,0:0:0:0:
456,369,190954,2,2,B|378:313|378:313|410:241|354:164,1,227.999993041992,2|2,0:0|3:1,0:0:0:0:
360,50,191323,6,0,B|345:139|345:139|368:185,1,142.500005435944,2|2,0:0|0:0,0:0:0:0:
171,266,191692,1,8,0:0:0:0:
195,251,191774,1,8,0:0:0:0:
242,273,191856,1,8,0:0:0:0:
266,258,191938,1,8,0:0:0:0:
313,280,192020,1,8,0:0:0:0:
337,265,192102,1,8,0:0:0:0:
384,287,192184,6,2,B|349:101|349:101|321:180,1,227.999993041992,6|2,0:0|3:1,0:0:0:0:
98,38,192553,2,2,B|250:124|250:124|267:74,1,227.999993041992,2|2,0:0|3:1,0:0:0:0:
267,73,192860,1,0,0:0:0:0:
267,73,192922,5,10,0:0:0:0:
66,146,193045,1,2,0:0:0:0:
219,9,193168,1,0,0:0:0:0:
181,224,193290,5,10,0:0:0:0:
98,38,193413,1,0,0:0:0:0:
327,134,193536,1,2,0:0:0:0:
19,76,193659,5,8,0:0:0:0:
346,47,193782,1,8,0:0:0:0:
67,178,193905,1,8,0:0:0:0:
357,221,194028,1,8,0:0:0:0:
63,291,194151,1,6,0:0:0:0:
63,291,194397,5,0,0:0:0:0:
180,90,194520,1,2,0:0:0:0:
223,336,194643,1,8,0:0:0:0:
1,239,194766,1,2,0:0:0:0:
230,152,194889,1,2,0:0:0:0:
230,152,195135,6,0,L|238:271,1,95,0|0,0:0|0:0,0:0:0:0:
65,382,195381,2,0,B|50:336|50:336|68:269,1,95,0|2,0:0|0:0,0:0:0:0:
117,236,195565,1,0,0:0:0:0:
117,236,195627,2,0,L|249:241,1,95,8|0,3:1|3:0,0:0:0:0:
381,168,195872,1,2,3:2:0:0:
249,66,195995,1,2,3:2:0:0:
391,85,196118,6,0,B|329:92|329:92|300:140|300:140|225:152,1,190,6|2,0:0|0:0,0:0:0:0:
105,62,196487,1,0,0:0:0:0:
105,62,196549,1,0,0:0:0:0:
105,62,196610,1,10,0:0:0:0:
211,239,196733,1,0,0:0:0:0:
249,66,196856,1,2,0:0:0:0:
117,236,196979,1,0,0:0:0:0:
300,321,197102,6,0,L|288:182,1,95,0|0,0:0|0:0,0:0:0:0:
324,23,197348,1,0,0:0:0:0:
392,188,197471,5,2,0:0:0:0:
392,188,197532,1,0,0:0:0:0:
392,187,197594,1,8,3:1:0:0:
204,146,197717,1,0,3:0:0:0:
372,109,197840,5,2,3:2:0:0:
219,148,197963,1,2,3:2:0:0:
305,169,198086,5,0,0:0:0:0:
305,169,198209,1,0,0:0:0:0:
313,256,198331,2,2,L|322:359,1,95,0|2,2:1|2:1,0:0:0:0:
103,120,198823,5,0,0:0:0:0:
103,120,198946,1,0,0:0:0:0:
95,207,199069,2,2,L|86:310,1,95,0|2,2:1|2:1,0:0:0:0:
297,82,199561,5,2,0:1:0:0:
305,169,199807,1,2,0:1:0:0:
313,256,200053,2,2,L|322:359,1,95,0|0,0:0|2:0,0:0:0:0:
477,207,200422,6,2,B|431:196|431:196|383:202,1,95,2|0,2:1|2:0,1:0:0:0:
211,164,200790,2,2,B|256:174|256:174|304:168,1,95,2|0,2:1|2:0,0:0:0:0:
421,45,201282,6,0,P|406:18|386:58,2,95,0|2|0,2:0|2:2|2:0,2:0:0:0:
295,261,202020,6,0,B|220:261|220:261|191:285|191:285|110:286,1,190,2|0,0:2|2:0,0:0:0:0:
47,243,202389,2,0,P|43:193|39:137,1,95
210,84,202758,2,0,P|207:131|204:179,1,95
147,358,203127,2,0,P|143:308|139:252,1,95
115,116,203495,6,0,L|112:133,1,11.875,2|0,1:2|0:0,0:0:0:0:
305,345,203741,2,0,L|302:328,1,11.875,2|0,1:2|0:0,0:0:0:0:
443,51,203987,6,0,B|429:105|429:105|440:174|440:174|423:245,1,190,2|0,0:2|0:0,0:0:0:0:
353,168,204356,2,0,L|248:163,1,95
183,245,204725,2,0,P|197:275|192:338,1,95
75,182,205094,2,0,P|61:152|66:89,1,95
165,36,205463,6,0,L|162:53,1,11.875,2|0,1:2|0:0,0:0:0:0:
96,339,205709,2,0,L|99:322,1,11.875,2|0,1:2|0:0,0:0:0:0:
377,171,205954,6,0,L|152:183,1,190,2|0,0:2|0:0,0:0:0:0:
100,138,206323,2,0,P|106:170|115:240,1,95
182,356,206692,2,0,P|187:308|196:262,1,95
97,248,207061,2,0,P|50:256|3:262,1,95
265,203,207430,5,2,0:2:0:0:
265,203,207799,6,0,P|324:175|444:261,1,190,6|0,0:0|0:2,0:0:0:0:
429,224,208106,1,2,0:2:0:0:
429,224,208168,1,12,0:2:0:0:
362,384,208290,1,2,0:2:0:0:
362,384,208352,1,0,0:0:0:0:
362,384,208413,2,0,L|348:276,1,95,12|2,0:2|0:2,0:0:0:0:
343,258,208598,1,2,0:2:0:0:
343,258,208659,1,12,0:2:0:0:
142,315,208782,1,2,0:2:0:0:
142,315,208844,1,0,0:0:0:0:
142,315,208905,6,0,L|60:321,2,63.3333333333333,0|0|0,3:0|3:0|3:0,0:0:0:0:
201,207,209151,2,0,L|264:202,2,63.3333333333333,0|0|0,3:0|3:0|3:0,0:0:0:0:
107,140,209397,2,0,P|100:63|206:82,1,190,0|8,3:0|0:0,0:0:0:0:
247,295,209766,1,8,0:0:0:0:
409,108,209889,6,2,B|313:91|326:158|212:129,1,190,6|10,0:0|0:0,0:0:0:0:
262,50,210258,1,2,0:2:0:0:
344,287,210381,5,2,0:0:0:0:
376,191,210504,2,0,L|485:219,1,95,2|0,0:2|0:0,0:0:0:0:
258,375,210749,6,2,P|198:320|63:340,1,190,10|2,0:0|3:1,0:0:0:0:
81,327,211057,1,2,3:2:0:0:
69,335,211118,2,0,L|60:220,1,95,8|2,0:0|3:2,0:0:0:0:
60,207,211303,1,0,3:0:0:0:
60,207,211364,1,8,0:0:0:0:
209,108,211487,2,0,L|273:117,2,47.5,2|2|8,3:2|3:2|0:0,0:0:0:0:
51,23,211733,1,10,0:2:0:0:
135,51,211856,6,2,P|122:96|125:144,1,95,4|2,0:0|0:1,0:0:0:0:
251,375,212102,2,0,P|253:327|240:282,1,95,10|2,0:0|0:2,0:0:0:0:
291,91,212348,5,0,0:0:0:0:
163,244,212471,2,0,P|206:204|259:198,1,95,2|0,0:2|0:0,0:0:0:0:
467,273,212717,6,0,L|335:279,1,95,10|0,0:0|0:0,0:0:0:0:
72,266,212963,1,2,0:0:0:0:
251,375,213086,2,0,L|236:258,1,95,8|2,0:0|0:2,0:0:0:0:
237,266,213270,1,0,0:0:0:0:
235,251,213331,5,0,3:0:0:0:
289,219,213413,1,0,3:0:0:0:
350,232,213495,1,0,3:0:0:0:
393,277,213577,1,0,3:0:0:0:
455,264,213659,1,0,3:0:0:0:
477,204,213741,1,0,3:0:0:0:
442,150,213823,6,2,P|431:112|438:29,1,95,4|2,0:0|0:1,0:0:0:0:
155,287,214069,2,0,P|224:345|306:308,1,190,10|0,0:0|0:0,0:0:0:0:
234,36,214438,2,0,L|227:161,1,95,2|2,0:2|0:2,0:0:0:0:
93,363,214684,5,10,0:1:0:0:
237,266,214807,1,0,0:0:0:0:
95,212,214930,1,2,0:2:0:0:
309,347,215053,5,10,0:1:0:0:
185,201,215176,1,2,3:2:0:0:
185,201,215237,1,0,3:0:0:0:
185,201,215299,2,0,P|220:183|279:188,1,63.3333333333333,0|0,3:0|3:0,0:0:0:0:
370,267,215463,2,0,P|336:245|311:192,1,63.3333333333333,0|0,3:0|3:0,0:0:0:0:
335,74,215627,2,0,P|333:113|299:161,1,63.3333333333333,0|0,3:0|3:0,0:0:0:0:
237,266,215790,5,6,0:0:0:0:
194,98,215913,1,0,0:0:0:0:
412,192,216036,5,8,0:0:0:0:
150,365,216159,1,2,0:2:0:0:
258,157,216283,5,0,0:0:0:0:
258,157,216344,1,0,0:0:0:0:
258,157,216405,1,8,0:2:0:0:
454,364,216528,1,10,0:0:0:0:
144,277,216651,5,2,3:2:0:0:
144,277,216713,1,0,3:0:0:0:
144,277,216774,1,12,0:2:0:0:
412,192,216897,2,0,L|476:175,2,47.5,2|0|12,3:2|3:0|0:2,0:0:0:0:
159,177,217143,1,0,3:0:0:0:
159,177,217205,1,0,3:0:0:0:
159,177,217266,6,0,L|167:109,1,47.5,4|0,3:2|3:0,0:0:0:0:
265,25,217389,2,0,L|259:72,1,47.5,0|0,3:0|3:0,0:0:0:0:
336,186,217512,6,0,L|344:118,1,47.5,12|0,0:2|0:0,0:0:0:0:
442,34,217635,2,0,L|436:81,1,47.5,8|0,0:0|0:0,0:0:0:0:
439,271,217758,6,2,P|432:224|445:178,1,95,4|2,0:0|0:1,0:0:0:0:
351,50,218004,1,10,0:0:0:0:
297,245,218127,2,2,B|227:239|227:239|191:259|191:259|94:257,1,190,0|2,0:2|0:1,0:0:0:0:
112,257,218434,1,0,0:0:0:0:
112,257,218495,1,10,0:1:0:0:
206,14,218618,6,2,P|274:46|278:157,1,190,2|2,0:0|3:2,0:0:0:0:
281,151,218926,1,2,3:2:0:0:
281,151,218987,2,0,L|400:141,1,95,10|2,0:1|0:2,0:0:0:0:
252,330,219233,1,0,3:0:0:0:
209,103,219356,1,2,3:2:0:0:
112,257,219479,2,0,L|-6:246,1,95,8|0,0:1|0:0,0:0:0:0:
309,251,219725,6,2,B|402:229|391:310|496:289,1,190,6|10,0:0|0:0,0:0:0:0:
252,330,220094,2,0,P|215:270|271:162,1,190,0|2,0:2|0:2,0:0:0:0:
455,109,220463,2,0,L|464:204,1,95,8|2,0:2|0:2,0:0:0:0:
337,367,220709,5,2,3:1:0:0:
337,367,220790,2,0,P|342:330|331:271,1,63.3333333333333,0|0,3:0|3:0,0:0:0:0:
243,173,220954,2,0,L|117:183,1,95,10|2,0:1|3:2,0:0:0:0:
397,34,221200,5,0,3:0:0:0:
438,62,221281,1,0,0:0:0:0:
455,109,221363,1,0,0:0:0:0:
442,157,221445,1,0,0:0:0:0:
252,330,221569,1,0,0:0:0:0:
190,94,221692,6,2,B|256:88|256:88|311:120|311:120|370:115,1,190,6|10,0:0|0:0,0:0:0:0:
170,304,222061,2,0,L|41:295,1,95,0|0,0:2|0:0,0:0:0:0:
112,27,222307,1,2,0:2:0:0:
112,27,222368,1,0,0:0:0:0:
112,27,222430,6,2,B|100:92|100:92|112:141|112:141|95:227,1,190,10|2,0:0|0:0,0:0:0:0:
204,384,222799,1,2,3:2:0:0:
204,384,222860,1,2,3:2:0:0:
204,384,222922,1,10,0:0:0:0:
166,189,223045,1,2,3:2:0:0:
317,247,223168,1,2,3:2:0:0:
99,261,223290,1,2,3:2:0:0:
247,96,223413,1,10,0:2:0:0:
352,330,223536,6,2,B|257:350|264:278|168:303,1,190,6|2,0:0|0:2,0:0:0:0:
169,303,223844,1,2,0:2:0:0:
169,303,223905,1,12,0:2:0:0:
327,152,224028,1,2,0:2:0:0:
327,152,224090,1,0,0:0:0:0:
327,152,224151,1,12,0:2:0:0:
126,59,224274,1,2,0:2:0:0:
126,59,224336,1,2,0:2:0:0:
126,59,224397,2,0,P|151:96|147:180,1,95,12|2,0:2|0:2,0:0:0:0:
149,183,224581,1,0,0:0:0:0:
149,183,224643,6,0,L|215:170,1,63.3333333333333,0|0,3:0|3:0,0:0:0:0:
393,259,224807,2,0,L|327:246,1,63.3333333333333,0|0,3:0|3:0,0:0:0:0:
107,315,224971,2,0,L|173:302,1,63.3333333333333,0|0,3:0|3:0,0:0:0:0:
406,126,225135,6,0,P|360:74|247:118,1,190,0|8,3:0|0:0,0:0:0:0:
234,371,225504,1,8,0:0:0:0:
70,240,225627,6,2,B|51:187|51:187|65:112,1,113.999996520996,4|2,0:0|2:1,0:0:0:0:
172,36,225872,5,8,0:0:0:0:
149,183,225995,1,2,3:1:0:0:
158,197,226057,1,0,3:0:0:0:
167,210,226118,5,8,0:0:0:0:
94,16,226241,1,0,3:0:0:0:
393,80,226364,6,0,L|267:97,1,113.999996520996,10|0,0:1|3:0,0:0:0:0:
205,111,226549,1,0,3:0:0:0:
188,115,226610,5,14,0:1:0:0:
470,165,226733,1,0,3:1:0:0:
234,34,226856,1,12,0:2:0:0:
243,282,226979,1,8,3:0:0:0:
243,282,227040,1,8,3:0:0:0:
243,282,227102,5,12,0:2:0:0:
308,81,227225,1,8,3:0:0:0:
308,81,227286,1,8,3:0:0:0:
308,81,227348,5,12,0:2:0:0:
418,355,227471,1,0,3:0:0:0:
265,201,227594,6,2,P|216:200|161:261,1,113.999996520996,4|2,0:0|2:1,0:0:0:0:
98,373,227840,5,8,0:0:0:0:
119,133,227963,1,2,3:1:0:0:
119,133,228024,1,0,3:0:0:0:
119,133,228086,5,8,0:0:0:0:
272,361,228209,1,0,3:0:0:0:
61,196,228331,5,10,0:1:0:0:
308,81,228454,1,0,3:0:0:0:
308,81,228516,1,0,3:0:0:0:
308,81,228577,5,14,0:1:0:0:
138,218,228700,1,0,3:1:0:0:
416,286,228823,6,0,L|295:281,1,113.999996520996,12|0,0:2|3:0,0:0:0:0:
228,280,229008,1,0,3:0:0:0:
211,280,229069,1,12,0:2:0:0:
406,106,229192,1,0,3:0:0:0:
406,106,229254,1,0,3:0:0:0:
406,106,229315,5,12,0:2:0:0:
272,361,229438,1,0,3:0:0:0:
137,131,229561,6,2,B|195:120|195:120|298:152,1,113.999996520996,4|2,0:0|2:1,0:0:0:0:
416,286,229807,5,8,0:0:0:0:
126,312,229930,1,2,3:1:0:0:
126,312,229991,1,0,3:0:0:0:
126,312,230053,5,8,0:0:0:0:
235,93,230176,1,0,3:0:0:0:
319,383,230299,6,0,L|314:251,1,113.999996520996,10|0,0:1|3:0,0:0:0:0:
312,192,230483,1,0,3:0:0:0:
311,174,230545,5,14,0:0:0:0:
69,253,230668,1,0,3:0:0:0:
408,372,230790,5,12,0:2:0:0:
408,83,230913,1,0,3:0:0:0:
408,83,230975,1,0,3:0:0:0:
408,83,231036,6,0,L|403:215,1,113.999996520996,12|0,0:2|3:0,0:0:0:0:
401,274,231220,1,0,3:0:0:0:
400,292,231282,5,12,0:2:0:0:
296,41,231405,1,0,3:0:0:0:
196,178,231528,6,2,B|141:162|141:162|59:180,1,113.999996520996,4|2,0:0|2:1,0:0:0:0:
296,41,231774,5,8,0:0:0:0:
370,172,231897,2,0,L|494:181,1,113.999996520996,10|0,0:1|3:0,0:0:0:0:
145,254,232143,5,8,0:0:0:0:
246,360,232266,2,0,B|226:306|226:306|242:249,1,113.999996520996,10|0,0:1|3:0,0:0:0:0:
221,91,232512,5,0,0:1:0:0:
315,305,232635,2,0,L|402:311,2,56.9999982604981,0|0|8,3:0|3:0|0:2,0:0:0:0:
145,254,232881,1,8,0:0:0:0:
310,130,233004,2,0,P|366:116|448:159,1,113.999996520996,0|0,3:2|2:0,0:0:0:0:
423,306,233249,2,0,P|367:320|285:277,1,113.999996520996,0|0,3:0|2:0,0:0:0:0:
287,31,233495,6,0,L|272:243,2,190,4|8|0,0:0|0:0|3:0,0:0:0:0:
184,151,234110,1,0,3:0:0:0:
377,120,234233,1,8,0:0:0:0:
191,57,234356,6,0,L|184:151,1,95,4|0,3:1|0:0,0:0:0:0:
374,316,234602,2,0,P|364:268|381:207,1,95,0|8,0:0|0:0,0:0:0:0:
319,53,234848,1,0,0:0:0:0:
251,212,234971,6,0,P|210:236|126:228,1,95,8|0,0:0|2:0,0:0:0:0:
163,240,235463,6,0,B|268:220|251:322|374:300,1,213.750008153916,0|0,0:0|2:0,0:0:0:0:
353,83,235954,2,0,P|325:121|339:221,1,142.500005435944,0|0,0:0|2:0,0:0:0:0:
193,323,236323,1,0,2:0:0:0:
357,219,236446,5,8,0:0:0:0:
157,159,236569,1,8,0:0:0:0:
278,16,236692,2,0,L|268:141,1,95,8|0,0:0|3:0,0:0:0:0:
269,125,236877,1,0,3:0:0:0:
267,139,236938,5,0,3:0:0:0:
217,174,237019,1,0,3:0:0:0:
157,159,237101,1,0,3:0:0:0:
131,103,237184,1,0,3:0:0:0:
87,62,237265,1,0,3:0:0:0:
27,75,237347,1,0,3:0:0:0:
5,132,237430,6,0,L|18:249,1,95,4|0,0:0|2:0,0:0:0:0:
158,377,237676,1,0,3:0:0:0:
158,377,237758,1,0,3:0:0:0:
158,377,237840,1,0,3:0:0:0:
158,377,237922,6,0,L|170:260,1,95,0|0,0:0|2:0,0:0:0:0:
283,64,238168,2,0,L|295:180,1,95,0|0,3:0|2:0,0:0:0:0:
438,279,238413,5,4,0:0:0:0:
438,279,238905,1,0,3:0:0:0:
42,244,239889,6,0,P|54:166|115:224,1,190,4|2,0:0|2:0,0:0:0:0:
375,253,240872,5,8,0:0:0:0:
384,224,240954,1,8,0:0:0:0:
392,194,241036,1,8,0:0:0:0:
421,124,241118,2,0,L|446:40,2,47.5000018119813,0|0|0,3:0|3:0|3:0,0:0:0:0:
314,191,241364,5,8,0:0:0:0:
303,228,241446,1,8,0:0:0:0:
292,265,241528,1,8,0:0:0:0:
261,336,241610,2,0,L|236:420,2,47.5000018119813,0|0|0,3:0|3:0|3:0,0:0:0:0:
224,224,241856,5,8,0:0:0:0:
238,180,241938,1,8,0:0:0:0:
251,135,242020,1,8,0:0:0:0:
280,64,242102,2,0,L|305:-20,2,47.5000018119813,0|0|0,3:0|3:0|3:0,0:0:0:0:
168,147,242348,6,0,P|105:146|195:80,1,285.000010871888,4|2,0:0|2:0,0:0:0:0:
168,147,242716,6,0,L|175:305,1,142.500005435944,4|0,0:0|0:0,0:0:0:0:
109,356,243085,1,0,0:0:0:0:
109,356,243208,1,0,0:0:0:0:
261,352,243331,2,0,L|359:343,1,71.2500027179719,8|0,0:0|0:0,0:0:0:0:
429,346,243577,1,0,0:0:0:0:
502,242,243700,6,0,P|455:208|364:227,1,142.500005435944,0|0,0:0|0:0,0:0:0:0:
261,352,244069,1,0,0:0:0:0:
185,284,244192,2,0,L|172:193,1,71.2500027179719,2|8,0:2|0:0,0:0:0:0:
327,284,244438,2,0,L|340:193,1,71.2500027179719,2|0,0:2|0:0,0:0:0:0:
255,68,244684,6,0,P|200:102|103:72,1,142.500005435944,0|0,0:0|0:0,0:0:0:0:
33,162,245052,2,0,L|41:258,1,71.2500027179719,0|0,0:0|0:0,0:0:0:0:
132,360,245298,1,8,0:0:0:0:
132,360,245421,1,0,0:0:0:0:
162,186,245544,5,8,0:0:0:0:
274,293,245667,2,0,L|174:282,1,71.2500027179719,8|2,0:0|0:2,0:0:0:0:
86,265,245913,5,0,0:0:0:0:
460,213,246159,5,2,0:2:0:0:
88,77,246405,5,2,0:2:0:0:
369,15,246651,6,0,L|347:180,1,142.500005435944,4|0,0:2|0:0,0:0:0:0:
274,293,247020,1,0,0:0:0:0:
274,293,247143,1,0,0:0:0:0:
205,228,247266,2,0,L|187:142,1,71.2500027179719,8|0,0:0|0:0,0:0:0:0:
172,72,247511,1,0,0:0:0:0:
320,146,247634,6,0,P|388:154|477:113,1,142.500005435944,0|0,0:0|0:0,0:0:0:0:
456,129,248003,1,0,0:0:0:0:
309,75,248126,2,0,L|320:146,1,71.2500027179719,2|8,0:2|0:0,0:0:0:0:
309,308,248372,2,0,L|320:238,1,71.2500027179719,2|0,0:2|0:0,0:0:0:0:
230,129,248618,5,8,0:0:0:0:
166,300,248741,1,0,0:0:0:0:
166,300,248802,1,0,0:0:0:0:
166,300,248864,5,8,0:0:0:0:
23,64,248987,2,0,B|68:49|68:49|131:63,1,95,8|0,0:0|0:0,0:0:0:0:
148,128,249171,1,0,0:0:0:0:
148,128,249233,6,0,L|140:243,1,95,12|0,0:2|0:0,0:0:0:0:
40,293,249479,1,12,0:2:0:0:
40,293,249602,6,0,L|87:284,1,47.5,2|0,0:2|2:0,0:0:0:0:
268,229,249848,2,0,L|221:238,1,47.5,2|0,0:2|2:0,0:0:0:0:
148,377,250093,5,0,0:0:0:0:
148,377,250155,1,0,0:0:0:0:
148,377,250216,1,2,0:2:0:0:
228,154,250339,1,2,0:2:0:0:
381,334,250462,1,2,0:2:0:0:
183,289,250585,6,0,B|81:271|97:343|-12:317,1,190,4|2,0:2|0:2,0:0:0:0:
0,151,250954,2,0,P|30:207|26:277,1,95,8|2,0:0|0:2,0:0:0:0:
148,377,251200,1,0,0:0:0:0:
181,205,251323,1,2,0:2:0:0:
285,330,251446,1,8,0:0:0:0:
349,225,251569,6,0,B|412:215|459:242|459:242|489:211,1,142.5,0|0,0:0|0:0,0:0:0:0:
474,200,251815,2,0,P|454:163|458:80,1,95,4|8,0:2|0:0,0:0:0:0:
274,193,252061,2,0,P|275:150|320:81,1,95,4|0,0:2|0:0,0:0:0:0:
104,86,252307,2,0,P|126:50|199:12,1,95,4|8,0:2|0:0,0:0:0:0:
195,108,252552,1,4,0:2:0:0:
66,337,252798,5,2,0:2:0:0:
180,362,252921,1,8,0:0:0:0:
144,250,253044,1,2,0:2:0:0:
51,341,253167,5,0,0:0:0:0:
191,372,253290,1,2,0:2:0:0:
147,234,253413,1,8,0:0:0:0:
124,317,253536,6,0,L|301:303,1,142.5,0|0,0:0|2:0,0:0:0:0:
346,310,253782,2,0,L|336:376,2,47.5,0|0|8,3:2|3:0|3:1,0:0:0:0:
439,147,254028,2,0,L|451:53,1,95,0|8,3:0|3:1,0:0:0:0:
272,133,254274,2,0,L|262:67,2,47.5,0|0|8,3:0|3:0|3:1,0:0:0:0:
435,292,254520,6,0,P|386:229|267:250,1,190,4|2,0:2|0:2,0:0:0:0:
187,357,254888,1,8,0:0:0:0:
210,182,255011,1,2,0:2:0:0:
346,310,255134,2,0,L|358:195,1,95,0|2,0:0|0:2,0:0:0:0:
369,90,255380,1,8,0:0:0:0:
204,19,255503,6,0,P|146:61|169:147,1,142.5,0|2,0:0|2:0,0:0:0:0:
210,182,255749,2,0,L|198:292,1,95,4|8,0:2|0:0,0:0:0:0:
93,198,255995,2,0,L|3:132,1,95,4|0,0:2|0:0,0:0:0:0:
137,88,256241,2,0,L|238:43,1,95,4|8,0:2|0:0,0:0:0:0:
240,262,256487,6,0,B|144:246|152:314|50:291,1,190,4|2,0:2|0:2,0:0:0:0:
213,345,256856,5,8,0:0:0:0:
210,182,256979,1,2,0:2:0:0:
318,334,257102,5,0,0:0:0:0:
234,171,257225,1,2,0:2:0:0:
400,263,257348,5,8,0:0:0:0:
252,151,257470,2,0,P|241:100|258:34,1,95,0|0,0:0|0:0,0:0:0:0:
326,101,257716,5,2,0:2:0:0:
313,235,257839,1,8,0:0:0:0:
435,179,257962,1,2,0:2:0:0:
457,185,258085,5,0,0:0:0:0:
296,251,258208,1,8,0:0:0:0:
320,78,258331,1,8,0:0:0:0:
400,263,258454,5,4,0:0:0:0:
