osu file format v14

[General]
AudioFilename: Variation.mp3
AudioLeadIn: 0
PreviewTime: 203042
Countdown: 0
SampleSet: None
StackLeniency: 0.7
Mode: 3
LetterboxInBreaks: 0
EpilepsyWarning: 1
SpecialStyle: 0
WidescreenStoryboard: 1

[Editor]
Bookmarks: 21690,29559,37428,45296,69026,84641,100378,115747,171567,188042,219518,244477
DistanceSpacing: 1.1
BeatDivisor: 4
GridSize: 4
TimelineZoom: 2

[Metadata]
Title:Kagerou Variation
TitleUnicode:影炎≒Variation
Artist:Hanatan
ArtistUnicode:花たん
Creator:Kenterz
Version:puxtu's NM
Source:
Tags:Yairi Fast puxtu
BeatmapID:635121
BeatmapSetID:185962

[Difficulty]
HPDrainRate:7.5
CircleSize:4
OverallDifficulty:7.5
ApproachRate:9.5
SliderMultiplier:1.9
SliderTickRate:1

[Events]
//Background and Video events
0,0,"BG.jpg",0,0
//Break Periods
//Storyboard Layer 0 (Background)
Sprite,Background,Centre,"SB\black.jpg",320,240 F,0,195419,195911,0,0.4594871 M,0,195419,200706,320,240,304,288 V,0,199846,,1.472616,1.275692 F,0,199846,201936,1 R,0,199969,,0.2756921 M,0,200706,201321,304,288 F,0,201936,203042,1 S,0,202550,,1 F,0,203042,203411,1,0.004065037
//Storyboard Layer 1 (Fail)
//Storyboard Layer 2 (Pass)
//Storyboard Layer 3 (Foreground)
Sprite,Foreground,Centre,"SB\light.png",320,240 M,0,199969,,199,375 S,0,199969,,0.350154 F,0,199969,200214,1,0.1039999
Sprite,Foreground,Centre,"SB\light.png",320,240 M,0,201321,,481,159 V,0,201321,,1,1 F,0,201321,201444,1,0.7822565 S,0,201321,201567,0.2648204,0.3829743 F,0,201444,201567,0.7822565,0
Sprite,Foreground,Centre,"SB\light.png",320,240 M,0,201567,,394,167 F,0,201567,201690,1,0.7625641 S,0,201567,201813,0.3042052,0.4026666 F,0,201690,201813,0.7625641,0
Sprite,Foreground,Centre,"SB\light.png",320,240 M,0,199846,199907,416,320,312,344 V,0,199846,199907,0.3238974,0.3173334,0.7374356,0.2188715 R,0,199907,,-0.2756921 M,0,199907,199969,312,344,208,369 V,0,199907,199969,0.7374356,0.2188715,0.3107692,0.3238974
Sprite,Foreground,Centre,"SB\light.png",320,240 M,0,201813,,327,128 F,0,201813,202182,1,0 S,0,201813,202182,0.2976408,0.4026665
Sprite,Foreground,Centre,"SB\light.png",320,240 M,0,202182,,328,129 F,0,202182,202550,1,0 S,0,202182,202550,0.2976408,0.4157947
Sprite,Foreground,Centre,"SB\light.png",320,240 M,0,202550,,335,159 F,0,202550,203042,1,0 S,0,202550,203042,0.2713844,0.4026664
Sprite,Foreground,Centre,"SB\light.png",320,240 M,0,199846,,412,321 F,0,199846,200091,1,0.03179474 S,0,199846,200091,0.3895386
Sprite,Foreground,Centre,"SB\light.png",320,240 M,0,200706,,434,427 M,0,200706,,434,427 F,0,200706,200952,1,0 S,0,200829,,0.2845128
Sprite,Foreground,Centre,"SB\light.png",320,240 V,0,200583,200645,0.3895386,0.4354871,0.2649275,0.8490257 M,0,200583,200706,446,236,436,415 V,0,200645,200706,0.2649275,0.8490257,0.4157951,0.4354872 R,0,200706,,0.06564087
Sprite,Foreground,Centre,"SB\light.png",320,240 M,0,202059,,327,126 F,0,202059,,1 S,0,202059,,0.2976408
Sprite,Foreground,Centre,"SB\light.png",320,240 M,0,200583,,447,241 S,0,200583,,0.2845128 F,0,200583,200829,1,0
Sprite,Foreground,Centre,"SB\light.png",320,240 M,0,57223,,338,261 S,0,57223,,0.3501539 V,0,57223,,1.013128,0.9868718 F,0,57223,57469,1,0.09743584
Sprite,Foreground,Centre,"SB\light.png",320,240 M,0,57346,,78,234 S,0,57346,,0.3370256 F,0,57346,57591,1,0
Sprite,Foreground,Centre,"SB\light.png",320,240 M,0,57960,,308,346 S,0,57960,,0.3632825 F,0,57960,58206,1,0
Sprite,Foreground,Centre,"SB\light.png",320,240 M,0,58083,,219,161 S,0,58083,,0.3304616 F,0,58083,58329,1,0
Sprite,Foreground,Centre,"SB\light.png",320,240 F,0,57960,,1 V,0,57960,58022,0.3107691,0.3304613,0.501128,0.186051 M,0,57960,58083,314,344,219,162 R,0,58022,,1.181538 V,0,58022,58083,0.501128,0.186051,0.3435895,0.3501537
Sprite,Foreground,Centre,"SB\light.png",320,240 M,0,58698,,216,154 F,0,58698,58944,1,0 S,0,58698,58944,0.3501538,0.4683077
Sprite,Foreground,Centre,"SB\light.png",320,240 M,0,58944,,81,232 F,0,58944,59190,1,0 S,0,58944,59190,0.3238974,0.4551796
Sprite,Foreground,Centre,"SB\light.png",320,240 M,0,59190,59251,298,196,320,193 S,0,59190,59559,0.3764102 M,0,59251,59313,320,193,335,188 M,0,59313,59374,335,188,354,175 M,0,59374,59436,354,175,371,170 M,0,59436,59497,371,170,394,175 M,0,59497,59559,394,175,419,163 M,0,59559,59620,419,163,438,157 F,0,59559,59682,1,0 S,0,59559,59682,0.3764102,0.5864615 M,0,59620,59682,438,157,460,151
Sprite,Foreground,Centre,"SB\light.png",320,240 V,0,57223,57284,0.3370255,0.3435898,0.7965124,0.2057436 M,0,57223,57346,339,262,81,231 R,0,57284,,0.1444104 V,0,57284,57346,0.7965124,0.2057436,0.3435895,0.3238974
//Storyboard Sound Samples

[TimingPoints]
2809.02146656535,434.782608695652,4,2,1,25,1,0
9330,-66.6666666666667,4,2,1,25,0,0
9765,245.901639344262,4,1,1,50,1,0
10010,245.901639344262,4,1,1,50,1,0
61157,-100,4,1,1,50,0,1
81813,-100,4,1,1,50,0,0
131977,-100,4,1,1,50,0,1
152632,-100,4,1,1,50,0,0
203780,-100,4,1,1,50,0,1
203841,-100,4,1,1,50,0,0
209559,-100,4,1,1,50,0,1
219272,-100,4,1,1,50,0,0
219518,-100,4,1,1,50,0,1
227141,-100,4,1,1,50,0,0
227387,-100,4,1,1,50,0,1
236731,-100,4,1,1,50,0,0

[Colours]
Combo1 : 192,192,192
Combo2 : 255,255,255

[HitObjects]
64,192,2809,128,0,3243:0:0:0:0:
320,192,3243,128,0,3678:0:0:0:0:
192,192,3678,128,0,4548:0:0:0:0:
448,192,4113,128,0,4548:0:0:0:0:
64,192,4548,128,0,4982:0:0:0:0:
320,192,4982,128,0,5417:0:0:0:0:
448,192,5417,128,0,6287:0:0:0:0:
64,192,5852,128,0,6287:0:0:0:0:
320,192,6287,128,0,7156:0:0:0:0:
64,192,6722,128,0,7156:0:0:0:0:
448,192,7156,128,0,8026:0:0:0:0:
192,192,7591,128,0,8026:0:0:0:0:
64,192,8026,128,0,8895:0:0:0:0:
64,192,10010,1,4,0:0:0:0:
448,192,10010,1,2,0:0:0:0:
192,192,10010,1,8,0:0:0:0:
320,192,10255,1,2,0:0:0:0:
64,192,10337,1,2,0:0:0:0:
448,192,10419,1,2,0:0:0:0:
192,189,10501,1,4,2:0:0:0:
320,192,10501,1,2,0:0:0:0:
64,189,10747,1,2,0:0:0:0:
192,192,10747,1,4,2:0:0:0:
320,192,10993,1,4,2:0:0:0:
448,189,10993,1,2,0:0:0:0:
64,192,10993,1,8,0:0:0:0:
64,192,11485,1,2,0:0:0:0:
320,192,11485,1,4,2:0:0:0:
192,192,11485,1,8,0:0:0:0:
320,192,11854,1,2,0:0:0:0:
448,192,11854,1,4,0:0:0:0:
192,192,11854,1,8,0:0:0:0:
64,192,12100,1,2,0:0:0:0:
192,192,12161,1,2,0:0:0:0:
448,192,12223,1,2,0:0:0:0:
320,192,12223,1,8,0:0:0:0:
64,192,12469,1,8,0:0:0:0:
320,192,12469,1,2,0:0:0:0:
192,192,12591,1,2,0:0:0:0:
64,192,12837,1,2,0:0:0:0:
448,192,13206,1,2,0:0:0:0:
320,192,13268,1,2,0:0:0:0:
192,192,13329,1,2,0:0:0:0:
64,192,13391,1,2,0:0:0:0:
448,192,13452,1,8,0:0:0:0:
320,192,13452,1,2,0:0:0:0:
64,192,13821,1,2,0:0:0:0:
448,192,13821,1,4,0:0:0:0:
192,192,14067,1,2,0:0:0:0:
64,192,14190,1,0,2:0:0:0:
320,192,14313,1,2,0:0:0:0:
192,192,14436,1,2,0:0:0:0:
448,192,14436,1,8,0:0:0:0:
64,192,14436,1,0,2:0:0:0:
320,192,14559,1,2,0:0:0:0:
64,192,14682,1,0,2:0:0:0:
320,192,14805,1,2,0:0:0:0:
192,192,15050,1,2,0:0:0:0:
448,192,15173,1,0,2:0:0:0:
192,192,15296,1,2,0:0:0:0:
320,192,15419,1,8,0:0:0:0:
448,192,15419,1,2,0:0:0:0:
64,192,15419,1,0,2:0:0:0:
192,192,15542,1,2,0:0:0:0:
64,192,15665,1,0,2:0:0:0:
320,192,15788,1,2,0:0:0:0:
192,192,16034,1,2,0:0:0:0:
448,192,16157,1,0,2:0:0:0:
64,192,16280,1,2,0:0:0:0:
320,192,16403,1,2,0:0:0:0:
448,192,16403,1,8,0:0:0:0:
192,192,16403,1,0,2:0:0:0:
64,192,16526,1,2,0:0:0:0:
192,192,16649,1,2,0:0:0:0:
448,192,16649,1,8,0:0:0:0:
64,192,16772,1,2,0:0:0:0:
320,192,16772,1,8,0:0:0:0:
448,192,16895,1,2,0:0:0:0:
192,192,17018,1,2,0:0:0:0:
64,192,17018,1,0,2:0:0:0:
320,192,17264,1,2,0:0:0:0:
192,192,17264,1,0,2:0:0:0:
448,192,17509,1,2,0:0:0:0:
320,192,17509,1,0,2:0:0:0:
448,192,17755,1,2,0:0:0:0:
64,192,17755,1,4,0:0:0:0:
