osu file format v14

[General]
AudioFilename: Variation.mp3
AudioLeadIn: 0
PreviewTime: 203042
Countdown: 0
SampleSet: Normal
StackLeniency: 0.7
Mode: 3
LetterboxInBreaks: 0
EpilepsyWarning: 1
SpecialStyle: 0
WidescreenStoryboard: 1

[Editor]
Bookmarks: 21690,29559,37428,45296,69026,84641,100378,115747,171567,188042,219518,244477
DistanceSpacing: 1.1
BeatDivisor: 4
GridSize: 4
TimelineZoom: 1.5

[Metadata]
Title:Kagerou Variation
TitleUnicode:影炎≒Variation
Artist:Hanatan
ArtistUnicode:花たん
Creator:Kenterz
Version:puxtu's MX
Source:
Tags:Yairi Fast puxtu
BeatmapID:635119
BeatmapSetID:185962

[Difficulty]
HPDrainRate:8.5
CircleSize:4
OverallDifficulty:8.5
ApproachRate:9.5
SliderMultiplier:1.9
SliderTickRate:1

[Events]
//Background and Video events
0,0,"BG.jpg",0,0
//Break Periods
//Storyboard Layer 0 (Background)
Sprite,Background,Centre,"SB\black.jpg",320,240 F,0,195419,195911,0,0.4594871 M,0,195419,200706,320,240,304,288 V,0,199846,,1.472616,1.275692 F,0,199846,201936,1 R,0,199969,,0.2756921 M,0,200706,201321,304,288 F,0,201936,203042,1 S,0,202550,,1 F,0,203042,203411,1,0.004065037
//Storyboard Layer 1 (Fail)
//Storyboard Layer 2 (Pass)
//Storyboard Layer 3 (Foreground)
Sprite,Foreground,Centre,"SB\light.png",320,240 M,0,199969,,199,375 S,0,199969,,0.350154 F,0,199969,200214,1,0.1039999
Sprite,Foreground,Centre,"SB\light.png",320,240 M,0,201321,,481,159 V,0,201321,,1,1 F,0,201321,201444,1,0.7822565 S,0,201321,201567,0.2648204,0.3829743 F,0,201444,201567,0.7822565,0
Sprite,Foreground,Centre,"SB\light.png",320,240 M,0,201567,,394,167 F,0,201567,201690,1,0.7625641 S,0,201567,201813,0.3042052,0.4026666 F,0,201690,201813,0.7625641,0
Sprite,Foreground,Centre,"SB\light.png",320,240 M,0,199846,199907,416,320,312,344 V,0,199846,199907,0.3238974,0.3173334,0.7374356,0.2188715 R,0,199907,,-0.2756921 M,0,199907,199969,312,344,208,369 V,0,199907,199969,0.7374356,0.2188715,0.3107692,0.3238974
Sprite,Foreground,Centre,"SB\light.png",320,240 M,0,201813,,327,128 F,0,201813,202182,1,0 S,0,201813,202182,0.2976408,0.4026665
Sprite,Foreground,Centre,"SB\light.png",320,240 M,0,202182,,328,129 F,0,202182,202550,1,0 S,0,202182,202550,0.2976408,0.4157947
Sprite,Foreground,Centre,"SB\light.png",320,240 M,0,202550,,335,159 F,0,202550,203042,1,0 S,0,202550,203042,0.2713844,0.4026664
Sprite,Foreground,Centre,"SB\light.png",320,240 M,0,199846,,412,321 F,0,199846,200091,1,0.03179474 S,0,199846,200091,0.3895386
Sprite,Foreground,Centre,"SB\light.png",320,240 M,0,200706,,434,427 M,0,200706,,434,427 F,0,200706,200952,1,0 S,0,200829,,0.2845128
Sprite,Foreground,Centre,"SB\light.png",320,240 V,0,200583,200645,0.3895386,0.4354871,0.2649275,0.8490257 M,0,200583,200706,446,236,436,415 V,0,200645,200706,0.2649275,0.8490257,0.4157951,0.4354872 R,0,200706,,0.06564087
Sprite,Foreground,Centre,"SB\light.png",320,240 M,0,202059,,327,126 F,0,202059,,1 S,0,202059,,0.2976408
Sprite,Foreground,Centre,"SB\light.png",320,240 M,0,200583,,447,241 S,0,200583,,0.2845128 F,0,200583,200829,1,0
Sprite,Foreground,Centre,"SB\light.png",320,240 M,0,57223,,338,261 S,0,57223,,0.3501539 V,0,57223,,1.013128,0.9868718 F,0,57223,57469,1,0.09743584
Sprite,Foreground,Centre,"SB\light.png",320,240 M,0,57346,,78,234 S,0,57346,,0.3370256 F,0,57346,57591,1,0
Sprite,Foreground,Centre,"SB\light.png",320,240 M,0,57960,,308,346 S,0,57960,,0.3632825 F,0,57960,58206,1,0
Sprite,Foreground,Centre,"SB\light.png",320,240 M,0,58083,,219,161 S,0,58083,,0.3304616 F,0,58083,58329,1,0
Sprite,Foreground,Centre,"SB\light.png",320,240 F,0,57960,,1 V,0,57960,58022,0.3107691,0.3304613,0.501128,0.186051 M,0,57960,58083,314,344,219,162 R,0,58022,,1.181538 V,0,58022,58083,0.501128,0.186051,0.3435895,0.3501537
Sprite,Foreground,Centre,"SB\light.png",320,240 M,0,58698,,216,154 F,0,58698,58944,1,0 S,0,58698,58944,0.3501538,0.4683077
Sprite,Foreground,Centre,"SB\light.png",320,240 M,0,58944,,81,232 F,0,58944,59190,1,0 S,0,58944,59190,0.3238974,0.4551796
Sprite,Foreground,Centre,"SB\light.png",320,240 M,0,59190,59251,298,196,320,193 S,0,59190,59559,0.3764102 M,0,59251,59313,320,193,335,188 M,0,59313,59374,335,188,354,175 M,0,59374,59436,354,175,371,170 M,0,59436,59497,371,170,394,175 M,0,59497,59559,394,175,419,163 M,0,59559,59620,419,163,438,157 F,0,59559,59682,1,0 S,0,59559,59682,0.3764102,0.5864615 M,0,59620,59682,438,157,460,151
Sprite,Foreground,Centre,"SB\light.png",320,240 V,0,57223,57284,0.3370255,0.3435898,0.7965124,0.2057436 M,0,57223,57346,339,262,81,231 R,0,57284,,0.1444104 V,0,57284,57346,0.7965124,0.2057436,0.3435895,0.3238974
//Storyboard Sound Samples

[TimingPoints]
2809.02146656535,434.782608695652,4,2,1,25,1,0
9330,-66.6666666666667,4,2,1,25,0,0
9765,245.901639344262,4,1,1,50,1,0
10010,245.901639344262,4,1,1,50,1,0
61157,-100,4,1,1,50,0,1
81813,-100,4,1,1,50,0,0
131977,-100,4,1,1,50,0,1
152632,-100,4,1,1,50,0,0
203780,-100,4,1,1,50,0,1
203841,-100,4,1,1,50,0,0
209559,-100,4,1,1,50,0,1
219272,-100,4,1,1,50,0,0
219518,-100,4,1,1,50,0,1
227141,-100,4,1,1,50,0,0
227387,-100,4,1,1,50,0,1
236731,-100,4,1,1,50,0,0

[Colours]
Combo1 : 192,192,192
Combo2 : 255,255,255

[HitObjects]
64,192,10010,1,4,0:0:0:0:
448,192,10010,1,2,0:0:0:0:
192,192,10010,1,8,0:0:0:0:
320,192,10255,1,2,0:0:0:0:
64,192,10337,1,2,0:0:0:0:
448,192,10419,1,2,0:0:0:0:
192,189,10501,1,4,2:0:0:0:
320,192,10501,1,2,0:0:0:0:
64,189,10747,1,2,0:0:0:0:
192,192,10747,1,4,2:0:0:0:
320,192,10993,1,4,2:0:0:0:
448,189,10993,1,2,0:0:0:0:
64,192,10993,1,8,0:0:0:0:
64,192,11485,1,2,0:0:0:0:
320,192,11485,1,4,2:0:0:0:
192,192,11485,1,8,0:0:0:0:
320,192,11854,1,2,0:0:0:0:
448,192,11854,1,4,0:0:0:0:
192,192,11854,1,8,0:0:0:0:
64,192,12100,1,2,0:0:0:0:
192,192,12161,1,2,0:0:0:0:
448,192,12223,1,2,0:0:0:0:
320,192,12223,1,8,0:0:0:0:
64,192,12469,1,8,0:0:0:0:
320,192,12469,1,2,0:0:0:0:
192,192,12591,1,2,0:0:0:0:
64,192,12837,1,2,0:0:0:0:
448,192,13206,1,2,0:0:0:0:
192,192,13329,1,2,0:0:0:0:
64,192,13391,1,2,0:0:0:0:
448,192,13452,1,8,0:0:0:0:
320,192,13452,1,2,0:0:0:0:
64,192,13821,1,2,0:0:0:0:
448,192,13821,1,4,0:0:0:0:
192,192,14067,1,2,0:0:0:0:
64,192,14190,1,0,2:0:0:0:
320,192,14313,1,2,0:0:0:0:
192,192,14436,1,2,0:0:0:0:
448,192,14436,1,8,0:0:0:0:
64,192,14436,1,0,2:0:0:0:
320,192,14559,1,2,0:0:0:0:
64,192,14682,1,0,2:0:0:0:
320,192,14805,1,2,0:0:0:0:
64,192,15009,1,0,2:0:0:0:
192,192,15050,1,2,0:0:0:0:
448,192,15173,1,0,2:0:0:0:
192,192,15296,1,2,0:0:0:0:
320,192,15419,1,8,0:0:0:0:
448,192,15419,1,2,0:0:0:0:
64,192,15419,1,0,2:0:0:0:
192,192,15542,1,2,0:0:0:0:
64,192,15665,1,0,2:0:0:0:
320,192,15788,1,2,0:0:0:0:
192,192,16034,1,2,0:0:0:0:
448,192,16157,1,0,2:0:0:0:
64,192,16280,1,2,0:0:0:0:
320,192,16403,1,2,0:0:0:0:
448,192,16403,1,8,0:0:0:0:
192,192,16403,1,0,2:0:0:0:
64,192,16526,1,2,0:0:0:0:
192,192,16649,1,2,0:0:0:0:
448,192,16649,1,8,0:0:0:0:
64,192,16772,1,2,0:0:0:0:
320,192,16772,1,8,0:0:0:0:
448,192,16895,1,2,0:0:0:0:
192,192,17018,1,2,0:0:0:0:
64,192,17018,1,0,2:0:0:0:
320,192,17264,1,2,0:0:0:0:
192,192,17264,1,0,2:0:0:0:
448,192,17509,1,2,0:0:0:0:
320,192,17509,1,0,2:0:0:0:
448,192,17755,1,2,0:0:0:0:
64,192,17755,1,4,0:0:0:0:
192,192,18001,1,2,0:0:0:0:
64,192,18124,1,0,2:0:0:0:
192,192,18247,1,2,0:0:0:0:
448,192,18370,1,2,0:0:0:0:
320,192,18370,1,8,0:0:0:0:
64,192,18370,1,0,2:0:0:0:
192,192,18493,1,2,0:0:0:0:
448,192,18616,1,0,2:0:0:0:
320,192,18739,1,2,0:0:0:0:
192,192,18944,1,0,2:0:0:0:
64,192,18985,1,2,0:0:0:0:
448,192,19108,1,0,2:0:0:0:
320,192,19231,1,2,0:0:0:0:
448,192,19354,1,8,0:0:0:0:
192,192,19354,1,2,0:0:0:0:
64,192,19354,1,0,2:0:0:0:
320,192,19477,1,2,0:0:0:0:
448,192,19600,1,0,2:0:0:0:
64,192,19723,1,8,0:0:0:0:
192,192,19723,1,2,0:0:0:0:
448,192,19846,1,2,0:0:0:0:
320,192,19907,1,2,0:0:0:0:
192,192,19969,1,2,0:0:0:0:
64,192,19969,1,8,0:0:0:0:
320,192,20091,1,2,0:0:0:0:
448,192,20091,1,8,0:0:0:0:
64,192,20214,1,2,0:0:0:0:
192,192,20276,1,2,0:0:0:0:
448,192,20337,1,8,0:0:0:0:
320,192,20337,1,2,0:0:0:0:
448,192,20583,1,8,0:0:0:0:
320,192,20583,1,2,0:0:0:0:
64,192,20583,1,0,2:0:0:0:
192,192,20706,1,2,0:0:0:0:
320,192,20952,1,2,0:0:0:0:
448,192,21075,1,0,2:0:0:0:
64,192,21198,1,2,0:0:0:0:
192,192,21259,1,2,0:0:0:0:
320,192,21321,1,2,0:0:0:0:
448,192,21321,1,8,0:0:0:0:
192,192,21444,1,8,0:0:0:0:
64,192,21444,1,2,0:0:0:0:
320,192,21567,1,2,0:0:0:0:
448,192,21567,1,8,0:0:0:0:
448,192,21690,1,4,0:0:0:0:
64,192,21690,1,2,0:0:0:0:
192,192,21936,1,2,0:0:0:0:
320,192,22059,1,2,0:0:0:0:
448,192,22059,1,8,0:0:0:0:
64,192,22059,1,0,2:0:0:0:
64,192,22305,1,2,0:0:0:0:
192,192,22428,1,2,0:0:0:0:
320,192,22550,1,2,0:0:0:0:
448,192,22550,1,8,0:0:0:0:
64,192,22550,1,0,2:0:0:0:
448,192,22673,1,2,0:0:0:0:
320,192,22878,1,0,2:0:0:0:
192,192,22919,1,2,0:0:0:0:
320,192,23042,1,2,0:0:0:0:
448,192,23042,1,8,0:0:0:0:
64,192,23042,1,0,2:0:0:0:
64,192,23165,1,2,0:0:0:0:
448,192,23288,1,2,0:0:0:0:
192,192,23411,1,2,0:0:0:0:
320,192,23534,1,2,0:0:0:0:
448,192,23534,1,8,0:0:0:0:
64,192,23534,1,0,2:0:0:0:
448,192,23657,1,2,0:0:0:0:
192,192,23657,1,4,0:0:0:0:
320,192,23903,1,2,0:0:0:0:
192,192,24026,1,2,0:0:0:0:
448,192,24026,1,8,0:0:0:0:
64,192,24026,1,0,2:0:0:0:
64,192,24149,1,2,0:0:0:0:
192,192,24272,1,2,0:0:0:0:
320,192,24395,1,2,0:0:0:0:
192,192,24518,1,2,0:0:0:0:
448,192,24518,1,8,0:0:0:0:
64,192,24518,1,0,2:0:0:0:
320,192,24641,1,2,0:0:0:0:
64,192,24887,1,2,0:0:0:0:
192,192,24948,1,2,0:0:0:0:
448,192,25009,1,2,0:0:0:0:
320,192,25009,1,8,0:0:0:0:
64,192,25132,1,2,0:0:0:0:
192,192,25255,1,2,0:0:0:0:
320,192,25255,1,8,0:0:0:0:
448,192,25378,1,2,0:0:0:0:
320,192,25440,1,2,0:0:0:0:
192,192,25501,1,2,0:0:0:0:
64,192,25501,1,8,0:0:0:0:
64,192,25624,1,4,0:0:0:0:
448,192,25624,1,2,0:0:0:0:
320,192,25870,1,2,0:0:0:0:
192,192,25993,1,8,0:0:0:0:
448,192,25993,1,2,0:0:0:0:
64,192,25993,1,0,2:0:0:0:
192,192,26116,1,2,0:0:0:0:
320,192,26362,1,2,0:0:0:0:
192,192,26485,1,2,0:0:0:0:
448,192,26485,1,8,0:0:0:0:
64,192,26485,1,0,2:0:0:0:
448,192,26608,1,2,0:0:0:0:
320,192,26813,1,0,2:0:0:0:
192,192,26854,1,2,0:0:0:0:
320,192,26977,1,2,0:0:0:0:
448,192,26977,1,8,0:0:0:0:
64,192,26977,1,0,2:0:0:0:
320,192,27100,1,2,0:0:0:0:
448,192,27346,1,2,0:0:0:0:
320,192,27469,1,2,0:0:0:0:
192,192,27469,1,8,0:0:0:0:
64,192,27469,1,0,2:0:0:0:
448,192,27591,1,4,0:0:0:0:
64,192,27591,1,2,0:0:0:0:
192,192,27837,1,2,0:0:0:0:
448,192,27960,1,8,0:0:0:0:
192,192,27960,1,2,0:0:0:0:
64,192,27960,1,0,2:0:0:0:
320,192,28083,1,2,0:0:0:0:
448,192,28329,1,2,0:0:0:0:
320,192,28452,1,2,0:0:0:0:
448,192,28452,1,8,0:0:0:0:
64,192,28452,1,0,2:0:0:0:
192,192,28575,1,2,0:0:0:0:
320,192,28821,1,2,0:0:0:0:
64,192,28944,1,8,0:0:0:0:
448,192,28944,1,2,0:0:0:0:
192,192,29067,1,2,0:0:0:0:
320,192,29190,1,2,0:0:0:0:
64,192,29190,1,4,0:0:0:0:
320,192,29313,1,2,2:0:0:0:
320,192,29436,1,2,2:0:0:0:
448,192,29559,1,4,0:0:0:0:
64,192,29559,1,2,0:0:0:0:
192,192,29559,1,8,0:0:0:0:
320,192,29928,1,2,0:0:0:0:
192,192,29928,1,0,2:0:0:0:
192,192,30173,1,2,0:0:0:0:
448,192,30173,1,8,0:0:0:0:
64,192,30173,1,0,2:0:0:0:
448,192,30419,1,2,0:0:0:0:
64,192,30419,1,0,2:0:0:0:
192,192,30911,1,2,0:0:0:0:
320,192,30911,1,0,2:0:0:0:
448,192,31157,1,8,0:0:0:0:
320,192,31157,1,2,0:0:0:0:
64,192,31157,1,0,2:0:0:0:
64,189,31403,1,0,2:0:0:0:
448,192,31526,1,2,0:0:0:0:
320,192,31772,1,2,0:0:0:0:
192,192,31895,1,0,2:0:0:0:
64,192,31895,1,0,2:0:0:0:
320,192,32141,1,2,0:0:0:0:
448,192,32141,1,8,0:0:0:0:
64,192,32141,1,0,2:0:0:0:
192,192,32387,1,2,0:0:0:0:
448,192,32509,1,2,0:0:0:0:
320,192,32755,1,2,0:0:0:0:
64,192,32755,1,0,2:0:0:0:
192,192,33001,1,2,0:0:0:0:
192,192,33124,1,2,0:0:0:0:
448,192,33124,1,8,0:0:0:0:
64,192,33124,1,0,2:0:0:0:
320,192,33247,1,2,0:0:0:0:
320,192,33370,1,0,2:0:0:0:
448,192,33493,1,4,0:0:0:0:
192,189,33493,1,2,0:0:0:0:
448,192,33739,1,2,0:0:0:0:
320,192,33739,1,0,2:0:0:0:
192,192,33862,1,0,2:0:0:0:
64,192,34108,1,2,0:0:0:0:
320,192,34108,1,8,0:0:0:0:
448,192,34108,1,0,2:0:0:0:
448,192,34354,1,2,0:0:0:0:
64,192,34354,1,0,2:0:0:0:
320,192,34846,1,2,0:0:0:0:
192,192,34846,1,0,2:0:0:0:
192,192,35091,1,2,0:0:0:0:
448,192,35091,1,8,0:0:0:0:
64,192,35091,1,0,2:0:0:0:
320,192,35337,1,0,2:0:0:0:
192,192,35337,1,0,2:0:0:0:
64,192,35460,1,2,0:0:0:0:
448,192,35460,1,8,0:0:0:0:
192,192,35583,1,0,2:0:0:0:
320,192,35706,1,8,0:0:0:0:
64,192,35706,1,2,0:0:0:0:
192,192,35829,1,2,0:0:0:0:
448,192,35829,1,8,0:0:0:0:
64,192,35952,1,2,0:0:0:0:
192,192,36014,1,2,0:0:0:0:
320,192,36075,1,2,0:0:0:0:
448,192,36075,1,8,0:0:0:0:
64,192,36198,1,2,0:0:0:0:
192,192,36259,1,2,0:0:0:0:
320,192,36321,1,2,0:0:0:0:
448,192,36321,1,8,0:0:0:0:
64,192,36444,1,2,0:0:0:0:
320,192,36567,1,2,0:0:0:0:
192,192,36690,1,2,0:0:0:0:
448,192,36813,1,2,0:0:0:0:
64,192,36936,1,2,0:0:0:0:
192,192,37059,1,2,0:0:0:0:
320,192,37059,1,8,0:0:0:0:
448,192,37182,1,8,0:0:0:0:
64,192,37182,1,2,0:0:0:0:
192,192,37305,1,2,0:0:0:0:
320,192,37305,1,8,0:0:0:0:
448,192,37428,1,4,0:0:0:0:
64,192,37428,1,2,0:0:0:0:
320,192,37428,1,8,0:0:0:0:
192,192,37796,1,2,0:0:0:0:
320,192,37796,1,0,2:0:0:0:
320,192,38042,1,2,0:0:0:0:
448,192,38042,1,8,0:0:0:0:
64,192,38042,1,0,2:0:0:0:
64,192,38288,1,2,0:0:0:0:
448,192,38288,1,0,2:0:0:0:
320,192,38780,1,2,0:0:0:0:
192,192,38780,1,0,2:0:0:0:
192,192,39026,1,2,0:0:0:0:
448,192,39026,1,8,0:0:0:0:
64,192,39026,1,0,2:0:0:0:
320,192,39272,1,0,2:0:0:0:
64,192,39395,1,2,0:0:0:0:
448,192,39395,1,4,0:0:0:0:
192,192,39764,1,2,0:0:0:0:
320,192,39764,1,0,2:0:0:0:
448,192,40009,1,8,0:0:0:0:
320,192,40009,1,2,0:0:0:0:
64,192,40009,1,0,2:0:0:0:
192,192,40255,1,0,2:0:0:0:
64,192,40378,1,2,0:0:0:0:
448,192,40624,1,2,0:0:0:0:
320,192,40747,1,2,0:0:0:0:
192,192,40747,1,0,2:0:0:0:
192,192,40993,1,2,0:0:0:0:
320,192,40993,1,8,0:0:0:0:
64,192,40993,1,0,2:0:0:0:
448,192,41116,1,2,0:0:0:0:
64,192,41239,1,0,2:0:0:0:
448,192,41362,1,4,0:0:0:0:
192,192,41362,1,2,0:0:0:0:
192,192,41731,1,2,0:0:0:0:
320,192,41731,1,0,2:0:0:0:
448,192,41977,1,8,0:0:0:0:
320,192,41977,1,2,0:0:0:0:
64,192,41977,1,0,2:0:0:0:
64,192,42223,1,0,2:0:0:0:
448,192,42346,1,2,0:0:0:0:
320,192,42591,1,2,0:0:0:0:
192,192,42714,1,2,0:0:0:0:
320,192,42837,1,2,0:0:0:0:
192,192,42960,1,2,0:0:0:0:
448,192,42960,1,8,0:0:0:0:
64,192,42960,1,0,2:0:0:0:
448,192,43083,1,2,0:0:0:0:
192,192,43206,1,0,2:0:0:0:
320,192,43329,1,2,0:0:0:0:
64,192,43329,1,4,0:0:0:0:
320,192,43698,1,2,0:0:0:0:
448,192,43698,1,0,2:0:0:0:
192,192,43944,1,2,0:0:0:0:
320,192,43944,1,8,0:0:0:0:
64,192,43944,1,0,2:0:0:0:
448,192,44190,1,0,2:0:0:0:
64,187,44313,1,2,0:0:0:0:
192,192,44436,1,2,0:0:0:0:
64,192,44497,1,2,0:0:0:0:
448,192,44559,1,2,0:0:0:0:
320,192,44620,1,2,0:0:0:0:
192,192,44682,1,2,0:0:0:0:
64,192,44743,1,2,0:0:0:0:
448,192,44805,1,2,0:0:0:0:
320,192,44866,1,2,0:0:0:0:
64,192,44928,1,2,0:0:0:0:
192,192,44928,1,8,0:0:0:0:
320,192,44989,1,4,0:0:0:0:
448,192,44989,1,2,0:0:0:0:
192,192,45419,1,0,2:0:0:0:
64,192,45419,128,4,45788:0:0:0:0:
448,192,45419,1,2,0:0:0:0:
320,192,45788,1,0,2:0:0:0:
448,192,45788,128,4,46157:0:0:0:0:
192,192,45788,1,2,0:0:0:0:
192,192,46157,128,4,46526:0:0:0:0:
320,192,46157,1,2,0:0:0:0:
64,192,46157,1,0,2:0:0:0:
448,192,46526,1,2,0:0:0:0:
64,192,46526,1,0,2:0:0:0:
448,192,46772,1,2,0:0:0:0:
320,192,46833,1,2,0:0:0:0:
192,192,46895,1,2,0:0:0:0:
64,192,46895,1,8,0:0:0:0:
320,192,47018,1,2,0:0:0:0:
448,192,47018,1,8,0:0:0:0:
192,192,47141,1,2,0:0:0:0:
64,192,47141,1,8,0:0:0:0:
320,192,47264,1,2,0:0:0:0:
448,192,47264,1,8,0:0:0:0:
448,192,47387,1,2,0:0:0:0:
192,192,47387,128,4,47755:0:0:0:0:
64,192,47387,1,0,2:0:0:0:
448,192,47755,128,4,48124:0:0:0:0:
320,192,47755,1,2,0:0:0:0:
64,192,47755,1,0,2:0:0:0:
320,192,48124,1,0,2:0:0:0:
64,192,48124,128,4,48493:0:0:0:0:
192,192,48124,1,2,0:0:0:0:
192,192,48493,1,0,2:0:0:0:
448,192,48493,1,6,0:0:0:0:
64,192,48739,1,2,0:0:0:0:
192,192,48800,1,2,0:0:0:0:
320,192,48862,1,2,0:0:0:0:
64,192,48862,1,0,2:0:0:0:
192,192,48985,1,0,2:0:0:0:
448,192,48985,1,2,0:0:0:0:
64,192,49108,1,0,2:0:0:0:
320,192,49108,1,2,0:0:0:0:
448,192,49231,1,0,2:0:0:0:
192,192,49231,1,2,0:0:0:0:
64,192,49354,1,0,2:0:0:0:
448,192,49354,128,4,49723:0:0:0:0:
320,192,49354,1,2,0:0:0:0:
320,192,49723,1,0,2:0:0:0:
64,192,49723,128,4,50091:0:0:0:0:
192,192,49723,1,2,0:0:0:0:
192,192,50091,1,0,2:0:0:0:
320,192,50091,128,4,50460:0:0:0:0:
448,192,50091,1,2,0:0:0:0:
448,192,50460,1,0,2:0:0:0:
64,192,50460,1,6,0:0:0:0:
192,192,50706,1,2,0:0:0:0:
448,192,50768,1,2,0:0:0:0:
64,192,50829,1,8,0:0:0:0:
320,192,50829,1,2,0:0:0:0:
192,192,50911,1,2,0:0:0:0:
448,192,50993,1,2,0:0:0:0:
320,192,51075,1,2,0:0:0:0:
64,192,51075,1,8,0:0:0:0:
192,192,51157,1,2,0:0:0:0:
448,192,51239,1,2,0:0:0:0:
320,192,51321,1,2,0:0:0:0:
64,192,51321,128,4,51690:0:0:0:0:
448,192,51690,128,4,52059:0:0:0:0:
192,192,51690,1,2,0:0:0:0:
64,192,51936,1,2,0:0:0:0:
192,192,51997,1,2,0:0:0:0:
64,192,52059,128,4,52428:0:0:0:0:
320,192,52059,1,2,0:0:0:0:
448,192,52182,1,2,0:0:0:0:
320,192,52305,1,2,0:0:0:0:
448,192,52428,1,8,0:0:0:0:
192,192,52428,1,2,0:0:0:0:
320,192,52550,1,2,0:0:0:0:
192,192,52673,1,2,0:0:0:0:
64,192,52796,1,2,0:0:0:0:
448,192,52796,1,8,0:0:0:0:
320,192,52919,1,2,0:0:0:0:
64,192,53042,1,2,0:0:0:0:
448,192,53165,1,2,0:0:0:0:
192,192,53288,1,4,0:0:0:0:
320,192,53288,1,2,0:0:0:0:
64,192,53288,1,0,2:0:0:0:
448,192,53534,1,2,0:0:0:0:
192,192,53657,1,2,0:0:0:0:
448,192,53780,1,2,0:0:0:0:
320,192,53780,1,8,0:0:0:0:
64,192,53780,1,0,2:0:0:0:
192,192,54026,1,2,0:0:0:0:
64,192,54272,1,2,0:0:0:0:
320,192,54395,1,2,0:0:0:0:
320,192,54641,1,2,0:0:0:0:
192,192,54702,1,2,0:0:0:0:
320,192,54764,1,2,0:0:0:0:
448,192,54764,1,8,0:0:0:0:
64,192,54764,1,0,2:0:0:0:
448,192,54887,1,2,0:0:0:0:
192,192,55132,1,2,0:0:0:0:
320,192,55255,1,2,0:0:0:0:
448,192,55255,1,4,0:0:0:0:
64,192,55255,1,0,2:0:0:0:
192,192,55624,1,2,0:0:0:0:
448,192,55686,1,2,0:0:0:0:
64,192,55747,1,8,0:0:0:0:
320,192,55747,1,2,0:0:0:0:
192,192,55993,1,2,0:0:0:0:
448,192,56239,1,2,0:0:0:0:
192,192,56239,1,8,0:0:0:0:
64,192,56239,1,0,2:0:0:0:
320,192,56362,1,2,0:0:0:0:
448,192,56608,1,2,0:0:0:0:
320,192,56669,1,2,0:0:0:0:
192,192,56731,1,8,0:0:0:0:
64,192,56731,1,2,0:0:0:0:
448,192,56854,1,2,0:0:0:0:
64,192,56977,1,2,0:0:0:0:
320,192,57100,1,2,0:0:0:0:
64,192,57223,1,8,0:0:0:0:
192,192,57223,1,2,0:0:0:0:
320,192,57346,1,8,0:0:0:0:
448,190,57346,1,2,0:0:0:0:
64,192,57469,128,0,57591:2:0:0:0:
64,192,57714,128,0,57960:2:0:0:0:
192,192,57960,1,2,0:0:0:0:
448,192,57960,1,8,0:0:0:0:
320,192,58083,1,8,0:0:0:0:
64,192,58083,1,2,0:0:0:0:
192,192,58206,128,0,58329:2:0:0:0:
192,192,58452,128,0,58698:2:0:0:0:
64,192,58698,1,2,0:0:0:0:
448,192,58698,1,8,0:0:0:0:
64,192,58944,1,2,0:0:0:0:
448,192,58944,1,8,0:0:0:0:
64,192,59190,1,2,0:0:0:0:
448,192,59190,1,8,0:0:0:0:
320,192,59436,128,0,59559:2:0:0:0:
320,192,59682,128,0,59928:2:0:0:0:
64,192,59928,1,0,2:0:0:0:
448,192,60050,128,0,60173:2:0:0:0:
192,190,60173,1,0,2:0:0:0:
64,192,60296,128,0,60419:2:0:0:0:
448,190,60419,1,0,2:0:0:0:
320,192,60542,128,0,60788:2:0:0:0:
192,187,60665,128,0,60788:2:0:0:0:
64,192,61157,1,2,0:0:0:0:
448,192,61157,1,4,0:0:0:0:
320,192,61157,1,8,0:0:0:0:
192,192,61403,1,8,0:0:0:0:
448,192,61403,1,2,0:0:0:0:
320,192,61526,1,2,0:0:0:0:
64,192,61772,1,2,0:0:0:0:
192,192,61833,1,2,0:0:0:0:
320,192,61895,1,2,0:0:0:0:
448,192,61895,1,8,0:0:0:0:
448,192,62264,1,2,0:0:0:0:
320,192,62325,1,2,0:0:0:0:
64,192,62387,1,8,0:0:0:0:
192,192,62387,1,2,0:0:0:0:
320,192,62632,1,2,0:0:0:0:
192,192,62755,1,2,0:0:0:0:
320,192,62878,1,2,0:0:0:0:
64,192,62878,1,8,0:0:0:0:
448,192,63124,1,2,0:0:0:0:
64,192,63124,1,4,0:0:0:0:
192,192,63370,1,2,0:0:0:0:
448,192,63370,1,8,0:0:0:0:
320,192,63493,1,2,0:0:0:0:
192,192,63739,1,2,0:0:0:0:
64,192,63862,1,2,0:0:0:0:
320,192,63862,1,8,0:0:0:0:
448,192,64108,1,2,0:0:0:0:
192,192,64190,1,2,0:0:0:0:
320,192,64272,1,2,0:0:0:0:
64,192,64354,1,2,0:0:0:0:
448,192,64354,1,8,0:0:0:0:
64,192,64600,1,2,0:0:0:0:
320,192,64682,1,2,0:0:0:0:
192,192,64764,1,2,0:0:0:0:
448,192,64846,1,8,0:0:0:0:
64,192,64846,1,2,0:0:0:0:
192,192,65091,1,2,0:0:0:0:
448,192,65091,1,4,0:0:0:0:
64,192,65337,1,8,0:0:0:0:
320,192,65337,1,2,0:0:0:0:
192,192,65460,1,2,0:0:0:0:
448,192,65706,1,2,0:0:0:0:
320,192,65768,1,2,0:0:0:0:
192,192,65829,1,2,0:0:0:0:
64,192,65829,1,8,0:0:0:0:
64,192,66198,1,2,0:0:0:0:
192,192,66259,1,2,0:0:0:0:
448,192,66321,1,2,0:0:0:0:
320,192,66321,1,8,0:0:0:0:
64,192,66444,1,2,0:0:0:0:
448,192,66567,1,2,0:0:0:0:
192,192,66690,1,2,0:0:0:0:
64,192,66813,1,8,0:0:0:0:
320,192,66813,1,2,0:0:0:0:
192,192,66936,1,8,0:0:0:0:
448,192,66936,1,2,0:0:0:0:
448,192,67182,1,2,0:0:0:0:
320,192,67243,1,2,0:0:0:0:
192,192,67305,1,2,0:0:0:0:
64,192,67305,1,8,0:0:0:0:
448,192,67428,1,2,0:0:0:0:
320,192,67489,1,2,0:0:0:0:
192,192,67550,1,2,0:0:0:0:
64,192,67550,1,8,0:0:0:0:
448,192,67673,1,2,0:0:0:0:
320,192,67735,1,2,0:0:0:0:
192,192,67796,1,2,0:0:0:0:
64,192,67796,1,8,0:0:0:0:
448,192,67919,1,2,0:0:0:0:
320,192,67981,1,2,0:0:0:0:
192,192,68042,1,2,0:0:0:0:
64,192,68042,1,8,0:0:0:0:
448,192,68124,1,2,0:0:0:0:
320,192,68206,1,2,0:0:0:0:
64,192,68288,1,2,0:0:0:0:
192,192,68370,1,2,0:0:0:0:
320,192,68452,1,2,0:0:0:0:
448,192,68534,1,8,0:0:0:0:
192,192,68534,1,2,0:0:0:0:
64,192,68534,1,0,2:0:0:0:
448,192,68780,1,2,0:0:0:0:
320,192,68780,1,8,0:0:0:0:
192,192,68903,1,2,0:0:0:0:
64,192,68903,1,8,0:0:0:0:
64,192,69026,1,4,0:0:0:0:
448,192,69026,1,2,0:0:0:0:
448,192,69272,1,8,0:0:0:0:
320,192,69272,1,2,0:0:0:0:
64,192,69272,1,0,2:0:0:0:
192,192,69518,1,2,0:0:0:0:
320,192,69641,1,2,0:0:0:0:
192,192,69887,1,2,0:0:0:0:
448,192,69887,1,8,0:0:0:0:
64,192,69887,1,0,2:0:0:0:
320,192,70132,1,2,0:0:0:0:
192,192,70194,1,2,0:0:0:0:
64,192,70255,1,2,0:0:0:0:
448,192,70255,1,8,0:0:0:0:
320,192,70378,1,2,0:0:0:0:
192,192,70440,1,2,0:0:0:0:
64,192,70501,1,2,0:0:0:0:
448,192,70501,1,8,0:0:0:0:
320,192,70624,1,2,0:0:0:0:
192,192,70686,1,2,0:0:0:0:
64,192,70747,1,2,0:0:0:0:
448,192,70747,1,8,0:0:0:0:
192,192,70870,1,2,0:0:0:0:
320,192,70870,1,8,0:0:0:0:
64,192,70993,1,2,0:0:0:0:
448,192,70993,1,4,0:0:0:0:
320,192,71239,1,2,0:0:0:0:
192,192,71239,1,8,0:0:0:0:
64,192,71239,1,0,2:0:0:0:
448,192,71485,1,2,0:0:0:0:
192,192,71608,1,2,0:0:0:0:
448,192,71854,1,8,0:0:0:0:
320,192,71854,1,2,0:0:0:0:
64,192,71854,1,0,2:0:0:0:
192,192,72100,1,8,0:0:0:0:
448,192,72100,1,2,0:0:0:0:
64,192,72223,1,8,0:0:0:0:
320,192,72223,1,2,0:0:0:0:
448,192,72346,1,2,0:0:0:0:
320,192,72407,1,2,0:0:0:0:
64,192,72469,1,8,0:0:0:0:
192,192,72469,1,2,0:0:0:0:
448,192,72550,1,2,0:0:0:0:
320,192,72632,1,2,0:0:0:0:
64,192,72714,1,8,0:0:0:0:
192,192,72714,1,2,0:0:0:0:
320,192,72796,1,2,0:0:0:0:
192,192,72878,1,2,0:0:0:0:
448,192,72960,1,2,0:0:0:0:
64,192,72960,1,4,0:0:0:0:
448,192,73206,1,8,0:0:0:0:
320,192,73206,1,2,0:0:0:0:
64,192,73206,1,0,2:0:0:0:
64,192,73452,1,2,0:0:0:0:
448,192,73575,1,2,0:0:0:0:
448,192,73821,1,8,0:0:0:0:
320,192,73821,1,2,0:0:0:0:
64,192,73821,1,0,2:0:0:0:
192,192,73944,1,2,0:0:0:0:
448,192,74067,1,2,0:0:0:0:
64,192,74190,1,2,0:0:0:0:
192,192,74190,1,8,0:0:0:0:
320,192,74313,1,2,0:0:0:0:
192,192,74374,1,2,0:0:0:0:
64,192,74436,1,2,0:0:0:0:
448,192,74436,1,8,0:0:0:0:
320,192,74518,1,2,0:0:0:0:
192,192,74600,1,2,0:0:0:0:
448,192,74682,1,2,0:0:0:0:
64,192,74764,1,2,0:0:0:0:
192,192,74846,1,2,0:0:0:0:
448,192,74928,1,2,0:0:0:0:
320,192,74928,1,4,0:0:0:0:
64,192,74928,1,0,2:0:0:0:
320,192,75173,1,2,0:0:0:0:
64,192,75173,1,8,0:0:0:0:
448,192,75296,1,8,0:0:0:0:
192,192,75296,1,2,0:0:0:0:
64,192,75419,1,2,0:0:0:0:
192,192,75481,1,2,0:0:0:0:
320,192,75542,1,2,0:0:0:0:
192,192,75665,1,2,0:0:0:0:
64,192,75665,1,8,0:0:0:0:
448,192,75788,1,2,0:0:0:0:
320,192,75850,1,2,0:0:0:0:
64,192,75911,1,8,0:0:0:0:
192,192,75911,1,2,0:0:0:0:
448,192,76034,1,2,0:0:0:0:
320,192,76096,1,2,0:0:0:0:
192,192,76157,1,2,0:0:0:0:
64,192,76157,1,8,0:0:0:0:
320,192,76280,1,2,0:0:0:0:
192,192,76341,1,2,0:0:0:0:
64,192,76403,1,8,0:0:0:0:
448,192,76403,1,2,0:0:0:0:
320,192,76464,1,2,0:0:0:0:
192,192,76526,1,2,0:0:0:0:
448,192,76587,1,2,0:0:0:0:
320,192,76649,1,2,0:0:0:0:
64,192,76710,1,2,0:0:0:0:
192,192,76772,1,2,0:0:0:0:
320,192,76833,1,2,0:0:0:0:
448,192,76895,1,2,0:0:0:0:
64,192,76895,1,4,0:0:0:0:
192,192,76895,1,8,0:0:0:0:
320,192,77141,1,2,0:0:0:0:
448,192,77141,1,8,0:0:0:0:
64,192,77141,1,0,2:0:0:0:
448,192,77387,1,2,0:0:0:0:
64,192,77509,1,2,0:0:0:0:
192,192,77632,1,2,0:0:0:0:
320,192,77632,1,8,0:0:0:0:
448,192,77755,1,4,0:0:0:0:
64,192,77755,1,2,0:0:0:0:
320,192,78001,1,2,0:0:0:0:
448,192,78124,1,2,0:0:0:0:
192,192,78124,1,8,0:0:0:0:
64,192,78247,1,2,0:0:0:0:
320,192,78370,1,2,0:0:0:0:
192,192,78493,1,2,0:0:0:0:
320,192,78616,1,2,0:0:0:0:
448,192,78616,1,8,0:0:0:0:
192,192,78739,1,2,0:0:0:0:
64,192,78739,1,8,0:0:0:0:
64,192,78862,1,2,0:0:0:0:
448,192,78862,1,4,0:0:0:0:
320,192,79108,1,2,0:0:0:0:
192,192,79108,1,8,0:0:0:0:
448,192,79108,1,0,2:0:0:0:
64,192,79354,1,2,0:0:0:0:
448,192,79354,1,4,0:0:0:0:
192,192,79477,1,2,0:0:0:0:
320,192,79600,1,8,0:0:0:0:
64,192,79600,1,2,0:0:0:0:
192,192,79723,1,2,0:0:0:0:
448,192,79723,1,4,0:0:0:0:
320,192,79969,1,2,0:0:0:0:
64,192,80091,1,8,0:0:0:0:
448,192,80091,1,2,0:0:0:0:
192,192,80214,1,2,0:0:0:0:
320,192,80276,1,2,0:0:0:0:
448,192,80337,1,2,0:0:0:0:
64,192,80337,1,8,0:0:0:0:
192,192,80419,1,2,0:0:0:0:
320,192,80501,1,2,0:0:0:0:
64,192,80583,1,2,0:0:0:0:
192,192,80665,1,2,0:0:0:0:
320,192,80747,1,2,0:0:0:0:
448,192,80829,1,8,0:0:0:0:
64,192,80829,1,2,0:0:0:0:
192,192,81075,1,2,0:0:0:0:
448,192,81157,1,2,0:0:0:0:
64,192,81239,1,2,0:0:0:0:
320,192,81321,1,8,0:0:0:0:
192,192,81321,1,2,0:0:0:0:
448,192,81567,1,2,0:0:0:0:
320,192,81567,1,8,0:0:0:0:
64,192,81567,1,4,2:0:0:0:
192,192,81813,1,8,0:0:0:0:
448,192,81813,1,2,0:0:0:0:
64,192,81813,1,4,2:0:0:0:
192,192,82305,1,4,2:0:0:0:
320,192,82305,1,2,0:0:0:0:
192,192,82673,1,4,0:0:0:0:
448,192,82673,1,2,0:0:0:0:
64,192,82673,1,8,0:0:0:0:
448,192,82919,1,2,0:0:0:0:
320,192,82981,1,2,0:0:0:0:
64,192,83042,1,8,0:0:0:0:
192,192,83042,1,2,0:0:0:0:
192,192,83288,1,2,0:0:0:0:
448,192,83288,1,8,0:0:0:0:
320,192,83411,1,2,0:0:0:0:
64,192,83657,1,2,0:0:0:0:
448,192,84026,1,2,0:0:0:0:
320,192,84087,1,2,0:0:0:0:
192,192,84149,1,2,0:0:0:0:
64,192,84210,1,2,0:0:0:0:
320,192,84272,1,4,0:0:0:0:
448,192,84272,1,8,0:0:0:0:
448,192,84641,1,2,0:0:0:0:
64,192,84641,1,4,0:0:0:0:
320,192,84887,1,2,0:0:0:0:
448,192,85009,1,0,2:0:0:0:
192,192,85132,1,2,0:0:0:0:
448,192,85255,1,8,0:0:0:0:
320,192,85255,1,2,0:0:0:0:
64,192,85255,1,0,2:0:0:0:
320,192,85378,1,2,0:0:0:0:
64,192,85501,1,0,2:0:0:0:
192,192,85624,1,2,0:0:0:0:
448,192,85829,1,0,2:0:0:0:
320,192,85870,1,2,0:0:0:0:
64,192,85993,1,0,2:0:0:0:
192,192,86116,1,2,0:0:0:0:
448,192,86239,1,8,0:0:0:0:
320,192,86239,1,2,0:0:0:0:
64,192,86239,1,0,2:0:0:0:
448,192,86362,1,2,0:0:0:0:
64,192,86485,1,0,2:0:0:0:
192,192,86608,1,2,0:0:0:0:
320,192,86854,1,2,0:0:0:0:
64,192,86977,1,0,2:0:0:0:
448,192,87100,1,2,0:0:0:0:
320,192,87223,1,8,0:0:0:0:
192,192,87223,1,2,0:0:0:0:
64,192,87223,1,0,2:0:0:0:
448,192,87346,1,2,0:0:0:0:
320,192,87469,1,2,0:0:0:0:
64,192,87469,1,8,0:0:0:0:
448,192,87591,1,2,0:0:0:0:
192,192,87591,1,8,0:0:0:0:
64,192,87714,1,2,0:0:0:0:
448,192,87837,1,0,2:0:0:0:
320,192,87837,1,2,0:0:0:0:
192,192,88083,1,2,0:0:0:0:
320,192,88083,1,0,2:0:0:0:
192,192,88329,1,0,2:0:0:0:
64,192,88329,1,2,0:0:0:0:
448,192,88575,1,4,0:0:0:0:
64,192,88575,1,2,0:0:0:0:
320,192,88821,1,2,0:0:0:0:
448,192,88944,1,0,2:0:0:0:
192,192,89067,1,2,0:0:0:0:
320,192,89190,1,8,0:0:0:0:
448,192,89190,1,2,0:0:0:0:
64,192,89190,1,0,2:0:0:0:
64,192,89313,1,2,0:0:0:0:
320,192,89436,1,0,2:0:0:0:
192,192,89559,1,2,0:0:0:0:
320,192,89764,1,0,2:0:0:0:
448,192,89805,1,2,0:0:0:0:
64,192,89928,1,0,2:0:0:0:
192,192,90050,1,2,0:0:0:0:
320,192,90173,1,2,0:0:0:0:
448,192,90173,1,8,0:0:0:0:
64,192,90173,1,0,2:0:0:0:
448,192,90296,1,2,0:0:0:0:
64,192,90419,1,0,2:0:0:0:
448,192,90542,1,8,0:0:0:0:
320,192,90542,1,2,0:0:0:0:
64,192,90665,1,2,0:0:0:0:
192,192,90727,1,2,0:0:0:0:
320,192,90788,1,2,0:0:0:0:
448,192,90788,1,8,0:0:0:0:
192,192,90911,1,2,0:0:0:0:
64,192,90911,1,8,0:0:0:0:
448,192,91034,1,2,0:0:0:0:
320,192,91096,1,2,0:0:0:0:
192,192,91157,1,2,0:0:0:0:
64,192,91157,1,8,0:0:0:0:
448,192,91403,1,8,0:0:0:0:
192,192,91403,1,2,0:0:0:0:
64,192,91403,1,0,2:0:0:0:
320,192,91526,1,2,0:0:0:0:
192,192,91772,1,2,0:0:0:0:
320,192,91895,1,0,2:0:0:0:
448,192,92018,1,2,0:0:0:0:
320,192,92079,1,2,0:0:0:0:
192,192,92141,1,2,0:0:0:0:
64,192,92141,1,8,0:0:0:0:
320,192,92264,1,8,0:0:0:0:
448,192,92264,1,2,0:0:0:0:
64,192,92387,1,8,0:0:0:0:
192,192,92387,1,2,0:0:0:0:
64,192,92509,1,4,0:0:0:0:
448,192,92509,1,2,0:0:0:0:
320,192,92755,1,2,0:0:0:0:
192,192,92878,1,2,0:0:0:0:
448,192,92878,1,8,0:0:0:0:
64,192,92878,1,0,2:0:0:0:
448,192,93124,1,2,0:0:0:0:
320,192,93247,1,2,0:0:0:0:
192,192,93370,1,2,0:0:0:0:
448,192,93370,1,8,0:0:0:0:
64,192,93370,1,0,2:0:0:0:
192,192,93493,1,2,0:0:0:0:
320,192,93698,1,0,2:0:0:0:
192,192,93739,1,2,0:0:0:0:
448,192,93862,1,8,0:0:0:0:
320,192,93862,1,2,0:0:0:0:
64,192,93862,1,0,2:0:0:0:
448,192,93985,1,2,0:0:0:0:
64,192,94108,1,2,0:0:0:0:
320,192,94231,1,2,0:0:0:0:
192,192,94354,1,2,0:0:0:0:
448,192,94354,1,8,0:0:0:0:
64,192,94477,1,2,0:0:0:0:
320,192,94477,1,4,0:0:0:0:
192,192,94723,1,2,0:0:0:0:
448,192,94846,1,8,0:0:0:0:
320,192,94846,1,2,0:0:0:0:
64,192,94846,1,0,2:0:0:0:
448,192,94969,1,2,0:0:0:0:
320,192,95091,1,2,0:0:0:0:
192,192,95214,1,2,0:0:0:0:
448,192,95337,1,8,0:0:0:0:
320,192,95337,1,2,0:0:0:0:
64,192,95337,1,0,2:0:0:0:
64,192,95460,1,2,0:0:0:0:
448,192,95706,1,2,0:0:0:0:
320,192,95768,1,2,0:0:0:0:
64,192,95829,1,2,0:0:0:0:
192,192,95829,1,8,0:0:0:0:
448,192,95952,1,2,0:0:0:0:
320,192,96075,1,2,0:0:0:0:
192,192,96075,1,8,0:0:0:0:
64,192,96198,1,2,0:0:0:0:
192,192,96259,1,2,0:0:0:0:
320,192,96321,1,2,0:0:0:0:
448,192,96321,1,8,0:0:0:0:
64,192,96444,1,2,0:0:0:0:
448,192,96444,1,4,0:0:0:0:
192,192,96690,1,2,0:0:0:0:
448,192,96813,1,8,0:0:0:0:
320,192,96813,1,2,0:0:0:0:
64,192,96813,1,0,2:0:0:0:
320,192,96936,1,2,0:0:0:0:
192,192,97182,1,2,0:0:0:0:
192,192,97305,1,2,0:0:0:0:
448,192,97305,1,8,0:0:0:0:
64,192,97305,1,0,2:0:0:0:
320,192,97428,1,2,0:0:0:0:
448,192,97632,1,0,2:0:0:0:
320,192,97673,1,2,0:0:0:0:
192,192,97796,1,2,0:0:0:0:
448,192,97796,1,8,0:0:0:0:
64,192,97796,1,0,2:0:0:0:
64,192,97919,1,2,0:0:0:0:
64,192,98165,1,2,0:0:0:0:
192,192,98288,1,2,0:0:0:0:
320,192,98288,1,8,0:0:0:0:
448,192,98288,1,0,2:0:0:0:
64,192,98411,1,4,0:0:0:0:
448,192,98411,1,2,0:0:0:0:
192,192,98657,1,2,0:0:0:0:
320,192,98780,1,2,0:0:0:0:
448,192,98780,1,8,0:0:0:0:
64,192,98780,1,0,2:0:0:0:
320,192,98903,1,2,0:0:0:0:
320,192,99149,1,2,0:0:0:0:
192,192,99272,1,2,0:0:0:0:
448,192,99272,1,8,0:0:0:0:
64,192,99272,1,0,2:0:0:0:
192,192,99395,1,2,0:0:0:0:
64,192,99641,1,2,0:0:0:0:
192,192,99764,1,2,0:0:0:0:
448,192,99764,1,8,0:0:0:0:
320,192,99887,1,2,0:0:0:0:
64,192,100009,1,2,0:0:0:0:
448,192,100009,1,4,0:0:0:0:
448,192,100378,1,2,0:0:0:0:
192,192,100378,1,4,0:0:0:0:
64,192,100624,1,0,2:0:0:0:
192,192,100747,1,2,0:0:0:0:
320,192,100870,1,0,2:0:0:0:
320,192,100993,1,2,0:0:0:0:
448,192,100993,1,8,0:0:0:0:
64,192,100993,1,0,2:0:0:0:
192,192,101116,1,0,2:0:0:0:
64,192,101239,1,2,0:0:0:0:
448,192,101362,1,0,2:0:0:0:
192,192,101485,1,0,2:0:0:0:
320,192,101731,1,2,0:0:0:0:
64,192,101731,1,0,2:0:0:0:
448,192,101977,1,8,0:0:0:0:
192,192,101977,1,2,0:0:0:0:
64,192,101977,1,0,2:0:0:0:
448,189,102223,1,0,2:0:0:0:
320,192,102346,1,2,0:0:0:0:
192,192,102591,1,2,0:0:0:0:
448,192,102591,1,0,2:0:0:0:
320,192,102714,1,0,2:0:0:0:
192,192,102837,1,0,2:0:0:0:
192,192,102960,1,8,0:0:0:0:
448,192,102960,1,2,0:0:0:0:
64,192,102960,1,0,2:0:0:0:
320,192,103083,1,0,2:0:0:0:
448,192,103206,1,2,0:0:0:0:
192,192,103206,1,0,2:0:0:0:
64,192,103329,1,2,0:0:0:0:
448,192,103452,1,0,2:0:0:0:
320,192,103452,1,0,2:0:0:0:
192,192,103575,1,2,0:0:0:0:
320,192,103698,1,0,2:0:0:0:
64,192,103698,1,0,2:0:0:0:
448,192,103821,1,2,0:0:0:0:
320,192,103944,1,2,0:0:0:0:
448,192,103944,1,8,0:0:0:0:
64,192,103944,1,0,2:0:0:0:
192,192,104067,1,2,0:0:0:0:
320,192,104190,1,0,2:0:0:0:
448,189,104313,1,2,0:0:0:0:
64,192,104313,1,4,0:0:0:0:
192,192,104559,1,2,0:0:0:0:
448,192,104682,1,0,2:0:0:0:
320,192,104805,1,0,2:0:0:0:
192,192,104928,1,8,0:0:0:0:
448,192,104928,1,2,0:0:0:0:
64,192,104928,1,0,2:0:0:0:
64,192,105050,1,0,2:0:0:0:
320,192,105173,1,2,0:0:0:0:
192,192,105296,1,0,2:0:0:0:
448,192,105419,1,0,2:0:0:0:
192,192,105665,1,2,0:0:0:0:
64,192,105665,1,0,2:0:0:0:
320,192,105911,1,2,0:0:0:0:
448,192,105911,1,8,0:0:0:0:
64,192,105911,1,0,2:0:0:0:
192,192,106157,1,0,2:0:0:0:
64,192,106280,1,8,0:0:0:0:
448,192,106280,1,2,0:0:0:0:
320,192,106403,1,0,2:0:0:0:
448,192,106526,1,2,0:0:0:0:
192,192,106526,1,8,0:0:0:0:
320,192,106649,1,2,0:0:0:0:
64,192,106649,1,8,0:0:0:0:
448,192,106772,1,2,0:0:0:0:
320,192,106833,1,2,0:0:0:0:
192,192,106895,1,2,0:0:0:0:
64,192,106895,1,8,0:0:0:0:
448,192,107018,1,2,0:0:0:0:
320,192,107079,1,2,0:0:0:0:
192,192,107141,1,2,0:0:0:0:
64,192,107141,1,8,0:0:0:0:
448,192,107264,1,2,0:0:0:0:
192,192,107387,1,2,0:0:0:0:
320,192,107509,1,2,0:0:0:0:
64,192,107632,1,2,0:0:0:0:
448,192,107755,1,2,0:0:0:0:
320,192,107878,1,2,0:0:0:0:
192,192,107878,1,8,0:0:0:0:
64,192,108001,1,8,0:0:0:0:
448,192,108001,1,2,0:0:0:0:
320,192,108124,1,2,0:0:0:0:
192,192,108124,1,8,0:0:0:0:
448,192,108247,1,2,0:0:0:0:
64,192,108247,1,4,0:0:0:0:
320,192,108493,1,0,2:0:0:0:
448,192,108616,1,2,0:0:0:0:
64,192,108739,1,0,2:0:0:0:
192,192,108862,1,2,0:0:0:0:
448,192,108862,1,8,0:0:0:0:
64,192,108862,1,0,2:0:0:0:
320,192,108985,1,0,2:0:0:0:
448,192,109108,1,2,0:0:0:0:
64,192,109231,1,0,2:0:0:0:
320,192,109354,1,0,2:0:0:0:
64,192,109477,1,0,2:0:0:0:
192,192,109600,1,2,0:0:0:0:
320,192,109723,1,0,2:0:0:0:
448,192,109846,1,8,0:0:0:0:
192,192,109846,1,2,0:0:0:0:
64,192,109846,1,0,2:0:0:0:
448,192,109969,1,0,2:0:0:0:
192,192,110091,1,0,2:0:0:0:
448,192,110214,1,2,0:0:0:0:
64,192,110214,1,4,0:0:0:0:
320,192,110460,1,0,2:0:0:0:
448,192,110583,1,2,0:0:0:0:
64,192,110706,1,0,2:0:0:0:
192,192,110829,1,2,0:0:0:0:
320,192,110829,1,8,0:0:0:0:
64,192,110829,1,0,2:0:0:0:
448,192,110952,1,0,2:0:0:0:
64,192,111075,1,0,2:0:0:0:
320,192,111198,1,2,0:0:0:0:
192,192,111321,1,0,2:0:0:0:
64,192,111444,1,2,0:0:0:0:
192,192,111567,1,2,0:0:0:0:
320,192,111690,1,0,2:0:0:0:
192,192,111813,1,2,0:0:0:0:
448,192,111813,1,8,0:0:0:0:
64,192,111813,1,0,2:0:0:0:
192,192,111936,1,2,0:0:0:0:
448,192,112059,1,0,2:0:0:0:
64,192,112182,1,4,0:0:0:0:
320,192,112182,1,2,0:0:0:0:
320,192,112428,1,0,2:0:0:0:
448,192,112550,1,2,0:0:0:0:
320,192,112673,1,0,2:0:0:0:
448,192,112796,1,8,0:0:0:0:
192,192,112796,1,2,0:0:0:0:
64,192,112796,1,0,2:0:0:0:
320,192,112919,1,0,2:0:0:0:
64,192,113042,1,0,2:0:0:0:
192,192,113165,1,2,0:0:0:0:
320,192,113288,1,0,2:0:0:0:
448,192,113411,1,2,0:0:0:0:
320,192,113534,1,2,0:0:0:0:
192,192,113657,1,0,2:0:0:0:
320,192,113780,1,2,0:0:0:0:
448,192,113780,1,8,0:0:0:0:
64,192,113780,1,0,2:0:0:0:
64,192,113903,1,2,0:0:0:0:
192,192,114026,1,0,2:0:0:0:
320,192,114149,1,4,0:0:0:0:
64,192,114149,1,2,0:0:0:0:
448,192,114395,1,0,2:0:0:0:
192,192,114518,1,2,0:0:0:0:
320,192,114641,1,0,2:0:0:0:
448,192,114764,1,8,0:0:0:0:
192,192,114764,1,2,0:0:0:0:
64,192,114764,1,0,2:0:0:0:
192,192,114887,1,0,2:0:0:0:
320,192,115009,1,0,2:0:0:0:
448,187,115132,1,2,0:0:0:0:
64,192,115255,1,2,0:0:0:0:
192,192,115317,1,2,0:0:0:0:
320,192,115378,1,2,0:0:0:0:
448,192,115440,1,2,0:0:0:0:
64,192,115501,1,2,0:0:0:0:
192,192,115563,1,2,0:0:0:0:
320,192,115624,1,2,0:0:0:0:
448,192,115686,1,2,0:0:0:0:
192,192,115747,1,2,0:0:0:0:
64,192,115747,1,8,0:0:0:0:
320,192,115809,1,4,0:0:0:0:
448,192,115809,1,2,0:0:0:0:
192,192,116239,1,2,0:0:0:0:
448,192,116239,128,4,116608:0:0:0:0:
64,192,116239,1,0,2:0:0:0:
192,192,116608,1,0,2:0:0:0:
320,192,116608,1,2,0:0:0:0:
64,192,116608,128,4,116977:0:0:0:0:
448,192,116977,1,0,2:0:0:0:
320,192,116977,128,4,117346:0:0:0:0:
192,192,116977,1,2,0:0:0:0:
192,192,117223,1,2,0:0:0:0:
448,190,117346,1,2,0:0:0:0:
64,192,117346,1,8,0:0:0:0:
192,192,117469,1,2,0:0:0:0:
320,192,117469,1,8,0:0:0:0:
64,192,117591,1,2,0:0:0:0:
192,192,117653,1,2,0:0:0:0:
320,192,117714,1,2,0:0:0:0:
448,192,117714,1,8,0:0:0:0:
192,192,117837,1,2,0:0:0:0:
64,192,117837,1,8,0:0:0:0:
448,192,117960,1,8,0:0:0:0:
320,192,117960,1,2,0:0:0:0:
192,192,118083,1,2,0:0:0:0:
64,192,118083,1,8,0:0:0:0:
320,192,118206,128,4,118575:0:0:0:0:
448,192,118206,1,2,0:0:0:0:
64,192,118206,1,0,2:0:0:0:
448,192,118575,1,0,2:0:0:0:
64,192,118575,128,4,118944:0:0:0:0:
192,192,118575,1,2,0:0:0:0:
192,192,118944,1,0,2:0:0:0:
320,192,118944,1,2,0:0:0:0:
448,192,118944,128,4,119313:0:0:0:0:
192,192,119190,1,2,0:0:0:0:
64,192,119313,1,2,0:0:0:0:
320,192,119313,1,8,0:0:0:0:
192,192,119559,1,2,0:0:0:0:
320,192,119620,1,2,0:0:0:0:
448,192,119682,1,0,2:0:0:0:
192,192,119682,1,2,0:0:0:0:
64,192,119805,1,2,0:0:0:0:
320,192,119805,1,0,2:0:0:0:
448,192,119928,1,0,2:0:0:0:
192,192,119928,1,2,0:0:0:0:
64,192,120050,1,0,2:0:0:0:
320,192,120050,1,2,0:0:0:0:
448,192,120173,1,0,2:0:0:0:
64,192,120173,128,4,120542:0:0:0:0:
192,192,120173,1,2,0:0:0:0:
448,192,120542,128,4,120911:0:0:0:0:
320,192,120542,1,2,0:0:0:0:
192,192,120542,1,0,2:0:0:0:
64,192,120911,1,2,0:0:0:0:
192,192,120911,128,4,121280:0:0:0:0:
320,192,120911,1,0,2:0:0:0:
64,192,121280,1,0,2:0:0:0:
448,192,121280,1,6,0:0:0:0:
320,192,121526,1,2,0:0:0:0:
64,192,121587,1,2,0:0:0:0:
192,192,121649,1,2,0:0:0:0:
448,192,121649,1,8,0:0:0:0:
320,192,121731,1,2,0:0:0:0:
64,192,121813,1,2,0:0:0:0:
192,192,121895,1,2,0:0:0:0:
448,192,121895,1,8,0:0:0:0:
320,192,121977,1,2,0:0:0:0:
192,192,122059,1,2,0:0:0:0:
64,192,122141,1,2,0:0:0:0:
448,192,122141,128,4,122509:0:0:0:0:
320,192,122141,1,0,2:0:0:0:
192,192,122509,1,0,2:0:0:0:
64,192,122509,128,4,122878:0:0:0:0:
320,192,122509,1,2,0:0:0:0:
448,192,122755,1,2,0:0:0:0:
320,192,122817,1,2,0:0:0:0:
192,192,122878,1,2,0:0:0:0:
448,192,122878,128,4,123247:0:0:0:0:
64,192,123001,1,2,0:0:0:0:
192,192,123124,1,2,0:0:0:0:
320,192,123247,1,2,0:0:0:0:
64,192,123247,1,8,0:0:0:0:
192,192,123370,1,2,0:0:0:0:
320,192,123493,1,2,0:0:0:0:
448,192,123616,1,2,0:0:0:0:
64,192,123616,1,8,0:0:0:0:
192,192,123739,1,2,0:0:0:0:
448,192,123862,1,2,0:0:0:0:
64,192,123985,1,2,0:0:0:0:
192,192,124108,1,2,0:0:0:0:
320,192,124108,1,4,0:0:0:0:
64,192,124354,1,2,0:0:0:0:
320,192,124477,1,2,0:0:0:0:
192,192,124600,1,8,0:0:0:0:
448,192,124600,1,2,0:0:0:0:
64,192,124600,1,0,2:0:0:0:
320,192,124846,1,2,0:0:0:0:
448,192,125091,1,2,0:0:0:0:
192,192,125214,1,2,0:0:0:0:
448,192,125460,1,2,0:0:0:0:
320,192,125522,1,2,0:0:0:0:
64,192,125583,1,8,0:0:0:0:
192,192,125583,1,2,0:0:0:0:
448,192,125706,1,2,0:0:0:0:
320,192,125952,1,2,0:0:0:0:
448,192,126075,1,2,0:0:0:0:
192,192,126075,1,4,0:0:0:0:
64,192,126075,1,0,2:0:0:0:
320,192,126444,1,2,0:0:0:0:
64,192,126505,1,2,0:0:0:0:
448,192,126567,1,8,0:0:0:0:
192,192,126567,1,2,0:0:0:0:
320,192,126567,1,0,2:0:0:0:
320,192,126813,1,2,0:0:0:0:
448,192,127059,1,2,0:0:0:0:
192,192,127059,1,8,0:0:0:0:
64,192,127059,1,0,2:0:0:0:
448,192,127182,1,2,0:0:0:0:
64,192,127428,1,2,0:0:0:0:
192,192,127489,1,2,0:0:0:0:
320,192,127550,1,8,0:0:0:0:
448,192,127550,1,2,0:0:0:0:
192,192,127673,1,2,0:0:0:0:
320,192,127796,1,2,0:0:0:0:
64,192,127919,1,2,0:0:0:0:
448,192,128042,1,12,0:0:0:0:
192,192,128042,1,2,0:0:0:0:
64,190,128165,1,2,0:0:0:0:
320,192,128165,1,12,0:0:0:0:
448,192,128288,1,8,0:0:0:0:
64,192,128288,1,2,0:0:0:0:
192,192,128411,1,8,0:0:0:0:
448,192,128411,1,2,0:0:0:0:
320,192,128534,1,8,0:0:0:0:
64,192,128534,1,2,0:0:0:0:
64,192,128657,1,8,0:0:0:0:
448,192,128657,1,2,0:0:0:0:
448,192,128780,1,12,0:0:0:0:
192,192,128780,1,2,0:0:0:0:
64,192,128903,1,2,0:0:0:0:
320,192,128903,1,12,0:0:0:0:
448,192,129026,1,8,0:0:0:0:
64,192,129026,1,2,0:0:0:0:
192,192,129149,1,8,0:0:0:0:
448,192,129149,1,2,0:0:0:0:
320,192,129272,1,8,0:0:0:0:
64,192,129272,1,2,0:0:0:0:
64,192,129395,1,8,0:0:0:0:
448,192,129395,1,2,0:0:0:0:
192,192,129518,1,2,0:0:0:0:
448,192,129518,1,12,0:0:0:0:
64,189,129764,1,12,0:0:0:0:
320,192,129764,1,2,0:0:0:0:
448,192,130009,1,2,0:0:0:0:
192,192,130009,1,8,0:0:0:0:
320,192,130091,1,2,0:0:0:0:
64,192,130091,1,8,0:0:0:0:
192,192,130173,1,2,0:0:0:0:
64,192,130255,1,2,0:0:0:0:
448,192,130337,1,2,0:0:0:0:
320,192,130419,1,2,0:0:0:0:
192,192,130501,1,2,0:0:0:0:
448,192,130501,1,8,0:0:0:0:
64,192,130583,1,2,0:0:0:0:
320,192,130583,1,8,0:0:0:0:
192,192,130665,1,2,0:0:0:0:
64,192,130747,1,2,0:0:0:0:
448,192,130829,1,2,0:0:0:0:
320,192,130911,1,2,0:0:0:0:
448,192,130993,1,2,0:0:0:0:
192,192,130993,1,8,0:0:0:0:
320,192,131075,1,2,0:0:0:0:
64,192,131075,1,8,0:0:0:0:
192,192,131157,1,2,0:0:0:0:
64,192,131239,1,2,0:0:0:0:
448,192,131321,1,2,0:0:0:0:
320,192,131403,1,2,0:0:0:0:
448,192,131485,1,2,0:0:0:0:
192,192,131485,1,8,0:0:0:0:
448,192,131977,1,2,0:0:0:0:
64,192,131977,1,4,0:0:0:0:
192,192,131977,1,8,0:0:0:0:
320,192,132223,1,8,0:0:0:0:
64,192,132223,1,2,0:0:0:0:
192,192,132346,1,2,0:0:0:0:
448,192,132591,1,2,0:0:0:0:
320,192,132653,1,2,0:0:0:0:
192,192,132714,1,2,0:0:0:0:
64,192,132714,1,8,0:0:0:0:
64,192,133083,1,2,0:0:0:0:
192,192,133145,1,2,0:0:0:0:
448,192,133206,1,8,0:0:0:0:
320,192,133206,1,2,0:0:0:0:
192,192,133452,1,2,0:0:0:0:
320,192,133575,1,2,0:0:0:0:
192,192,133698,1,2,0:0:0:0:
448,192,133698,1,8,0:0:0:0:
64,192,133698,1,0,2:0:0:0:
64,192,133944,1,2,0:0:0:0:
448,192,133944,1,4,0:0:0:0:
320,192,134190,1,2,0:0:0:0:
448,192,134190,1,8,0:0:0:0:
64,192,134190,1,0,2:0:0:0:
192,192,134313,1,2,0:0:0:0:
320,192,134559,1,2,0:0:0:0:
448,192,134682,1,2,0:0:0:0:
192,192,134682,1,8,0:0:0:0:
64,192,134682,1,0,2:0:0:0:
64,192,134928,1,2,0:0:0:0:
320,192,135009,1,2,0:0:0:0:
192,192,135091,1,2,0:0:0:0:
64,192,135173,1,8,0:0:0:0:
448,192,135173,1,2,0:0:0:0:
448,192,135419,1,2,0:0:0:0:
192,192,135501,1,2,0:0:0:0:
320,192,135583,1,2,0:0:0:0:
64,192,135665,1,8,0:0:0:0:
448,192,135665,1,2,0:0:0:0:
64,192,135911,1,4,0:0:0:0:
320,192,135911,1,2,0:0:0:0:
192,192,136157,1,2,0:0:0:0:
448,192,136157,1,8,0:0:0:0:
64,192,136157,1,0,2:0:0:0:
320,192,136280,1,2,0:0:0:0:
64,192,136526,1,2,0:0:0:0:
192,192,136587,1,2,0:0:0:0:
320,192,136649,1,2,0:0:0:0:
448,192,136649,1,8,0:0:0:0:
448,192,137018,1,2,0:0:0:0:
320,192,137079,1,2,0:0:0:0:
192,192,137141,1,8,0:0:0:0:
64,192,137141,1,2,0:0:0:0:
448,192,137264,1,2,0:0:0:0:
64,192,137387,1,2,0:0:0:0:
320,192,137509,1,2,0:0:0:0:
448,192,137632,1,8,0:0:0:0:
192,192,137632,1,2,0:0:0:0:
320,192,137755,1,8,0:0:0:0:
64,192,137755,1,2,0:0:0:0:
64,192,138001,1,2,0:0:0:0:
192,192,138063,1,2,0:0:0:0:
320,192,138124,1,2,0:0:0:0:
448,192,138124,1,8,0:0:0:0:
64,192,138247,1,2,0:0:0:0:
192,192,138309,1,2,0:0:0:0:
320,192,138370,1,2,0:0:0:0:
448,192,138370,1,8,0:0:0:0:
64,192,138493,1,2,0:0:0:0:
192,192,138555,1,2,0:0:0:0:
448,192,138616,1,8,0:0:0:0:
320,192,138616,1,2,0:0:0:0:
64,192,138739,1,2,0:0:0:0:
192,192,138800,1,2,0:0:0:0:
320,192,138862,1,2,0:0:0:0:
448,192,138862,1,8,0:0:0:0:
64,192,138944,1,2,0:0:0:0:
192,192,139026,1,2,0:0:0:0:
448,192,139108,1,2,0:0:0:0:
320,192,139190,1,2,0:0:0:0:
192,192,139272,1,2,0:0:0:0:
448,192,139354,1,8,0:0:0:0:
320,192,139354,1,2,0:0:0:0:
64,192,139354,1,0,2:0:0:0:
64,192,139600,1,2,0:0:0:0:
192,192,139600,1,8,0:0:0:0:
448,192,139723,1,8,0:0:0:0:
320,192,139723,1,2,0:0:0:0:
448,192,139846,1,4,0:0:0:0:
64,192,139846,1,2,0:0:0:0:
192,192,139846,1,8,0:0:0:0:
320,192,140091,1,2,0:0:0:0:
448,192,140091,1,8,0:0:0:0:
64,192,140091,1,0,2:0:0:0:
320,192,140337,1,2,0:0:0:0:
192,192,140460,1,2,0:0:0:0:
448,192,140583,1,2,0:0:0:0:
320,192,140706,1,2,0:0:0:0:
64,192,140706,1,8,0:0:0:0:
192,192,140952,1,2,0:0:0:0:
320,192,141014,1,2,0:0:0:0:
448,192,141075,1,2,0:0:0:0:
64,192,141075,1,8,0:0:0:0:
192,192,141198,1,2,0:0:0:0:
320,192,141259,1,2,0:0:0:0:
64,192,141321,1,8,0:0:0:0:
448,192,141321,1,2,0:0:0:0:
192,192,141444,1,2,0:0:0:0:
320,192,141505,1,2,0:0:0:0:
448,192,141567,1,2,0:0:0:0:
64,192,141567,1,8,0:0:0:0:
192,192,141690,1,8,0:0:0:0:
320,192,141690,1,2,0:0:0:0:
64,192,141813,1,4,0:0:0:0:
448,192,141813,1,2,0:0:0:0:
192,192,142059,1,2,0:0:0:0:
320,192,142059,1,8,0:0:0:0:
448,192,142059,1,0,2:0:0:0:
64,192,142305,1,2,0:0:0:0:
320,192,142428,1,2,0:0:0:0:
448,192,142673,1,8,0:0:0:0:
192,192,142673,1,2,0:0:0:0:
64,192,142673,1,0,2:0:0:0:
64,192,142919,1,2,0:0:0:0:
320,192,142919,1,8,0:0:0:0:
448,192,143042,1,8,0:0:0:0:
192,192,143042,1,2,0:0:0:0:
64,192,143165,1,2,0:0:0:0:
192,192,143227,1,2,0:0:0:0:
448,192,143288,1,8,0:0:0:0:
320,192,143288,1,2,0:0:0:0:
64,192,143370,1,2,0:0:0:0:
192,192,143452,1,2,0:0:0:0:
448,192,143534,1,8,0:0:0:0:
320,192,143534,1,2,0:0:0:0:
192,192,143616,1,2,0:0:0:0:
320,192,143698,1,2,0:0:0:0:
64,192,143780,1,2,0:0:0:0:
448,192,143780,1,4,0:0:0:0:
192,192,143780,1,8,0:0:0:0:
448,192,144026,1,8,0:0:0:0:
320,192,144026,1,2,0:0:0:0:
64,192,144026,1,0,2:0:0:0:
320,192,144272,1,2,0:0:0:0:
64,192,144395,1,2,0:0:0:0:
320,192,144641,1,2,0:0:0:0:
448,192,144641,1,8,0:0:0:0:
64,192,144641,1,0,2:0:0:0:
192,192,144764,1,2,0:0:0:0:
64,192,144887,1,2,0:0:0:0:
192,192,144948,1,2,0:0:0:0:
448,192,145009,1,2,0:0:0:0:
320,192,145009,1,8,0:0:0:0:
192,192,145132,1,2,0:0:0:0:
320,192,145194,1,2,0:0:0:0:
448,192,145255,1,2,0:0:0:0:
192,192,145255,1,8,0:0:0:0:
64,192,145337,1,2,0:0:0:0:
192,192,145419,1,2,0:0:0:0:
448,192,145501,1,2,0:0:0:0:
320,192,145583,1,2,0:0:0:0:
192,192,145665,1,2,0:0:0:0:
64,192,145747,1,2,0:0:0:0:
448,192,145747,1,4,0:0:0:0:
320,192,145747,1,8,0:0:0:0:
448,192,145993,1,8,0:0:0:0:
192,192,145993,1,2,0:0:0:0:
64,192,146116,1,8,0:0:0:0:
320,192,146116,1,2,0:0:0:0:
448,192,146239,1,2,0:0:0:0:
320,192,146300,1,2,0:0:0:0:
192,192,146362,1,2,0:0:0:0:
320,192,146485,1,2,0:0:0:0:
448,192,146485,1,8,0:0:0:0:
64,192,146608,1,2,0:0:0:0:
192,192,146669,1,2,0:0:0:0:
320,192,146731,1,2,0:0:0:0:
448,192,146731,1,8,0:0:0:0:
64,192,146854,1,2,0:0:0:0:
192,192,146915,1,2,0:0:0:0:
320,192,146977,1,2,0:0:0:0:
448,192,146977,1,8,0:0:0:0:
192,192,147100,1,2,0:0:0:0:
320,192,147161,1,2,0:0:0:0:
448,192,147223,1,8,0:0:0:0:
64,192,147223,1,2,0:0:0:0:
192,192,147284,1,2,0:0:0:0:
320,192,147346,1,2,0:0:0:0:
64,192,147407,1,2,0:0:0:0:
192,192,147469,1,2,0:0:0:0:
448,192,147530,1,2,0:0:0:0:
320,192,147591,1,2,0:0:0:0:
192,192,147653,1,2,0:0:0:0:
64,192,147714,1,2,0:0:0:0:
448,192,147714,1,4,0:0:0:0:
320,192,147714,1,8,0:0:0:0:
448,192,147960,1,8,0:0:0:0:
192,192,147960,1,2,0:0:0:0:
64,192,147960,1,0,2:0:0:0:
64,192,148206,1,2,0:0:0:0:
448,192,148329,1,2,0:0:0:0:
192,192,148452,1,8,0:0:0:0:
320,192,148452,1,2,0:0:0:0:
448,192,148575,1,2,0:0:0:0:
64,192,148575,1,4,0:0:0:0:
192,192,148821,1,2,0:0:0:0:
320,192,148944,1,8,0:0:0:0:
64,192,148944,1,2,0:0:0:0:
448,192,149067,1,2,0:0:0:0:
192,192,149190,1,2,0:0:0:0:
320,192,149313,1,2,0:0:0:0:
64,192,149436,1,8,0:0:0:0:
192,192,149436,1,2,0:0:0:0:
448,192,149559,1,8,0:0:0:0:
320,192,149559,1,2,0:0:0:0:
448,192,149682,1,2,0:0:0:0:
64,192,149682,1,4,0:0:0:0:
320,192,149928,1,8,0:0:0:0:
192,192,149928,1,2,0:0:0:0:
448,192,150173,1,2,0:0:0:0:
64,192,150173,1,4,0:0:0:0:
320,192,150296,1,2,0:0:0:0:
448,192,150419,1,2,0:0:0:0:
192,192,150419,1,8,0:0:0:0:
64,192,150542,1,4,0:0:0:0:
320,192,150542,1,2,0:0:0:0:
192,192,150788,1,2,0:0:0:0:
64,192,150911,1,2,0:0:0:0:
448,192,150911,1,8,0:0:0:0:
320,192,151034,1,2,0:0:0:0:
192,192,151096,1,2,0:0:0:0:
64,192,151157,1,2,0:0:0:0:
448,192,151157,1,8,0:0:0:0:
320,192,151239,1,2,0:0:0:0:
192,192,151321,1,2,0:0:0:0:
448,192,151403,1,2,0:0:0:0:
320,192,151485,1,2,0:0:0:0:
192,192,151567,1,2,0:0:0:0:
64,192,151649,1,8,0:0:0:0:
448,192,151649,1,2,0:0:0:0:
320,192,151895,1,2,0:0:0:0:
64,192,151977,1,2,0:0:0:0:
448,192,152059,1,2,0:0:0:0:
320,192,152141,1,2,0:0:0:0:
192,192,152141,1,8,0:0:0:0:
448,192,152387,1,4,2:0:0:0:
192,192,152387,1,8,0:0:0:0:
64,192,152387,1,2,0:0:0:0:
320,192,152632,1,8,0:0:0:0:
64,192,152632,1,2,0:0:0:0:
448,192,152632,1,4,2:0:0:0:
192,192,153124,1,2,0:0:0:0:
320,192,153124,1,4,2:0:0:0:
64,192,153493,1,2,0:0:0:0:
320,192,153493,1,4,0:0:0:0:
448,192,153493,1,8,0:0:0:0:
64,192,153739,1,2,0:0:0:0:
192,192,153800,1,2,0:0:0:0:
320,192,153862,1,2,0:0:0:0:
448,192,153862,1,8,0:0:0:0:
64,192,153862,1,0,2:0:0:0:
192,192,154108,1,2,0:0:0:0:
64,192,154108,1,8,0:0:0:0:
448,192,154108,1,0,2:0:0:0:
320,192,154231,1,2,0:0:0:0:
448,192,154477,1,2,0:0:0:0:
448,192,154846,1,2,0:0:0:0:
320,192,154907,1,2,0:0:0:0:
192,192,154969,1,2,0:0:0:0:
64,192,155030,1,2,0:0:0:0:
192,192,155091,1,8,0:0:0:0:
320,192,155091,1,4,0:0:0:0:
448,192,155091,128,0,162469:2:0:0:0:
448,192,163452,5,2,0:0:0:0:
320,192,163452,1,8,0:0:0:0:
64,192,163452,1,0,2:0:0:0:
448,192,163698,1,2,0:0:0:0:
192,192,163780,1,2,0:0:0:0:
320,192,163862,1,2,0:0:0:0:
448,192,163944,1,2,0:0:0:0:
192,192,163944,1,8,0:0:0:0:
64,192,163944,1,0,2:0:0:0:
64,192,164190,1,2,0:0:0:0:
320,192,164272,1,2,0:0:0:0:
192,192,164354,1,2,0:0:0:0:
448,192,164436,1,2,0:0:0:0:
64,192,164436,1,4,0:0:0:0:
64,192,164682,1,2,0:0:0:0:
320,192,164764,1,2,0:0:0:0:
192,192,164846,1,2,0:0:0:0:
448,192,164928,1,2,0:0:0:0:
64,192,164928,1,8,0:0:0:0:
320,192,165009,1,2,0:0:0:0:
192,192,165091,1,2,0:0:0:0:
448,192,165173,1,2,0:0:0:0:
64,192,165173,1,8,0:0:0:0:
320,192,165255,1,2,0:0:0:0:
192,192,165337,1,2,0:0:0:0:
448,192,165419,1,2,0:0:0:0:
64,192,165419,1,4,0:0:0:0:
64,192,165665,1,2,0:0:0:0:
320,192,165747,1,2,0:0:0:0:
192,192,165829,1,2,0:0:0:0:
448,192,165911,1,8,0:0:0:0:
320,192,165911,1,2,0:0:0:0:
64,192,165911,1,0,2:0:0:0:
448,192,166157,1,2,0:0:0:0:
192,192,166239,1,2,0:0:0:0:
320,192,166321,1,2,0:0:0:0:
64,192,166403,1,2,0:0:0:0:
448,192,166403,1,4,0:0:0:0:
448,192,166649,1,2,0:0:0:0:
192,192,166731,1,2,0:0:0:0:
320,192,166813,1,2,0:0:0:0:
64,192,166895,1,2,0:0:0:0:
448,192,166895,1,8,0:0:0:0:
192,192,166977,1,2,0:0:0:0:
320,192,167059,1,2,0:0:0:0:
448,192,167141,1,8,0:0:0:0:
64,192,167141,1,2,0:0:0:0:
192,192,167223,1,2,0:0:0:0:
320,192,167305,1,2,0:0:0:0:
448,192,167387,1,4,0:0:0:0:
64,192,167387,1,2,0:0:0:0:
448,192,167632,1,2,0:0:0:0:
192,192,167714,1,2,0:0:0:0:
320,192,167796,1,2,0:0:0:0:
448,192,167878,1,2,0:0:0:0:
192,192,167878,1,8,0:0:0:0:
64,192,167878,1,0,2:0:0:0:
64,192,168124,1,2,0:0:0:0:
320,192,168206,1,2,0:0:0:0:
192,192,168288,1,2,0:0:0:0:
448,192,168370,1,2,0:0:0:0:
64,192,168370,1,4,0:0:0:0:
64,192,168616,1,2,0:0:0:0:
320,192,168698,1,2,0:0:0:0:
192,192,168780,1,2,0:0:0:0:
448,192,168862,1,2,0:0:0:0:
64,192,168862,1,8,0:0:0:0:
320,192,168944,1,2,0:0:0:0:
192,192,169026,1,2,0:0:0:0:
64,192,169108,1,8,0:0:0:0:
448,192,169108,1,2,0:0:0:0:
320,192,169190,1,2,0:0:0:0:
192,192,169272,1,2,0:0:0:0:
64,192,169354,1,4,0:0:0:0:
448,192,169354,1,2,0:0:0:0:
64,192,169600,1,2,0:0:0:0:
320,192,169682,1,2,0:0:0:0:
192,192,169764,1,2,0:0:0:0:
448,192,169846,1,8,0:0:0:0:
320,192,169846,1,2,0:0:0:0:
64,192,169846,1,0,2:0:0:0:
448,192,170091,1,2,0:0:0:0:
192,192,170173,1,2,0:0:0:0:
320,192,170255,1,2,0:0:0:0:
448,192,170337,1,4,0:0:0:0:
64,192,170337,1,2,0:0:0:0:
448,192,170583,1,2,0:0:0:0:
192,192,170665,1,2,0:0:0:0:
320,192,170747,1,2,0:0:0:0:
448,192,170829,1,8,0:0:0:0:
64,192,170829,1,2,0:0:0:0:
192,192,170911,1,2,0:0:0:0:
320,192,170993,1,2,0:0:0:0:
64,192,171075,1,2,0:0:0:0:
448,192,171075,1,8,0:0:0:0:
192,192,171157,1,2,0:0:0:0:
320,192,171239,1,2,0:0:0:0:
448,192,171321,1,4,0:0:0:0:
64,192,171321,1,2,0:0:0:0:
448,192,171567,1,2,0:0:0:0:
320,192,171567,1,8,0:0:0:0:
64,192,171567,1,0,2:0:0:0:
192,192,171649,1,2,0:0:0:0:
320,192,171731,1,2,0:0:0:0:
448,192,171813,1,2,0:0:0:0:
64,192,171813,1,8,0:0:0:0:
448,192,172059,1,2,0:0:0:0:
64,192,172059,1,8,0:0:0:0:
320,192,172141,1,2,0:0:0:0:
192,192,172223,1,2,0:0:0:0:
448,192,172305,1,2,0:0:0:0:
64,192,172305,1,4,0:0:0:0:
320,192,172387,1,2,0:0:0:0:
192,192,172469,1,2,0:0:0:0:
448,192,172550,1,2,0:0:0:0:
64,192,172550,1,8,0:0:0:0:
320,192,172632,1,2,0:0:0:0:
192,192,172714,1,2,0:0:0:0:
448,192,172796,1,2,0:0:0:0:
64,192,172796,1,8,0:0:0:0:
320,192,172878,1,2,0:0:0:0:
192,192,172960,1,2,0:0:0:0:
448,192,173042,1,2,0:0:0:0:
64,192,173042,1,8,0:0:0:0:
320,192,173124,1,2,0:0:0:0:
192,192,173206,1,2,0:0:0:0:
448,192,173288,1,2,0:0:0:0:
64,192,173288,1,4,0:0:0:0:
320,192,173370,1,2,0:0:0:0:
192,192,173452,1,2,0:0:0:0:
64,192,173534,1,2,0:0:0:0:
448,192,173616,1,2,0:0:0:0:
320,192,173698,1,2,0:0:0:0:
192,192,173780,1,2,0:0:0:0:
64,192,173862,1,2,0:0:0:0:
320,192,173944,1,2,0:0:0:0:
448,192,174026,1,2,0:0:0:0:
64,192,174108,1,2,0:0:0:0:
192,192,174190,1,2,0:0:0:0:
320,192,174272,1,2,0:0:0:0:
64,192,174518,1,2,0:0:0:0:
448,192,174518,1,8,0:0:0:0:
192,192,174600,1,2,0:0:0:0:
320,192,174682,1,2,0:0:0:0:
448,192,174764,1,8,0:0:0:0:
64,192,174764,1,2,0:0:0:0:
192,192,174846,1,2,0:0:0:0:
320,192,174928,1,2,0:0:0:0:
64,192,175009,1,2,0:0:0:0:
448,192,175009,1,8,0:0:0:0:
192,192,175091,1,2,0:0:0:0:
320,192,175173,1,2,0:0:0:0:
64,192,175255,1,2,0:0:0:0:
448,192,175255,1,4,0:0:0:0:
192,192,175337,1,2,0:0:0:0:
320,192,175419,1,2,0:0:0:0:
64,192,175501,1,2,0:0:0:0:
448,192,175501,1,8,0:0:0:0:
192,192,175583,1,2,0:0:0:0:
320,192,175665,1,2,0:0:0:0:
64,192,175747,1,8,0:0:0:0:
448,192,175747,1,2,0:0:0:0:
320,192,175829,1,2,0:0:0:0:
192,192,175911,1,2,0:0:0:0:
64,192,175993,1,2,0:0:0:0:
448,192,175993,1,8,0:0:0:0:
192,192,176075,1,2,0:0:0:0:
320,192,176157,1,2,0:0:0:0:
64,192,176239,1,4,0:0:0:0:
448,192,176239,1,2,0:0:0:0:
320,192,176321,1,2,0:0:0:0:
192,192,176403,1,2,0:0:0:0:
64,192,176485,1,2,0:0:0:0:
448,192,176485,1,8,0:0:0:0:
320,192,176567,1,2,0:0:0:0:
192,192,176649,1,2,0:0:0:0:
448,192,176731,1,2,0:0:0:0:
64,192,176731,1,8,0:0:0:0:
320,192,176813,1,2,0:0:0:0:
192,192,176895,1,2,0:0:0:0:
64,192,176977,1,8,0:0:0:0:
448,192,176977,1,2,0:0:0:0:
320,192,177059,1,2,0:0:0:0:
192,192,177141,1,2,0:0:0:0:
64,192,177223,1,4,0:0:0:0:
448,192,177223,1,2,0:0:0:0:
320,192,177346,1,2,0:0:0:0:
64,192,177469,1,2,0:0:0:0:
192,192,177591,1,2,0:0:0:0:
448,192,177591,1,8,0:0:0:0:
320,192,177714,1,2,0:0:0:0:
448,192,177837,1,2,0:0:0:0:
64,192,177960,1,2,0:0:0:0:
192,192,177960,1,4,0:0:0:0:
320,192,178083,1,2,0:0:0:0:
192,192,178206,1,2,0:0:0:0:
64,192,178329,1,8,0:0:0:0:
320,192,178329,1,2,0:0:0:0:
448,192,178452,1,2,0:0:0:0:
192,192,178575,1,2,0:0:0:0:
320,192,178698,1,8,0:0:0:0:
64,192,178698,1,2,0:0:0:0:
448,192,178821,1,8,0:0:0:0:
192,192,178821,1,2,0:0:0:0:
64,192,178944,1,2,0:0:0:0:
320,192,178944,1,8,0:0:0:0:
192,192,179067,1,2,0:0:0:0:
448,192,179067,1,8,0:0:0:0:
64,192,179190,1,2,0:0:0:0:
320,192,179190,1,4,2:0:0:0:
448,192,179436,128,2,179559:0:0:0:0:
320,192,179436,1,8,0:0:0:0:
64,192,179436,1,0,2:0:0:0:
448,192,179682,128,2,179928:0:0:0:0:
192,192,179682,1,8,0:0:0:0:
64,192,179682,1,0,2:0:0:0:
64,192,179928,1,2,0:0:0:0:
320,192,179928,1,4,2:0:0:0:
192,192,180173,1,0,2:0:0:0:
64,192,180173,128,2,180296:0:0:0:0:
448,192,180173,1,8,0:0:0:0:
448,192,180419,1,0,2:0:0:0:
64,192,180419,128,2,180665:0:0:0:0:
320,192,180419,1,8,0:0:0:0:
192,192,180542,1,2,0:0:0:0:
320,192,180604,1,2,0:0:0:0:
448,192,180665,1,2,0:0:0:0:
192,192,180665,1,8,0:0:0:0:
64,192,180788,1,2,0:0:0:0:
320,192,180788,1,8,0:0:0:0:
448,192,180911,1,2,0:0:0:0:
192,192,180911,1,8,0:0:0:0:
64,192,181034,1,2,0:0:0:0:
320,192,181034,1,8,0:0:0:0:
192,192,181157,1,4,2:0:0:0:
448,192,181157,1,2,0:0:0:0:
192,192,181403,1,0,2:0:0:0:
64,192,181403,128,2,181526:0:0:0:0:
448,192,181403,1,8,0:0:0:0:
448,192,181649,1,0,2:0:0:0:
320,192,181649,1,8,0:0:0:0:
64,192,181649,128,2,181895:0:0:0:0:
448,192,181895,1,2,0:0:0:0:
192,192,181895,1,4,2:0:0:0:
320,192,182141,1,0,2:0:0:0:
448,192,182141,128,2,182264:0:0:0:0:
64,192,182141,1,8,0:0:0:0:
64,192,182387,1,0,2:0:0:0:
448,192,182387,128,2,182632:0:0:0:0:
192,192,182387,1,8,0:0:0:0:
64,192,182632,1,2,0:0:0:0:
320,192,182632,1,8,0:0:0:0:
448,192,182714,1,8,0:0:0:0:
192,192,182714,1,2,0:0:0:0:
320,192,182796,1,8,0:0:0:0:
64,192,182796,1,2,0:0:0:0:
448,192,182878,1,8,0:0:0:0:
192,192,182878,1,2,0:0:0:0:
320,192,182960,1,8,0:0:0:0:
64,192,182960,1,2,0:0:0:0:
448,192,183042,1,8,0:0:0:0:
192,192,183042,1,2,0:0:0:0:
320,192,183124,1,4,2:0:0:0:
64,192,183124,1,2,0:0:0:0:
320,192,183370,1,0,2:0:0:0:
64,192,183370,1,8,0:0:0:0:
448,192,183370,128,2,183493:0:0:0:0:
64,192,183616,1,0,2:0:0:0:
192,192,183616,1,8,0:0:0:0:
448,192,183616,128,2,183862:0:0:0:0:
320,192,183862,1,4,2:0:0:0:
64,192,183862,1,2,0:0:0:0:
192,192,184108,1,0,2:0:0:0:
64,192,184108,128,2,184231:0:0:0:0:
448,192,184108,1,8,0:0:0:0:
320,192,184354,1,8,0:0:0:0:
64,192,184354,128,2,184600:0:0:0:0:
448,192,184354,1,0,2:0:0:0:
192,192,184600,1,8,0:0:0:0:
448,192,184600,1,2,0:0:0:0:
320,192,184846,1,0,2:0:0:0:
64,192,184846,1,8,0:0:0:0:
448,192,184846,128,2,184969:0:0:0:0:
64,192,185091,1,0,2:0:0:0:
448,192,185091,128,2,185337:0:0:0:0:
192,192,185091,1,8,0:0:0:0:
64,192,185337,1,2,0:0:0:0:
320,192,185337,1,4,2:0:0:0:
192,192,185583,1,0,2:0:0:0:
64,192,185583,128,2,185706:0:0:0:0:
448,192,185583,1,8,0:0:0:0:
448,192,185829,1,0,2:0:0:0:
64,192,185829,128,2,186075:0:0:0:0:
320,192,185829,1,8,0:0:0:0:
448,192,186075,1,2,0:0:0:0:
192,192,186075,1,8,0:0:0:0:
64,192,186157,1,2,0:0:0:0:
320,192,186157,1,8,0:0:0:0:
448,192,186239,1,2,0:0:0:0:
192,192,186239,1,8,0:0:0:0:
64,192,186321,1,2,0:0:0:0:
320,192,186321,1,8,0:0:0:0:
448,192,186403,1,2,0:0:0:0:
192,192,186403,1,8,0:0:0:0:
64,192,186485,1,2,0:0:0:0:
320,192,186485,1,8,0:0:0:0:
448,192,186567,1,2,0:0:0:0:
64,192,186567,1,8,0:0:0:0:
320,192,186649,1,8,0:0:0:0:
192,192,186649,1,2,0:0:0:0:
64,192,186731,1,8,0:0:0:0:
448,192,186731,1,2,0:0:0:0:
320,192,186813,1,8,0:0:0:0:
192,192,186813,1,2,0:0:0:0:
64,192,186895,1,8,0:0:0:0:
448,192,186895,1,2,0:0:0:0:
320,192,186977,1,8,0:0:0:0:
192,192,186977,1,2,0:0:0:0:
64,192,187059,1,8,0:0:0:0:
448,192,187059,1,2,0:0:0:0:
64,192,187305,1,4,2:0:0:0:
320,192,187305,128,2,187550:0:0:0:0:
448,192,187550,1,2,0:0:0:0:
192,192,187550,128,4,188042:2:0:0:0:
64,192,188042,128,4,188411:0:0:0:0:
448,192,188042,1,2,0:0:0:0:
320,192,188042,1,0,2:0:0:0:
448,192,188411,128,4,188780:0:0:0:0:
192,192,188411,1,2,0:0:0:0:
320,192,188411,1,0,2:0:0:0:
64,192,188780,1,0,2:0:0:0:
192,192,188780,128,4,189149:0:0:0:0:
320,192,188780,1,2,0:0:0:0:
448,192,189149,1,0,2:0:0:0:
64,192,189149,1,2,0:0:0:0:
448,192,189395,1,2,0:0:0:0:
320,192,189456,1,2,0:0:0:0:
64,192,189518,1,8,0:0:0:0:
192,192,189518,1,2,0:0:0:0:
448,192,189641,1,8,0:0:0:0:
320,192,189641,1,2,0:0:0:0:
64,192,189764,1,8,0:0:0:0:
192,192,189764,1,2,0:0:0:0:
448,192,189887,1,8,0:0:0:0:
320,192,189887,1,2,0:0:0:0:
192,192,190009,128,4,190378:0:0:0:0:
64,192,190009,1,2,0:0:0:0:
448,192,190009,1,0,2:0:0:0:
64,192,190378,1,0,2:0:0:0:
448,192,190378,128,4,190747:0:0:0:0:
320,192,190378,1,2,0:0:0:0:
192,192,190747,1,2,0:0:0:0:
64,192,190747,128,4,191116:0:0:0:0:
320,192,190747,1,0,2:0:0:0:
192,192,191116,1,0,2:0:0:0:
448,192,191116,1,6,0:0:0:0:
320,192,191362,1,2,0:0:0:0:
192,192,191423,1,2,0:0:0:0:
320,192,191485,1,2,0:0:0:0:
64,192,191485,1,0,2:0:0:0:
192,192,191608,1,0,2:0:0:0:
448,192,191608,1,2,0:0:0:0:
320,192,191731,1,2,0:0:0:0:
64,192,191731,1,0,2:0:0:0:
192,192,191854,1,2,0:0:0:0:
448,192,191854,1,0,2:0:0:0:
64,192,191977,1,0,2:0:0:0:
320,192,191977,1,2,0:0:0:0:
448,192,191977,128,4,192346:0:0:0:0:
64,192,192346,128,4,192714:0:0:0:0:
192,192,192346,1,2,0:0:0:0:
320,192,192346,1,0,2:0:0:0:
192,192,192714,1,0,2:0:0:0:
448,192,192714,1,2,0:0:0:0:
320,192,192714,128,4,193083:0:0:0:0:
448,192,193083,1,0,2:0:0:0:
64,192,193083,1,6,0:0:0:0:
192,192,193329,1,2,0:0:0:0:
448,192,193391,1,2,0:0:0:0:
64,192,193452,1,8,0:0:0:0:
320,192,193452,1,2,0:0:0:0:
192,192,193534,1,2,0:0:0:0:
448,192,193616,1,2,0:0:0:0:
64,192,193698,1,8,0:0:0:0:
320,192,193698,1,2,0:0:0:0:
192,192,193780,1,2,0:0:0:0:
320,192,193862,1,0,2:0:0:0:
448,192,193944,1,2,0:0:0:0:
192,192,193944,1,2,0:0:0:0:
64,192,193944,128,4,194313:0:0:0:0:
320,192,194313,1,0,2:0:0:0:
192,192,194313,1,2,0:0:0:0:
448,192,194313,128,4,194682:0:0:0:0:
64,192,194559,1,2,0:0:0:0:
192,192,194620,1,2,0:0:0:0:
320,192,194682,1,2,0:0:0:0:
64,192,194682,128,4,195050:0:0:0:0:
448,192,194805,1,2,0:0:0:0:
320,192,194928,1,2,0:0:0:0:
448,192,195050,1,8,0:0:0:0:
192,192,195050,1,2,0:0:0:0:
320,192,195173,1,2,0:0:0:0:
192,192,195296,1,2,0:0:0:0:
64,192,195419,1,2,0:0:0:0:
448,192,195419,1,8,0:0:0:0:
192,192,195542,1,8,0:0:0:0:
320,192,195542,1,2,0:0:0:0:
448,192,195665,1,8,0:0:0:0:
64,192,195665,1,2,0:0:0:0:
192,192,195788,1,8,0:0:0:0:
448,192,195788,1,2,0:0:0:0:
64,192,195911,1,4,0:0:0:0:
320,192,195911,1,2,0:0:0:0:
448,192,196157,1,2,0:0:0:0:
192,192,196280,1,2,0:0:0:0:
448,192,196403,1,2,0:0:0:0:
320,192,196403,1,8,0:0:0:0:
64,192,196403,1,0,2:0:0:0:
192,192,196649,1,2,0:0:0:0:
448,192,196895,1,2,0:0:0:0:
64,192,196895,1,0,2:0:0:0:
320,192,197018,1,2,0:0:0:0:
64,192,197264,1,2,0:0:0:0:
192,192,197325,1,2,0:0:0:0:
448,192,197387,1,8,0:0:0:0:
320,192,197387,1,2,0:0:0:0:
64,192,197509,1,2,0:0:0:0:
192,192,197755,1,2,0:0:0:0:
448,192,197878,1,4,0:0:0:0:
320,192,197878,1,2,0:0:0:0:
64,192,197878,1,0,2:0:0:0:
192,192,198247,1,2,0:0:0:0:
448,192,198309,1,2,0:0:0:0:
192,192,198370,1,8,0:0:0:0:
320,192,198370,1,2,0:0:0:0:
64,192,198370,1,0,2:0:0:0:
192,192,198616,1,2,0:0:0:0:
320,192,198862,1,8,0:0:0:0:
448,192,198862,1,2,0:0:0:0:
64,192,198862,1,0,2:0:0:0:
448,192,198985,1,2,0:0:0:0:
448,192,199231,1,2,0:0:0:0:
320,192,199292,1,2,0:0:0:0:
192,192,199354,1,8,0:0:0:0:
64,192,199354,1,2,0:0:0:0:
448,192,199477,1,2,0:0:0:0:
64,192,199600,1,2,0:0:0:0:
320,192,199723,1,2,0:0:0:0:
64,192,199846,1,8,0:0:0:0:
192,192,199846,1,2,0:0:0:0:
448,190,199969,1,2,0:0:0:0:
320,192,199969,1,8,0:0:0:0:
64,192,200091,128,0,200214:2:0:0:0:
64,192,200337,128,0,200583:2:0:0:0:
448,192,200583,1,8,0:0:0:0:
192,192,200583,1,2,0:0:0:0:
320,192,200706,1,8,0:0:0:0:
64,192,200706,1,2,0:0:0:0:
192,192,200829,128,0,200952:2:0:0:0:
192,192,201075,128,0,201321:2:0:0:0:
64,192,201321,1,2,0:0:0:0:
448,192,201321,1,8,0:0:0:0:
448,192,201567,1,8,0:0:0:0:
64,192,201567,1,2,0:0:0:0:
64,192,201813,1,2,0:0:0:0:
448,192,201813,1,8,0:0:0:0:
192,192,202059,128,0,202182:2:0:0:0:
192,192,202305,128,0,202550:2:0:0:0:
448,192,202550,1,0,2:0:0:0:
64,192,202673,128,0,202796:2:0:0:0:
318,190,202796,1,0,2:0:0:0:
448,192,202919,128,0,203042:2:0:0:0:
62,190,203042,1,0,2:0:0:0:
192,192,203165,128,0,203411:2:0:0:0:
447,192,203780,1,4,2:0:0:0:
64,192,203780,1,2,0:0:0:0:
192,192,203780,1,8,0:0:0:0:
192,192,205255,128,4,205747:0:0:0:0:
320,192,205255,128,2,205747:0:0:0:0:
64,192,205747,1,10,0:0:0:0:
448,192,205747,1,2,0:0:0:0:
64,192,207223,128,4,207714:0:0:0:0:
448,192,207223,128,2,207714:0:0:0:0:
192,192,207714,1,10,0:0:0:0:
320,192,207714,1,2,0:0:0:0:
192,192,209190,1,4,2:0:0:0:
320,192,209190,1,2,0:0:0:0:
192,192,209559,1,8,0:0:0:0:
448,192,209559,1,2,0:0:0:0:
64,192,209559,1,4,0:0:0:0:
448,192,209805,1,2,0:0:0:0:
320,192,209866,1,2,0:0:0:0:
64,192,209928,1,8,0:0:0:0:
192,192,209928,1,2,0:0:0:0:
448,192,210050,1,2,0:0:0:0:
320,192,210112,1,2,0:0:0:0:
64,192,210173,1,8,0:0:0:0:
192,192,210173,1,2,0:0:0:0:
448,192,210296,1,2,0:0:0:0:
320,192,210358,1,2,0:0:0:0:
64,192,210419,1,8,0:0:0:0:
192,192,210419,1,2,0:0:0:0:
448,192,210542,1,2,0:0:0:0:
320,192,210604,1,2,0:0:0:0:
192,192,210665,1,2,0:0:0:0:
64,192,210665,1,8,0:0:0:0:
448,192,210747,1,2,0:0:0:0:
320,192,210829,1,2,0:0:0:0:
64,192,210911,1,2,0:0:0:0:
192,192,210993,1,2,0:0:0:0:
320,192,211075,1,2,0:0:0:0:
64,192,211157,1,8,0:0:0:0:
192,192,211157,1,2,0:0:0:0:
448,192,211403,1,2,0:0:0:0:
320,192,211403,1,8,0:0:0:0:
192,192,211526,1,2,0:0:0:0:
64,192,211526,1,8,0:0:0:0:
64,192,211649,1,4,0:0:0:0:
448,192,211649,1,2,0:0:0:0:
448,192,211895,1,8,0:0:0:0:
320,192,211895,1,2,0:0:0:0:
64,192,211895,1,0,2:0:0:0:
192,192,212141,1,2,0:0:0:0:
320,192,212264,1,2,0:0:0:0:
448,192,212509,1,8,0:0:0:0:
192,192,212509,1,2,0:0:0:0:
64,192,212509,1,0,2:0:0:0:
320,192,212755,1,2,0:0:0:0:
192,192,212817,1,2,0:0:0:0:
64,192,212878,1,2,0:0:0:0:
448,192,212878,1,8,0:0:0:0:
320,192,213001,1,2,0:0:0:0:
192,192,213063,1,2,0:0:0:0:
448,192,213124,1,8,0:0:0:0:
64,192,213124,1,2,0:0:0:0:
320,192,213247,1,2,0:0:0:0:
192,192,213309,1,2,0:0:0:0:
448,192,213370,1,8,0:0:0:0:
64,192,213370,1,2,0:0:0:0:
192,192,213493,1,2,0:0:0:0:
320,192,213493,1,8,0:0:0:0:
448,192,213616,1,4,0:0:0:0:
64,192,213616,1,2,0:0:0:0:
448,192,213862,1,2,0:0:0:0:
192,192,213862,1,8,0:0:0:0:
64,192,213862,1,0,2:0:0:0:
64,192,214108,1,2,0:0:0:0:
192,192,214231,1,2,0:0:0:0:
320,192,214477,1,2,0:0:0:0:
448,192,214477,1,8,0:0:0:0:
192,192,214477,1,0,2:0:0:0:
192,192,214723,1,8,0:0:0:0:
448,192,214723,1,2,0:0:0:0:
64,192,214846,1,8,0:0:0:0:
320,192,214846,1,2,0:0:0:0:
448,192,214969,1,2,0:0:0:0:
320,192,215030,1,2,0:0:0:0:
64,192,215091,1,8,0:0:0:0:
192,192,215091,1,2,0:0:0:0:
448,192,215173,1,2,0:0:0:0:
320,192,215255,1,2,0:0:0:0:
192,192,215337,1,2,0:0:0:0:
64,192,215337,1,8,0:0:0:0:
320,192,215419,1,2,0:0:0:0:
192,192,215501,1,2,0:0:0:0:
64,192,215583,1,4,0:0:0:0:
448,192,215583,1,2,0:0:0:0:
320,192,215829,1,2,0:0:0:0:
192,192,215829,1,8,0:0:0:0:
448,192,215829,1,0,2:0:0:0:
64,192,216075,1,2,0:0:0:0:
192,192,216198,1,2,0:0:0:0:
448,192,216444,1,8,0:0:0:0:
320,192,216444,1,2,0:0:0:0:
64,192,216444,1,0,2:0:0:0:
192,192,216567,1,2,0:0:0:0:
320,192,216690,1,2,0:0:0:0:
192,192,216813,1,8,0:0:0:0:
448,192,216813,1,2,0:0:0:0:
64,192,216813,1,0,2:0:0:0:
320,192,216936,1,2,0:0:0:0:
192,192,216997,1,2,0:0:0:0:
64,192,217059,1,2,0:0:0:0:
320,192,217141,1,2,0:0:0:0:
192,192,217223,1,2,0:0:0:0:
448,192,217305,1,8,0:0:0:0:
64,192,217305,1,2,0:0:0:0:
192,192,217387,1,2,0:0:0:0:
320,192,217469,1,2,0:0:0:0:
64,192,217550,1,2,0:0:0:0:
448,192,217550,1,4,0:0:0:0:
192,192,217796,1,8,0:0:0:0:
448,192,217796,1,2,0:0:0:0:
320,192,217919,1,2,0:0:0:0:
64,192,217919,1,8,0:0:0:0:
192,192,218042,1,2,0:0:0:0:
320,192,218104,1,2,0:0:0:0:
448,192,218165,1,8,0:0:0:0:
64,192,218165,1,2,0:0:0:0:
320,192,218288,1,8,0:0:0:0:
192,192,218288,1,2,0:0:0:0:
64,192,218411,1,2,0:0:0:0:
192,192,218473,1,2,0:0:0:0:
320,192,218534,1,2,0:0:0:0:
448,192,218657,1,2,0:0:0:0:
320,192,218719,1,2,0:0:0:0:
192,192,218780,1,8,0:0:0:0:
64,192,218780,1,2,0:0:0:0:
320,192,218903,1,2,0:0:0:0:
192,192,218964,1,2,0:0:0:0:
64,192,219026,1,2,0:0:0:0:
448,192,219026,1,8,0:0:0:0:
320,192,219108,1,2,0:0:0:0:
192,192,219190,1,2,0:0:0:0:
64,192,219272,1,2,0:0:0:0:
448,192,219272,1,8,0:0:0:0:
192,192,219354,1,2,0:0:0:0:
320,192,219436,1,2,0:0:0:0:
64,192,219518,1,2,0:0:0:0:
448,192,219518,1,4,0:0:0:0:
192,192,219518,1,8,0:0:0:0:
320,192,219764,1,8,0:0:0:0:
448,192,219764,1,2,0:0:0:0:
64,192,219764,1,0,2:0:0:0:
192,192,219887,1,2,0:0:0:0:
64,192,220132,1,2,0:0:0:0:
192,192,220194,1,2,0:0:0:0:
320,192,220255,1,2,0:0:0:0:
448,192,220255,1,8,0:0:0:0:
64,192,220255,1,0,2:0:0:0:
448,192,220624,1,2,0:0:0:0:
320,192,220686,1,2,0:0:0:0:
448,192,220747,1,8,0:0:0:0:
192,192,220747,1,2,0:0:0:0:
64,192,220747,1,0,2:0:0:0:
320,192,220993,1,2,0:0:0:0:
192,192,221116,1,2,0:0:0:0:
320,192,221239,1,2,0:0:0:0:
448,192,221239,1,8,0:0:0:0:
64,192,221239,1,0,2:0:0:0:
64,192,221485,1,4,0:0:0:0:
448,192,221485,1,2,0:0:0:0:
192,192,221731,1,2,0:0:0:0:
448,192,221731,1,8,0:0:0:0:
64,192,221731,1,0,2:0:0:0:
320,192,221854,1,2,0:0:0:0:
448,192,222100,1,2,0:0:0:0:
192,192,222223,1,2,0:0:0:0:
320,192,222223,1,8,0:0:0:0:
64,192,222223,1,0,2:0:0:0:
448,192,222469,1,2,0:0:0:0:
192,192,222550,1,2,0:0:0:0:
320,192,222632,1,2,0:0:0:0:
64,192,222714,1,2,0:0:0:0:
448,192,222714,1,8,0:0:0:0:
64,192,222960,1,2,0:0:0:0:
320,192,223042,1,2,0:0:0:0:
192,192,223124,1,2,0:0:0:0:
448,192,223206,1,8,0:0:0:0:
64,192,223206,1,2,0:0:0:0:
448,192,223452,1,4,0:0:0:0:
192,192,223452,1,2,0:0:0:0:
448,192,223698,1,0,2:0:0:0:
320,192,223698,1,2,0:0:0:0:
64,192,223698,1,8,0:0:0:0:
192,192,223821,1,2,0:0:0:0:
448,192,224067,1,2,0:0:0:0:
320,192,224128,1,2,0:0:0:0:
64,192,224190,1,8,0:0:0:0:
192,192,224190,1,2,0:0:0:0:
64,192,224559,1,2,0:0:0:0:
192,192,224620,1,2,0:0:0:0:
448,192,224682,1,2,0:0:0:0:
320,192,224682,1,8,0:0:0:0:
64,192,224805,1,2,0:0:0:0:
448,192,224928,1,2,0:0:0:0:
192,192,225050,1,2,0:0:0:0:
320,192,225173,1,2,0:0:0:0:
64,192,225173,1,8,0:0:0:0:
448,192,225296,1,2,0:0:0:0:
192,192,225296,1,8,0:0:0:0:
448,192,225542,1,2,0:0:0:0:
320,192,225604,1,2,0:0:0:0:
64,192,225665,1,8,0:0:0:0:
192,192,225665,1,2,0:0:0:0:
448,192,225788,1,2,0:0:0:0:
320,192,225850,1,2,0:0:0:0:
192,192,225911,1,2,0:0:0:0:
64,192,225911,1,8,0:0:0:0:
448,192,226034,1,2,0:0:0:0:
320,192,226096,1,2,0:0:0:0:
192,192,226157,1,2,0:0:0:0:
64,192,226157,1,8,0:0:0:0:
448,192,226280,1,2,0:0:0:0:
320,192,226341,1,2,0:0:0:0:
192,192,226403,1,2,0:0:0:0:
64,192,226403,1,8,0:0:0:0:
448,192,226485,1,2,0:0:0:0:
320,192,226567,1,2,0:0:0:0:
64,192,226649,1,2,0:0:0:0:
192,192,226731,1,2,0:0:0:0:
320,192,226813,1,2,0:0:0:0:
64,192,226895,1,8,0:0:0:0:
448,192,226895,1,2,0:0:0:0:
320,192,227141,1,8,0:0:0:0:
448,192,227141,1,2,0:0:0:0:
64,192,227264,1,8,0:0:0:0:
192,192,227264,1,2,0:0:0:0:
448,192,227387,1,2,0:0:0:0:
64,192,227387,1,4,0:0:0:0:
192,192,227632,1,0,2:0:0:0:
320,192,227632,1,2,0:0:0:0:
64,192,227632,1,8,0:0:0:0:
448,192,227755,1,2,0:0:0:0:
320,192,227817,1,2,0:0:0:0:
192,192,227878,1,2,0:0:0:0:
64,192,227878,1,10,0:0:0:0:
320,192,228001,1,2,0:0:0:0:
192,192,228124,1,2,0:0:0:0:
448,192,228124,1,8,0:0:0:0:
320,192,228247,1,2,0:0:0:0:
192,192,228309,1,2,0:0:0:0:
448,192,228370,1,8,0:0:0:0:
64,192,228370,1,2,0:0:0:0:
320,192,228493,1,2,0:0:0:0:
192,192,228555,1,2,0:0:0:0:
64,192,228616,1,2,0:0:0:0:
448,192,228616,1,8,0:0:0:0:
320,192,228739,1,2,0:0:0:0:
192,192,228800,1,2,0:0:0:0:
448,192,228862,1,8,0:0:0:0:
64,192,228862,1,2,0:0:0:0:
320,192,228985,1,2,0:0:0:0:
192,192,229046,1,2,0:0:0:0:
448,192,229108,1,8,0:0:0:0:
64,192,229108,1,2,0:0:0:0:
320,192,229231,1,2,0:0:0:0:
64,192,229354,1,2,0:0:0:0:
448,192,229354,1,4,0:0:0:0:
320,192,229600,1,2,0:0:0:0:
192,192,229600,1,8,0:0:0:0:
64,192,229600,1,0,2:0:0:0:
448,192,229723,1,2,0:0:0:0:
320,192,229784,1,2,0:0:0:0:
64,192,229846,1,2,0:0:0:0:
192,192,229846,1,8,0:0:0:0:
320,192,229969,1,2,0:0:0:0:
448,192,230091,1,8,0:0:0:0:
192,192,230091,1,2,0:0:0:0:
320,192,230214,1,2,0:0:0:0:
192,192,230276,1,2,0:0:0:0:
64,192,230337,1,2,0:0:0:0:
448,192,230337,1,8,0:0:0:0:
320,192,230460,1,2,0:0:0:0:
64,192,230583,1,8,0:0:0:0:
448,192,230583,1,2,0:0:0:0:
192,192,230706,1,2,0:0:0:0:
320,192,230768,1,2,0:0:0:0:
64,192,230829,1,8,0:0:0:0:
448,192,230829,1,2,0:0:0:0:
192,192,230952,1,2,0:0:0:0:
320,192,231014,1,2,0:0:0:0:
448,192,231075,1,2,0:0:0:0:
64,192,231075,1,8,0:0:0:0:
192,192,231198,1,2,0:0:0:0:
64,192,231321,1,4,0:0:0:0:
448,192,231321,1,2,0:0:0:0:
320,192,231321,1,8,0:0:0:0:
448,192,231567,1,0,2:0:0:0:
320,192,231567,1,8,0:0:0:0:
192,192,231567,1,2,0:0:0:0:
64,192,231690,1,2,0:0:0:0:
192,192,231751,1,2,0:0:0:0:
320,192,231813,1,8,0:0:0:0:
448,192,231813,1,2,0:0:0:0:
192,192,231936,1,2,0:0:0:0:
64,192,232059,1,8,0:0:0:0:
320,192,232059,1,2,0:0:0:0:
192,192,232182,1,2,0:0:0:0:
320,192,232243,1,2,0:0:0:0:
64,192,232305,1,8,0:0:0:0:
448,192,232305,1,2,0:0:0:0:
192,192,232428,1,2,0:0:0:0:
64,192,232550,1,2,0:0:0:0:
448,192,232550,1,8,0:0:0:0:
320,192,232673,1,2,0:0:0:0:
192,192,232735,1,2,0:0:0:0:
448,192,232796,1,8,0:0:0:0:
64,192,232796,1,2,0:0:0:0:
320,192,232919,1,2,0:0:0:0:
192,192,232981,1,2,0:0:0:0:
448,192,233042,1,8,0:0:0:0:
64,192,233042,1,2,0:0:0:0:
320,192,233165,1,2,0:0:0:0:
192,192,233227,1,2,0:0:0:0:
64,192,233288,1,2,0:0:0:0:
448,192,233288,1,4,0:0:0:0:
192,192,233411,1,2,0:0:0:0:
448,192,233473,1,2,0:0:0:0:
320,192,233534,1,2,0:0:0:0:
64,192,233534,1,8,0:0:0:0:
192,192,233657,1,2,0:0:0:0:
448,192,233657,1,8,0:0:0:0:
64,192,233780,1,2,0:0:0:0:
192,192,233903,1,2,0:0:0:0:
448,192,233903,1,8,0:0:0:0:
64,192,234026,1,8,0:0:0:0:
320,192,234026,1,2,0:0:0:0:
448,192,234149,1,2,0:0:0:0:
320,192,234272,1,0,2:0:0:0:
64,192,234272,1,8,0:0:0:0:
192,192,234272,1,2,0:0:0:0:
448,192,234395,1,2,0:0:0:0:
320,192,234456,1,2,0:0:0:0:
64,192,234518,1,8,0:0:0:0:
192,192,234518,1,2,0:0:0:0:
448,192,234641,1,8,0:0:0:0:
320,192,234641,1,2,0:0:0:0:
64,192,234764,1,2,0:0:0:0:
192,192,235009,1,2,0:0:0:0:
448,192,235009,1,4,0:0:0:0:
320,192,235255,1,4,0:0:0:0:
64,192,235255,1,2,0:0:0:0:
448,192,235501,1,0,2:0:0:0:
64,192,235501,1,2,0:0:0:0:
192,192,235501,1,8,0:0:0:0:
320,192,235747,1,2,0:0:0:0:
192,192,235870,1,2,0:0:0:0:
320,192,235993,1,2,0:0:0:0:
448,192,235993,1,8,0:0:0:0:
64,192,235993,1,0,2:0:0:0:
64,192,236116,1,2,0:0:0:0:
192,192,236116,1,0,0:0:0:0:
320,192,236362,1,2,0:0:0:0:
192,192,236485,1,2,0:0:0:0:
448,192,236485,1,8,0:0:0:0:
64,192,236608,1,2,0:0:0:0:
192,192,236731,1,2,0:0:0:0:
320,192,236731,1,8,0:0:0:0:
448,184,236854,1,2,0:0:0:0:
448,192,237223,128,4,237591:2:0:0:0:
64,192,237223,128,4,237591:0:0:0:0:
192,192,237223,1,2,0:0:0:0:
320,192,237223,1,8,0:0:0:0:
448,192,237714,128,4,238083:2:0:0:0:
320,192,237714,1,8,0:0:0:0:
192,192,237714,1,2,0:0:0:0:
64,192,237714,128,4,238083:0:0:0:0:
320,192,238083,1,2,0:0:0:0:
192,192,238206,1,2,0:0:0:0:
448,192,238206,1,8,0:0:0:0:
64,192,238329,1,2,0:0:0:0:
320,192,238329,1,8,0:0:0:0:
448,192,238452,1,2,0:0:0:0:
192,192,238452,1,8,0:0:0:0:
320,192,238575,1,2,0:0:0:0:
192,192,238637,1,2,0:0:0:0:
64,192,238698,1,2,0:0:0:0:
448,192,238780,1,2,0:0:0:0:
320,192,238862,1,2,0:0:0:0:
192,192,238944,1,2,0:0:0:0:
448,192,238944,1,10,0:0:0:0:
64,192,239026,1,2,0:0:0:0:
192,192,239108,1,2,0:0:0:0:
320,192,239190,1,8,0:0:0:0:
448,192,239190,1,2,0:0:0:0:
64,192,239190,1,0,2:0:0:0:
64,192,239436,1,2,0:0:0:0:
192,192,239518,1,2,0:0:0:0:
320,192,239600,1,2,0:0:0:0:
448,192,239682,1,8,0:0:0:0:
192,192,239682,1,2,0:0:0:0:
64,192,239682,1,0,2:0:0:0:
448,192,239928,1,2,0:0:0:0:
320,192,239928,1,8,0:0:0:0:
64,192,239928,1,4,2:0:0:0:
448,192,240173,1,2,0:0:0:0:
64,192,240173,1,4,2:0:0:0:
192,192,240173,1,8,0:0:0:0:
320,192,240665,1,2,0:0:0:0:
192,192,240665,1,4,2:0:0:0:
448,192,241649,128,4,242632:0:0:0:0:
64,192,241649,1,2,0:0:0:0:
320,192,241649,1,8,0:0:0:0:
192,192,242141,1,0,2:0:0:0:
64,192,242632,1,2,0:0:0:0:
320,192,242632,1,8,0:0:0:0:
192,192,242714,1,2,0:0:0:0:
448,192,242714,1,8,0:0:0:0:
320,192,242796,1,2,0:0:0:0:
64,192,242796,1,8,0:0:0:0:
192,192,242878,1,2,0:0:0:0:
320,192,242960,1,2,0:0:0:0:
448,192,243042,1,2,0:0:0:0:
320,192,243124,1,2,0:0:0:0:
64,192,243124,1,8,0:0:0:0:
448,192,243206,1,2,0:0:0:0:
192,192,243206,1,8,0:0:0:0:
64,192,243288,1,2,0:0:0:0:
320,192,243288,1,8,0:0:0:0:
192,192,243370,1,2,0:0:0:0:
320,192,243452,1,2,0:0:0:0:
448,192,243534,1,2,0:0:0:0:
64,192,243616,1,2,0:0:0:0:
320,192,243616,1,8,0:0:0:0:
192,192,243698,1,2,0:0:0:0:
448,192,243698,1,8,0:0:0:0:
320,192,243780,1,2,0:0:0:0:
64,192,243780,1,8,0:0:0:0:
192,192,243862,1,2,0:0:0:0:
320,192,243944,1,2,0:0:0:0:
448,192,244026,1,2,0:0:0:0:
320,192,244108,1,4,2:0:0:0:
64,192,244108,128,2,244477:0:0:0:0:
192,192,244108,128,4,244477:0:0:0:0:
320,192,244477,1,2,0:0:0:0:
448,192,244477,1,4,0:0:0:0:
448,192,244723,1,2,0:0:0:0:
64,192,244846,1,0,2:0:0:0:
320,192,244969,1,2,0:0:0:0:
192,192,245091,1,2,0:0:0:0:
64,192,245091,1,8,0:0:0:0:
448,192,245091,1,0,2:0:0:0:
448,192,245214,1,2,0:0:0:0:
64,192,245337,1,0,2:0:0:0:
320,192,245460,1,2,0:0:0:0:
64,192,245665,1,0,2:0:0:0:
192,192,245706,1,2,0:0:0:0:
448,192,245829,1,0,2:0:0:0:
192,192,245952,1,2,0:0:0:0:
448,192,246075,1,2,0:0:0:0:
64,192,246075,1,8,0:0:0:0:
320,192,246075,1,0,2:0:0:0:
64,192,246198,1,2,0:0:0:0:
320,192,246321,1,0,2:0:0:0:
192,192,246444,1,2,0:0:0:0:
192,192,246690,1,2,0:0:0:0:
448,192,246813,1,0,2:0:0:0:
64,192,246936,1,2,0:0:0:0:
192,192,247059,1,0,2:0:0:0:
448,192,247059,1,8,0:0:0:0:
320,192,247059,1,2,0:0:0:0:
64,192,247182,1,2,0:0:0:0:
448,192,247305,1,8,0:0:0:0:
192,192,247305,1,2,0:0:0:0:
64,192,247428,1,2,0:0:0:0:
320,192,247428,1,8,0:0:0:0:
448,192,247550,1,2,0:0:0:0:
64,192,247673,1,0,2:0:0:0:
192,192,247673,1,2,0:0:0:0:
192,192,247919,1,0,2:0:0:0:
320,192,247919,1,2,0:0:0:0:
320,192,248165,1,0,2:0:0:0:
448,192,248165,1,2,0:0:0:0:
64,192,248411,1,4,0:0:0:0:
448,192,248411,1,2,0:0:0:0:
192,192,248657,1,2,0:0:0:0:
64,192,248780,1,0,2:0:0:0:
320,192,248903,1,2,0:0:0:0:
192,192,249026,1,8,0:0:0:0:
448,192,249026,1,2,0:0:0:0:
320,192,249026,1,0,2:0:0:0:
64,192,249149,1,2,0:0:0:0:
448,192,249272,1,0,2:0:0:0:
192,192,249395,1,2,0:0:0:0:
320,192,249600,1,0,2:0:0:0:
64,192,249641,1,2,0:0:0:0:
448,192,249764,1,0,2:0:0:0:
320,192,249887,1,2,0:0:0:0:
448,192,250009,1,8,0:0:0:0:
192,192,250009,1,2,0:0:0:0:
64,192,250009,1,0,2:0:0:0:
64,192,250132,1,2,0:0:0:0:
448,192,250255,1,0,2:0:0:0:
64,192,250378,1,8,0:0:0:0:
192,192,250378,1,2,0:0:0:0:
448,192,250501,1,2,0:0:0:0:
320,192,250563,1,2,0:0:0:0:
64,192,250624,1,8,0:0:0:0:
192,192,250624,1,2,0:0:0:0:
448,192,250747,1,8,0:0:0:0:
320,192,250747,1,2,0:0:0:0:
64,192,250870,1,2,0:0:0:0:
192,192,250932,1,2,0:0:0:0:
448,192,250993,1,8,0:0:0:0:
320,192,250993,1,2,0:0:0:0:
64,192,250993,1,0,2:0:0:0:
448,192,251239,1,8,0:0:0:0:
192,192,251239,1,2,0:0:0:0:
64,192,251239,1,0,2:0:0:0:
320,192,251362,1,2,0:0:0:0:
320,192,251608,1,2,0:0:0:0:
448,192,251731,1,0,2:0:0:0:
64,192,251854,1,2,0:0:0:0:
192,192,251915,1,2,0:0:0:0:
448,192,251977,1,8,0:0:0:0:
320,192,251977,1,2,0:0:0:0:
64,192,252100,1,2,0:0:0:0:
192,192,252100,1,8,0:0:0:0:
448,192,252223,1,8,0:0:0:0:
320,192,252223,1,2,0:0:0:0:
64,192,252346,1,2,0:0:0:0:
448,192,252346,1,4,0:0:0:0:
192,192,252591,1,2,0:0:0:0:
448,192,252714,1,8,0:0:0:0:
64,192,252714,1,2,0:0:0:0:
320,192,252714,1,0,2:0:0:0:
64,192,252960,1,2,0:0:0:0:
192,192,253083,1,2,0:0:0:0:
64,192,253206,1,8,0:0:0:0:
320,192,253206,1,2,0:0:0:0:
448,192,253329,1,2,0:0:0:0:
320,192,253534,1,0,2:0:0:0:
192,192,253575,1,2,0:0:0:0:
64,192,253698,1,2,0:0:0:0:
448,192,253698,1,8,0:0:0:0:
320,192,253698,1,0,2:0:0:0:
64,192,253821,1,2,0:0:0:0:
448,192,253944,1,2,0:0:0:0:
192,192,254067,1,2,0:0:0:0:
320,192,254190,1,2,0:0:0:0:
64,192,254190,1,8,0:0:0:0:
192,192,254313,1,4,0:0:0:0:
448,192,254313,1,2,0:0:0:0:
320,192,254559,1,2,0:0:0:0:
448,192,254682,1,8,0:0:0:0:
192,192,254682,1,2,0:0:0:0:
64,192,254805,1,2,0:0:0:0:
192,192,254928,1,2,0:0:0:0:
320,192,255050,1,2,0:0:0:0:
192,192,255173,1,2,0:0:0:0:
64,192,255173,1,8,0:0:0:0:
448,192,255296,1,2,0:0:0:0:
64,192,255542,1,2,0:0:0:0:
192,192,255604,1,2,0:0:0:0:
320,192,255665,1,8,0:0:0:0:
448,192,255665,1,2,0:0:0:0:
64,192,255788,1,2,0:0:0:0:
192,192,255911,1,2,0:0:0:0:
320,192,255911,1,8,0:0:0:0:
448,192,256034,1,2,0:0:0:0:
320,192,256096,1,2,0:0:0:0:
192,192,256157,1,2,0:0:0:0:
64,192,256157,1,8,0:0:0:0:
448,192,256280,1,2,0:0:0:0:
64,192,256280,1,4,0:0:0:0:
320,192,256526,1,2,0:0:0:0:
448,192,256649,1,2,0:0:0:0:
64,192,256649,1,8,0:0:0:0:
320,192,256649,1,0,2:0:0:0:
192,192,256772,1,2,0:0:0:0:
320,192,257018,1,2,0:0:0:0:
192,192,257141,1,2,0:0:0:0:
64,192,257141,1,8,0:0:0:0:
448,192,257264,1,2,0:0:0:0:
320,192,257469,1,0,2:0:0:0:
192,192,257509,1,2,0:0:0:0:
448,192,257632,1,8,0:0:0:0:
64,192,257632,1,0,2:0:0:0:
320,192,257632,1,2,0:0:0:0:
64,192,257755,1,2,0:0:0:0:
448,192,258001,1,2,0:0:0:0:
192,192,258124,1,8,0:0:0:0:
320,192,258124,1,2,0:0:0:0:
64,192,258124,1,0,2:0:0:0:
64,192,258247,1,2,0:0:0:0:
448,192,258247,1,4,0:0:0:0:
320,192,258493,1,2,0:0:0:0:
192,192,258616,1,2,0:0:0:0:
448,192,258616,1,8,0:0:0:0:
64,192,258616,1,0,2:0:0:0:
448,192,258739,1,2,0:0:0:0:
320,192,258862,1,2,0:0:0:0:
64,192,258862,1,8,0:0:0:0:
192,192,258985,1,2,0:0:0:0:
448,192,259108,1,8,0:0:0:0:
320,192,259108,1,2,0:0:0:0:
64,192,259231,1,2,0:0:0:0:
192,192,259354,1,8,0:0:0:0:
320,192,259354,1,2,0:0:0:0:
448,192,259477,1,2,0:0:0:0:
64,192,259600,1,8,0:0:0:0:
320,192,259600,1,2,0:0:0:0:
192,192,259723,1,2,0:0:0:0:
448,192,259846,1,2,0:0:0:0:
320,192,259969,1,2,0:0:0:0:
64,192,259969,1,8,0:0:0:0:
192,192,260091,1,8,0:0:0:0:
448,192,260091,1,2,0:0:0:0:
320,192,260214,1,4,0:0:0:0:
64,192,260214,1,2,0:0:0:0:
