osu file format v13

[General]
AudioFilename: Variation.mp3
AudioLeadIn: 0
PreviewTime: 203042
Countdown: 0
SampleSet: Normal
StackLeniency: 0.7
Mode: 0
LetterboxInBreaks: 1
EpilepsyWarning: 1
WidescreenStoryboard: 1

[Editor]
DistanceSpacing: 1.1
BeatDivisor: 4
GridSize: 4
TimelineZoom: 1

[Metadata]
Title:Kagerou Variation
TitleUnicode:影炎≒Variation
Artist:Hanatan
ArtistUnicode:花たん
Creator:Kenterz
Version:Normal
Source:
Tags:Yairi Fast
BeatmapID:444431
BeatmapSetID:185962

[Difficulty]
HPDrainRate:3
CircleSize:3
OverallDifficulty:3
ApproachRate:5
SliderMultiplier:0.799999999999999
SliderTickRate:1

[Events]
//Background and Video events
0,0,"BG.jpg",0,0
//Break Periods
2,14020,27990
2,84841,98809
//Storyboard Layer 0 (Background)
//Storyboard Layer 1 (Fail)
//Storyboard Layer 2 (Pass)
//Storyboard Layer 3 (Foreground)
Sprite,Foreground,Centre,"SB\light.png",320,240 M,0,199846,200214,209,318 F,0,199846,200214,1,0 S,0,199846,200214,0.4223589,0.6061534
Sprite,Foreground,Centre,"SB\light.png",320,240 M,0,200583,200952,316,117,314,114 F,0,200583,200952,1,0 S,0,200583,200952,0.3501537,0.5733331
Sprite,Foreground,Centre,"SB\light.png",320,240 M,0,201321,,423,325 S,0,201321,,0.3173332 F,0,201321,201567,1,0
Sprite,Foreground,Centre,"SB\light.png",320,240 M,0,201567,,351,355 S,0,201567,,0.291077 F,0,201567,201813,1,0.06133331
Sprite,Foreground,Centre,"SB\light.png",320,240 S,0,201813,,0.3304614 M,0,201813,202182,297,309,205,317 M,0,202182,202550,205,317,289,309
Sprite,Foreground,Centre,"SB\light.png",320,240 S,0,57223,,0.3501537 M,0,57223,57960,318,364,308,192 M,0,57960,58698,308,192,320,357 F,0,58698,58944,1,0
Sprite,Foreground,Centre,"SB\light.png",320,240 M,0,58944,,390,402 S,0,58944,,0.3764101 F,0,58944,59190,1,0
Sprite,Foreground,Centre,"SB\light.png",320,240 M,0,59190,,451,347 S,0,59190,,0.350154 F,0,59190,59436,1,0
//Storyboard Sound Samples
//Background Colour Transformations
3,100,163,162,255

[TimingPoints]
2809.02146656535,434.782608695652,4,2,1,80,1,0
9765,245.901639344262,4,1,1,80,1,0
10010,245.901639344262,4,1,1,80,1,0
13821,-133.333333333333,4,1,1,80,0,0
44928,-133.333333333333,4,2,1,50,0,0
45419,-100,4,1,1,80,0,0
52796,-133.333333333333,4,1,1,80,0,0
61157,-100,4,1,2,80,0,1
61219,-100,4,1,1,80,0,1
68042,-100,4,1,1,60,0,1
68534,-100,4,1,1,80,0,1
72469,-100,4,1,1,60,0,1
72960,-100,4,1,1,80,0,1
74436,-100,4,1,1,60,0,1
74682,-100,4,1,1,70,0,1
74928,-100,4,1,1,80,0,1
76895,-100,4,1,1,80,0,1
80337,-100,4,1,1,60,0,1
80829,-100,4,1,1,80,0,1
81813,-100,4,1,1,80,0,0
82305,-133.333333333333,4,1,1,80,0,0
115747,-133.333333333333,4,2,1,50,0,0
116239,-100,4,1,1,80,0,0
119682,-100,4,1,1,60,0,0
120173,-100,4,1,1,80,0,0
124108,-133.333333333333,4,1,1,80,0,0
130009,-133.333333333333,4,1,1,40,0,0
130501,-133.333333333333,4,1,1,50,0,0
131239,-133.333333333333,4,2,1,60,0,0
131977,-100,4,1,2,80,0,1
132038,-100,4,1,1,80,0,1
138862,-100,4,1,1,60,0,1
139600,-100,4,1,1,80,0,1
143288,-100,4,1,1,60,0,1
143780,-100,4,1,1,80,0,1
145255,-100,4,1,1,60,0,1
145747,-100,4,1,1,80,0,1
147714,-100,4,1,1,80,0,1
152632,-100,4,1,1,80,0,0
153124,-133.333333333333,4,1,1,80,0,0
155153,-133.333333333333,4,1,1,5,0,0
155522,-133.333333333333,4,2,1,5,0,0
155583,-100,4,2,1,55,0,0
156567,-100,4,2,1,45,0,0
157550,-100,4,2,1,35,0,0
158534,-100,4,2,1,25,0,0
159518,-100,4,2,1,15,0,0
160501,-100,4,2,1,5,0,0
163452,-100,4,1,1,70,0,0
186075,-100,4,1,1,50,0,0
187059,-100,4,1,1,80,0,0
187428,-100,4,1,1,50,0,0
187550,-133.333333333333,4,2,1,40,0,0
188042,-100,4,1,1,80,0,0
191485,-100,4,1,1,60,0,0
191977,-100,4,1,1,80,0,0
193452,-100,4,1,1,60,0,0
193944,-100,4,1,1,80,0,0
195911,-133.333333333333,4,1,1,80,0,0
201874,-133.333333333333,4,1,1,60,0,0
203780,-200,4,1,1,80,0,1
203841,-200,4,1,1,80,0,0
209190,-100,4,1,1,80,0,0
209559,-100,4,1,1,80,0,1
210665,-100,4,1,1,60,0,1
211157,-100,4,1,1,80,0,1
215091,-100,4,1,1,60,0,1
215583,-100,4,1,1,80,0,1
217059,-100,4,1,1,60,0,1
217550,-100,4,1,1,80,0,1
219272,-100,4,1,1,80,0,0
219518,-100,4,1,2,80,0,1
219579,-100,4,1,1,80,0,1
227141,-100,4,1,1,80,0,0
227387,-100,4,1,1,90,0,1
228862,-100,4,1,1,60,0,1
229354,-100,4,1,1,90,0,1
236731,-100,4,1,1,80,0,0
237223,-133.333333333333,4,1,1,80,0,0
239190,-100,4,1,1,80,0,0
241649,-200,4,1,1,80,0,0
242632,-100,4,1,1,50,0,0
243124,-100,4,1,1,60,0,0
243616,-100,4,1,1,70,0,0
244108,-133.333333333333,4,1,1,80,0,0
244477,-133.333333333333,4,1,1,80,0,0

[Colours]
Combo1 : 192,192,192
Combo2 : 255,255,255

[HitObjects]
112,128,10010,6,0,B|208:120|208:120|280:152,1,160,0|8,0:0|0:0,0:0:0:0:
332,192,10747,1,0,0:0:0:0:
324,272,10993,2,0,P|384:256|404:156,1,160
304,108,11854,6,0,L|176:112,1,120,0|8,0:0|0:0,0:0:0:0:
116,68,12469,2,0,P|104:124|148:184,2,120,8|2|2,0:0|0:0|0:0,0:0:0:0:
192,28,13452,2,0,B|220:16|252:32|252:32|280:48|312:32,1,120,4|0,0:2|2:0,0:0:0:0:
88,96,29190,6,0,L|184:88,2,90.0000034332276,0|4|0,0:0|0:0|0:0,0:0:0:0:
40,160,30173,2,0,P|32:196|80:260,1,120.000004577637,8|0,0:0|0:0,0:0:0:0:
236,252,31157,2,0,P|224:204|236:160,2,90.0000034332276,8|0|0,0:0|0:0|0:0,0:0:0:0:
296,300,32141,2,0,L|424:296,1,120.000004577637,8|0,0:0|0:0,0:0:0:0:
372,148,33124,6,0,P|360:100|380:56,2,90.0000034332276,8|4|0,0:0|0:0|0:0,0:0:0:0:
420,212,34108,2,0,P|372:228|308:196,1,120.000004577637,8|0,0:0|0:0,0:0:0:0:
204,96,35091,2,0,L|108:88,2,90.0000034332276,8|0|0,0:0|0:0|0:0,0:0:0:0:
272,132,36075,2,0,P|284:188|248:252,1,120.000004577637,8|0,0:0|0:0,0:0:0:0:
196,292,36813,1,0,0:0:0:0:
120,272,37059,6,0,P|80:256|24:264,2,90.0000034332276,8|4|0,0:0|0:0|0:0,0:0:0:0:
196,292,38042,2,0,L|192:160,1,120.000004577637,8|0,0:0|0:0,0:0:0:0:
328,96,39026,2,0,B|372:68|372:68|416:76,2,90.0000034332276,8|4|0,0:0|0:0|0:0,0:0:0:0:
288,164,40009,2,0,L|288:296,1,120.000004577637,8|0,0:0|0:0,0:0:0:0:
148,352,40993,6,0,L|48:340,2,90.0000034332276,8|4|0,0:0|0:0|0:0,0:0:0:0:
196,292,41977,2,0,P|220:240|196:176,1,120.000004577637,8|0,0:0|0:0,0:0:0:0:
296,56,42960,2,0,P|364:60|396:96,1,120.000004577637,8|4,0:0|0:0,0:0:0:0:
388,252,43944,2,0,L|336:364,2,120.000004577637,8|4|0,0:0|0:0|0:0,0:0:0:0:
320,200,45173,1,0,0:0:0:0:
240,220,45419,6,0,B|192:268|128:236|128:236|96:104,2,240,4|0|8,0:0|0:0|0:0,0:0:0:0:
284,144,47141,1,0,0:0:0:0:
372,108,47387,2,0,B|391:157|369:206|332:227|332:227|351:341,2,240,4|0|8,0:0|0:0|0:0,0:0:0:0:
300,60,49108,1,0,0:0:0:0:
212,64,49354,6,0,B|148:76|148:76|136:152|68:188|16:168,2,240,4|0|8,0:0|0:0|0:0,0:0:0:0:
292,96,51075,1,8,0:0:0:0:
288,180,51321,2,0,B|276:360|276:360|340:348,2,240,4|8|8,0:0|0:0|0:0,0:0:0:0:
224,36,53288,6,0,L|104:44,1,120.000004577637,4|8,0:0|0:0,0:0:0:0:
100,180,54272,2,0,P|124:224|96:296,1,120.000004577637,0|8,0:0|0:0,0:0:0:0:
248,352,55255,2,0,B|268:344|284:324|284:324|368:332,1,120.000004577637,4|8,0:0|0:0,0:0:0:0:
348,200,56239,2,0,L|352:128,2,60.0000022888184,0|0|8,0:0|0:0|0:0,0:0:0:0:
260,296,57223,6,0,L|248:108,2,180.000006866455,4|4|4,0:0|0:0|0:0,0:0:0:0:
328,336,58944,1,0,0:0:0:0:
388,272,59190,1,0,0:0:0:0:
388,272,61157,6,0,L|396:136,2,120,6|0|8,0:0|0:0|0:0,0:0:0:0:
324,332,62141,2,0,P|284:340|236:312,1,79.9999999999999,0|8,0:0|0:0,0:0:0:0:
196,256,62632,2,0,L|184:168,1,79.9999999999999,0|8,0:0|0:0,0:0:0:0:
220,96,63124,2,0,P|168:88|104:136,2,120,0|0|8,0:0|0:0|0:0,0:0:0:0:
296,136,64108,1,0,0:0:0:0:
312,224,64354,2,0,L|308:312,2,79.9999999999999,8|0|8,0:0|0:0|0:0,0:0:0:0:
296,136,65091,6,0,B|300:60|300:60|340:16,2,120,4|0|8,0:0|0:0|0:0,0:0:0:0:
312,224,66075,2,0,L|224:232,1,79.9999999999999,0|8,0:0|0:0,0:0:0:0:
156,276,66567,2,0,P|144:224|180:160,2,120,0|4|8,0:0|0:0|0:0,0:0:0:0:
224,332,67550,2,0,P|280:316|312:324,1,79.9999999999999,0|8,0:0|0:0,0:0:0:0:
380,356,68042,2,0,L|388:264,2,79.9999999999999,2|2|0,0:0|0:0|0:0,0:0:0:0:
316,192,69026,6,0,L|440:184,2,120,4|0|8,0:0|0:0|0:0,0:0:0:0:
244,244,70009,2,0,P|212:272|164:276,1,79.9999999999999,0|8,0:0|0:0,0:0:0:0:
92,256,70501,2,0,L|100:168,1,79.9999999999999,0|8,0:0|0:0,0:0:0:0:
148,104,70993,2,0,B|112:80|72:92|72:92|24:80,2,120,4|0|8,0:0|0:0|0:0,0:0:0:0:
208,168,71977,2,0,P|268:188|292:176,1,79.9999999999999,0|8,0:0|0:0,0:0:0:0:
336,116,72469,2,0,P|308:80|304:40,1,79.9999999999999,2|2,0:0|0:0,0:0:0:0:
392,44,72960,6,0,L|512:52,2,120,4|0|8,0:0|0:0|0:0,0:0:0:0:
336,116,73944,2,0,L|340:200,1,79.9999999999999,0|8,0:0|0:0,0:0:0:0:
312,280,74436,2,0,P|264:300|224:288,1,79.9999999999999,2|2,0:0|0:0,0:0:0:0:
168,244,74928,2,0,B|148:212|164:168|164:168|140:124|160:76,1,160,4|0,0:0|0:0,0:0:0:0:
220,32,75665,1,8,0:0:0:0:
296,76,75911,2,0,L|376:68,2,79.9999999999999,0|8|0,0:0|0:0|0:0,0:0:0:0:
204,216,76895,6,0,P|180:292|252:332,1,160,4|0,0:0|0:0,0:0:0:0:
316,300,77632,1,8,0:0:0:0:
404,308,77878,2,0,B|408:272|384:240|384:240|392:148,1,160,0|8,0:0|0:0,0:0:0:0:
348,76,78616,1,0,0:0:0:0:
264,100,78862,2,0,L|96:84,2,160,4|8|0,0:0|0:0|0:0,0:0:0:0:
328,164,80091,1,0,0:0:0:0:
284,240,80337,2,0,P|288:284|264:328,1,79.9999999999999,8|2,0:0|0:0,0:0:0:0:
200,268,80829,6,0,P|140:248|124:152,1,160,4|8,0:0|0:0,0:0:0:0:
172,92,81567,2,0,L|256:88,1,79.9999999999999,0|4,0:0|0:0,0:0:0:0:
336,192,82305,1,0,0:0:0:0:
256,192,82673,12,4,84641,0:0:0:0:
100,172,100009,6,0,P|88:132|108:76,2,90.0000034332276,0|4|0,0:0|0:0|0:0,0:0:0:0:
164,224,100993,2,0,L|292:220,1,120.000004577637,8|0,0:0|0:0,0:0:0:0:
420,300,101977,2,0,P|432:249|417:206,2,90.0000034332276,8|0|0,0:0|0:0|0:0,0:0:0:0:
352,340,102960,2,0,B|292:344|292:344|224:316,1,120.000004577637,8|0,0:0|0:0,0:0:0:0:
204,168,103944,6,0,L|300:164,2,90.0000034332276,8|0|0,0:0|0:0|0:0,0:0:0:0:
124,152,104928,2,0,P|116:112|160:44,1,120.000004577637,8|0,0:0|0:0,0:0:0:0:
304,96,105911,2,0,L|296:188,2,90.0000034332276,8|4|0,0:0|0:0|0:0,0:0:0:0:
324,20,106895,2,0,P|372:52|380:120,1,120.000004577637,8|0,0:0|0:0,0:0:0:0:
376,188,107632,1,0,0:0:0:0:
336,256,107878,6,0,L|236:264,2,90.0000034332276,8|4|0,0:0|0:0|0:0,0:0:0:0:
356,332,108862,2,0,L|168:348,1,180.000006866455,8|0,0:0|0:0,0:0:0:0:
120,292,109846,2,0,P|76:288|32:312,2,90.0000034332276,8|4|0,0:0|0:0|0:0,0:0:0:0:
176,347,110829,2,0,B|208:316|204:264|178:238|178:238|220:256|248:240,1,180.000006866455
304,204,111813,6,0,P|348:200|392:220,2,90.0000034332276,8|4|0,0:0|0:0|0:0,0:0:0:0:
235,245,112796,2,0,P|184:240|144:128,1,180.000006866455
196,80,113780,2,0,L|260:100,1,60.0000022888184,8|0,0:0|0:0,0:0:0:0:
328,124,114272,2,0,L|340:248,1,120.000004577637,0|8,0:0|0:0,0:0:0:0:
344,324,115009,1,0,0:0:0:0:
412,280,115255,2,0,P|424:332|392:388,1,120.000004577637,0|0,0:0|0:0,0:0:0:0:
344,324,115993,1,0,0:0:0:0:
288,268,116239,6,0,B|244:260|212:288|212:288|128:240|56:280,2,240,4|0|8,0:0|0:0|0:0,0:0:0:0:
348,320,117960,1,0,0:0:0:0:
364,240,118206,2,0,B|376:160|376:160|448:128|440:48|404:20,2,240,4|0|8,0:0|0:0|0:0,0:0:0:0:
284,264,119928,1,2,0:0:0:0:
228,208,120173,6,0,B|168:224|116:200|116:200|116:200|116:200|80:260|4:240,2,240,4|0|8,0:0|0:0|0:0,0:0:0:0:
276,144,121895,1,0,0:0:0:0:
200,112,122141,2,0,L|184:360,2,240,4|8|8,0:0|0:0|0:0,0:0:0:0:
268,68,123862,1,0,0:0:0:0:
340,100,124108,6,0,L|464:96,1,120.000004577637,4|8,0:0|0:0,0:0:0:0:
452,252,125091,2,0,P|448:296|380:336,1,120.000004577637,0|8,0:0|0:0,0:0:0:0:
316,304,125829,2,0,L|244:308,1,60.0000022888184,0|4,0:0|0:0,0:0:0:0:
100,284,126567,2,0,L|96:212,1,60.0000022888184,8|0,0:0|0:0,0:0:0:0:
80,148,127059,2,0,B|200:136|200:136|252:176,1,180.000006866455,0|8,0:0|0:0,0:0:0:0:
238,252,128042,6,0,B|304:256|342:197|320:140|320:140|400:148|419:73,1,300.000011444092,4|0,0:0|0:0,0:0:0:0:
336,56,129518,2,0,L|272:48,1,60.0000022888184,8|0,0:0|0:0,0:0:0:0:
200,68,130009,2,0,L|192:168,2,90.0000034332276,4|4|4,0:0|0:0|0:0,0:0:0:0:
216,52,131977,6,0,L|220:216,1,160,6|0,0:0|0:0,0:0:0:0:
188,296,132714,1,8,0:0:0:0:
264,336,132960,2,0,L|352:332,1,79.9999999999999,0|8,0:0|0:0,0:0:0:0:
416,284,133452,2,0,P|436:240|424:196,1,79.9999999999999,0|8,0:0|0:0,0:0:0:0:
376,140,133944,2,0,B|312:128|276:168|276:168|208:160,1,160,4|0,0:0|0:0,0:0:0:0:
140,144,134682,1,8,0:0:0:0:
76,204,134928,2,0,L|84:296,1,79.9999999999999,0|8,0:0|0:0,0:0:0:0:
168,304,135419,2,0,L|174:224,1,79.9999999999999,0|8,0:0|0:0,0:0:0:0:
228,156,135911,6,0,L|392:152,1,160,4|0,0:0|0:0,0:0:0:0:
456,96,136649,1,8,0:0:0:0:
412,20,136895,2,0,P|364:12|324:32,1,79.9999999999999,0|8,0:0|0:0,0:0:0:0:
260,68,137387,2,0,P|208:84|136:56,2,120,0|4|8,0:0|0:0|0:0,0:0:0:0:
340,108,138370,2,0,L|336:200,1,79.9999999999999,0|8,0:0|0:0,0:0:0:0:
372,268,138862,2,0,P|408:280|460:264,2,79.9999999999999,2|2|2,0:0|0:0|0:0,0:0:0:0:
284,256,139600,1,8,0:0:0:0:
208,288,139846,6,0,L|120:284,1,79.9999999999999,4|8,0:0|0:0,0:0:0:0:
60,228,140337,2,0,P|44:188|72:104,2,120,0|8|8,0:0|0:0|0:0,0:0:0:0:
128,172,141321,2,8,P|172:180|212:160,1,79.9999999999999,0|8,0:0|0:0,0:0:0:0:
268,108,141813,2,0,L|352:100,1,79.9999999999999,4|8,0:0|0:0,0:0:0:0:
412,160,142305,2,0,L|400:288,2,120,0|8|8,0:0|0:0|0:0,0:0:0:0:
328,180,143288,2,0,L|320:260,1,79.9999999999999,2|2,0:0|0:0,0:0:0:0:
249,310,143780,6,0,P|214:329|175:325,1,79.9999999999999,4|8,0:0|0:0,0:0:0:0:
108,268,144272,2,0,P|60:232|0:244,2,120,0|8|8,0:0|0:0|0:0,0:0:0:0:
196,240,145255,2,0,L|192:160,1,79.9999999999999,2|2,0:0|0:0,0:0:0:0:
172,76,145747,2,0,B|220:68|256:100|256:100|340:84,1,160,4|0,0:0|0:0,0:0:0:0:
408,116,146485,1,8,0:0:0:0:
432,200,146731,2,0,L|424:279,2,79.9999999999999,0|8|0,0:0|0:0|0:0,0:0:0:0:
272,276,147714,6,0,B|224:312|224:312|120:296,1,160,4|0,0:0|0:0,0:0:0:0:
40,276,148452,1,8,0:0:0:0:
104,212,148698,2,0,P|116:172|96:124,1,79.9999999999999,0|8,0:0|0:0,0:0:0:0:
52,76,149190,2,0,P|92:56|136:64,1,79.9999999999999,0|8,0:0|0:0,0:0:0:0:
192,104,149682,2,0,P|232:128|268:124,1,79.9999999999999
324,72,150173,2,0,B|316:156|316:156|332:200,2,120,0|8|8,0:0|0:0|0:0,0:0:0:0:
248,40,151157,2,0,L|168:48,1,79.9999999999999,2|2,0:0|0:0,0:0:0:0:
116,108,151649,6,0,P|156:172|248:160,1,160,0|8,0:0|0:0,0:0:0:0:
296,116,152387,2,0,L|280:20,1,79.9999999999999,0|4,0:0|0:0,0:0:0:0:
312,196,153124,1,0,0:0:0:0:
256,192,153493,12,0,155460,0:0:0:0:
256,192,155583,12,4,162469,0:0:0:0:
144,136,163452,6,0,P|136:176|152:216,1,79.9999999999999
232,248,163944,2,0,L|396:236,2,160,8|0|8,0:0|0:0|0:0,0:0:0:0:
164,304,165173,1,8,0:0:0:0:
104,240,165419,2,0,B|80:204|48:192|48:192|60:100,1,160,4|8,0:0|0:0,0:0:0:0:
132,56,166157,1,0,0:0:0:0:
216,28,166403,2,0,L|380:32,1,160,0|8,0:0|0:0,0:0:0:0:
444,88,167141,1,8,0:0:0:0:
448,180,167387,6,0,P|424:254|354:288,1,160,4|8,0:0|0:0,0:0:0:0:
268,252,168124,1,0,0:0:0:0:
192,200,168370,2,0,L|16:220,2,160,0|8|0,0:0|0:0|0:0,0:0:0:0:
280,164,169600,1,0,0:0:0:0:
356,224,169846,2,0,L|352:308,1,79.9999999999999,8|0,0:0|0:0,0:0:0:0:
436,264,170337,2,0,L|444:88,1,160,0|8,0:0|0:0,0:0:0:0:
392,24,171075,1,8,0:0:0:0:
312,56,171321,6,0,P|264:48|224:68,1,79.9999999999999,4|8,0:0|0:0,0:0:0:0:
192,136,171813,2,0,L|184:232,1,79.9999999999999,0|8,0:0|0:0,0:0:0:0:
160,300,172305,2,0,B|200:312|236:288|236:288|280:320|328:304,1,160,0|0,0:0|0:0,0:0:0:0:
392,268,173042,1,8,0:0:0:0:
432,188,173288,2,0,L|428:100,1,79.9999999999999,4|0,0:0|0:0,0:0:0:0:
352,68,173780,2,0,P|308:64|264:88,1,79.9999999999999
208,140,174272,2,0,B|176:100|188:56|188:56|108:36,2,160,0|0|14,0:0|0:0|0:0,0:0:0:0:
292,172,175501,6,0,L|376:168,1,79.9999999999999,8|10,0:0|0:0,0:0:0:0:
448,216,175993,2,0,P|468:256|464:296,1,79.9999999999999,8|2,0:0|0:0,0:0:0:0:
380,272,176485,2,0,P|324:288|292:276,1,79.9999999999999,2|8,0:0|0:0,0:0:0:0:
232,236,176977,1,8,0:0:0:0:
204,152,177223,2,0,P|228:108|216:40,2,120,0|8|0,0:0|0:0|0:0,0:0:0:0:
144,216,178206,2,0,P|120:172|132:104,2,120,0|0|8,0:0|0:0|0:0,0:0:0:0:
232,236,179190,6,0,L|316:224,2,79.9999999999999,4|8|8,0:0|0:0|0:0,0:0:0:0:
284,308,179928,2,0,L|368:316,1,79.9999999999999,0|8,0:0|0:0,0:0:0:0:
444,276,180419,1,8,0:0:0:0:
480,196,180665,2,0,B|432:180|392:204|392:204|320:180,1,160,8|4,0:0|0:0,0:0:0:0:
252,132,181403,1,8,0:0:0:0:
184,188,181649,2,0,L|176:272,1,79.9999999999999,8|0,0:0|0:0,0:0:0:0:
108,336,182141,2,0,P|64:336|24:304,1,79.9999999999999,8|8,0:0|0:0,0:0:0:0:
16,224,182632,2,0,L|24:140,1,79.9999999999999,8|8,0:0|0:0,0:0:0:0:
104,92,183124,6,0,L|192:84,2,79.9999999999999,4|8|8,0:0|0:0|0:0,0:0:0:0:
160,172,183862,2,0,L|248:176,2,79.9999999999999,0|8|8,0:0|0:0|0:0,0:0:0:0:
200,260,184600,2,0,L|288:276,2,79.9999999999999,0|8|8,0:0|0:0|0:0,0:0:0:0:
112,300,185337,2,0,L|24:324,2,79.9999999999999,0|8|8,0:0|0:0|0:0,0:0:0:0:
200,260,186075,2,0,B|264:240|264:168|228:132|228:132|268:100|268:24|200:4,1,320,8|4,0:0|0:0,0:0:0:0:
128,32,187305,1,0,0:0:0:0:
100,112,187550,2,0,L|96:184,1,60.0000022888184
68,256,188042,6,0,B|128:272|168:224|168:224|264:320,2,240,4|0|8,0:0|0:0|0:0,0:0:0:0:
96,168,189764,1,8,0:0:0:0:
180,140,190009,2,0,B|264:108|320:164|320:164|360:132|416:140,2,240,4|0|8,0:0|0:0|0:0,0:0:0:0:
164,228,191731,1,8,0:0:0:0:
232,288,191977,6,0,B|288:304|336:256|336:204|336:204|324:116,2,240,0|0|8,0:0|0:0|0:0,0:0:0:0:
248,204,193698,1,8,0:0:0:0:
188,140,193944,2,0,L|64:132,2,120,4|0|8,0:0|0:0|0:0,0:0:0:0:
276,120,194928,2,0,P|320:152|332:184,1,79.9999999999999,0|8,0:0|0:0,0:0:0:0:
324,264,195419,2,0,L|320:356,1,79.9999999999999,0|8,0:0|0:0,0:0:0:0:
240,364,195911,6,0,P|196:332|124:340,1,120.000004577637,4|8,0:0|0:0,0:0:0:0:
72,220,196895,2,0,B|88:148|88:148|80:96,1,120.000004577637,0|8,0:0|0:0,0:0:0:0:
136,40,197632,1,0,0:0:0:0:
212,64,197878,2,0,L|284:68,1,60.0000022888184,4|0,0:0|0:0,0:0:0:0:
340,108,198370,2,0,L|348:176,1,60.0000022888184,8|0,0:0|0:0,0:0:0:0:
284,212,198862,2,0,B|248:216|216:184|216:184|160:184,1,120.000004577637,0|8,0:0|0:0,0:0:0:0:
96,200,199600,1,0,0:0:0:0:
148,260,199846,5,4,0:0:0:0:
256,52,200583,1,4,0:0:0:0:
364,260,201321,1,4,0:0:0:0:
292,292,201567,1,0,0:0:0:0:
232,240,201813,2,0,L|136:248,2,90.0000034332276,0|0|0,0:0|0:0|0:0,0:0:0:0:
448,92,203780,5,4,0:0:0:0:
152,192,205255,2,0,L|160:276,1,79.9999999999999,4|4,0:0|0:0,0:0:0:0:
460,192,207223,2,0,L|467:112,1,79.9999999999999,4|4,0:0|0:0,0:0:0:0:
288,40,209190,6,0,L|164:48,2,120,0|4|8,0:0|0:0|0:0,0:0:0:0:
368,80,210173,2,0,P|388:128|384:160,1,79.9999999999999,0|8,0:0|0:0,0:0:0:0:
368,240,210665,2,0,L|452:248,2,79.9999999999999,0|0|0,0:0|0:0|0:0,0:0:0:0:
188,280,211649,6,0,L|176:196,1,79.9999999999999,4|8,0:0|0:0,0:0:0:0:
220,124,212141,2,0,B|184:100|140:120|140:120|96:100,2,120,0|8|8,0:0|0:0|0:0,0:0:0:0:
284,184,213124,2,8,P|320:208|364:204,1,79.9999999999999,8|8,0:0|0:0,0:0:0:0:
440,176,213616,2,0,L|444:84,1,79.9999999999999,4|8,0:0|0:0,0:0:0:0:
380,36,214108,2,0,L|256:48,2,120,0|8|8,0:0|0:0|0:0,0:0:0:0:
443,96,215091,2,0,L|440:176,1,79.9999999999999,2|2,0:0|0:0,0:0:0:0:
400,256,215583,6,0,P|352:248|316:260,1,79.9999999999999,4|8,0:0|0:0,0:0:0:0:
240,292,216075,2,0,P|232:240|276:176,2,120,0|8|8,0:0|0:0|0:0,0:0:0:0:
168,344,217059,2,0,P|124:348|80:320,1,79.9999999999999,2|2,0:0|0:0,0:0:0:0:
36,264,217550,2,0,L|44:168,1,79.9999999999999,4|8,0:0|0:0,0:0:0:0:
108,124,218042,2,0,L|204:116,1,79.9999999999999,0|8,0:0|0:0,0:0:0:0:
256,60,218534,2,0,P|276:108|268:148,2,79.9999999999999,8|0|8,0:0|0:0|0:0,0:0:0:0:
108,124,219518,6,0,B|96:168|112:200|112:200|100:252|108:284,1,160,6|0,0:0|0:0,0:0:0:0:
176,340,220255,2,0,L|300:328,2,120,8|8|0,0:0|0:0|0:0,0:0:0:0:
196,252,221239,1,8,0:0:0:0:
156,176,221485,2,0,P|136:132|208:48,1,160,4|0,0:0|0:0,0:0:0:0:
280,68,222223,2,0,P|364:84|400:64,2,120,8|8|0,0:0|0:0|0:0,0:0:0:0:
216,124,223206,1,8,0:0:0:0:
192,208,223452,6,0,B|180:312|180:312|232:360,1,160,4|0,0:0|0:0,0:0:0:0:
304,332,224190,2,0,L|428:320,2,120,8|8|0,0:0|0:0|0:0,0:0:0:0:
260,252,225173,1,0,0:0:0:0:
288,172,225419,2,0,P|308:116|252:24,1,160,4|8,0:0|0:0,0:0:0:0:
172,40,226157,2,0,L|88:32,2,79.9999999999999,0|8|0,0:0|0:0|0:0,0:0:0:0:
212,120,226895,2,0,P|196:156|208:208,1,79.9999999999999,0|8,0:0|0:0,0:0:0:0:
134,254,227387,6,0,P|205:283|273:246,1,160,4|8,0:0|0:0,0:0:0:0:
344,200,228124,1,8,0:0:0:0:
300,124,228370,2,0,L|204:136,1,79.9999999999999,8|8,0:0|0:0,0:0:0:0:
264,44,228862,2,0,P|292:36|344:48,1,79.9999999999999,2|8,0:0|0:0,0:0:0:0:
392,116,229354,2,0,L|388:284,1,160,4|8,0:0|0:0,0:0:0:0:
328,336,230091,1,8,0:0:0:0:
256,284,230337,2,0,P|208:312|176:308,1,79.9999999999999,8|8,0:0|0:0,0:0:0:0:
192,224,230829,2,0,P|200:180|176:140,1,79.9999999999999,2|8,0:0|0:0,0:0:0:0:
100,132,231321,6,0,L|96:304,1,160,4|8,0:0|0:0,0:0:0:0:
180,312,232059,1,8,0:0:0:0:
264,284,232305,2,0,P|296:324|336:336,1,79.9999999999999,8|8,0:0|0:0,0:0:0:0:
344,248,232796,2,0,L|340:160,1,79.9999999999999,8|2,0:0|0:0,0:0:0:0:
384,96,233288,2,0,B|328:72|284:104|284:104|224:80,1,160,4|8,0:0|0:0,0:0:0:0:
164,36,234026,1,8,0:0:0:0:
108,104,234272,2,0,L|104:192,2,79.9999999999999,8|0|8,0:0|0:0|0:0,0:0:0:0:
280,72,235255,6,0,P|352:104|348:180,1,160,4|8,0:0|0:0,0:0:0:0:
292,240,235993,1,0,0:0:0:0:
224,304,236239,2,0,L|52:316,1,160,0|8,0:0|0:0,0:0:0:0:
52,188,237223,1,4,0:0:0:0:
104,64,237714,2,0,P|152:44|188:52,2,90.0000034332276,0|8|8,0:0|0:0|0:0,0:0:0:0:
68,136,238698,2,0,L|76:204,1,60.0000022888184,2|2,0:0|0:0,0:0:0:0:
140,256,239190,6,0,B|184:240|236:272|236:272|312:260,1,160,4|8,0:0|0:0,0:0:0:0:
376,232,239928,2,0,L|388:144,1,79.9999999999999,8|4,0:0|0:0,0:0:0:0:
252,36,240665,1,4,0:0:0:0:
256,192,241649,12,4,243616,0:0:0:0:
192,112,244108,6,0,L|100:108,2,90.0000034332276,4|0|0,0:0|0:0|0:0,0:0:0:0:
260,76,245091,2,0,P|296:64|372:104,1,120.000004577637,8|0,0:0|0:0,0:0:0:0:
392,172,245829,1,0,0:0:0:0:
344,252,246075,2,0,L|336:348,2,90.0000034332276,8|0|0,0:0|0:0|0:0,0:0:0:0:
304,172,247059,2,0,P|264:156|240:160,1,60.0000022888184,8|8,0:0|0:0,0:0:0:0:
176,196,247550,2,0,L|104:204,1,60.0000022888184,2|8,0:0|0:0,0:0:0:0:
68,136,248042,6,0,L|72:40,2,90.0000034332276,8|0|0,0:0|0:0|0:0,0:0:0:0:
28,212,249026,2,0,P|20:256|80:308,1,120.000004577637,8|0,0:0|0:0,0:0:0:0:
148,280,249764,1,0,0:0:0:0:
220,320,250009,2,0,B|316:332|316:332|316:332,2,90.0000034332276,8|8|8,0:0|0:0|0:0,0:0:0:0:
220,236,250993,2,0,P|204:196|212:168,1,60.0000022888184,8|8,0:0|0:0,0:0:0:0:
256,116,251485,2,0,L|320:112,1,60.0000022888184,2|8,0:0|0:0,0:0:0:0:
380,56,251977,6,0,P|400:112|392:148,2,90.0000034332276,8|4|8,0:0|0:0|0:0,0:0:0:0:
296,40,252960,1,0,0:0:0:0:
256,116,253206,2,0,L|248:248,1,120.000004577637,8|8,0:0|0:0,0:0:0:0:
172,272,253944,2,0,L|80:264,2,90.0000034332276,0|0|8,0:0|0:0|0:0,0:0:0:0:
252,304,254928,2,0,L|316:300,1,60.0000022888184,0|8,0:0|0:0,0:0:0:0:
392,272,255419,2,0,L|400:204,1,60.0000022888184,0|8,0:0|0:0,0:0:0:0:
372,132,255911,6,0,P|336:80|340:44,2,90.0000034332276,8|0|8,0:0|0:0|0:0,0:0:0:0:
328,208,256895,1,0,0:0:0:0:
244,208,257141,2,0,P|204:172|132:172,1,120.000004577637,8|8,0:0|0:0,0:0:0:0:
80,224,257878,2,0,L|72:324,2,90.0000034332276,0|4|8,0:0|0:0|0:0,0:0:0:0:
136,168,258862,1,8,0:0:0:0:
204,208,259108,1,8,0:0:0:0:
260,152,259354,1,8,0:0:0:0:
228,80,259600,1,8,0:0:0:0:
148,88,259846,6,0,L|52:92,1,90.0000034332276,8|0,0:0|0:0,0:0:0:0:
