osu file format v13

[General]
AudioFilename: Variation.mp3
AudioLeadIn: 0
PreviewTime: 203042
Countdown: 0
SampleSet: Soft
StackLeniency: 0.7
Mode: 0
LetterboxInBreaks: 1
EpilepsyWarning: 1
WidescreenStoryboard: 1

[Editor]
Bookmarks: 29559,45419,57223,69026,84641,100378,116239,128042,139846,155583,179190,188042,199846,203780,209559,219518,237223
DistanceSpacing: 1.4
BeatDivisor: 4
GridSize: 4
TimelineZoom: 1.7

[Metadata]
Title:Kagerou Variation
TitleUnicode:影炎≒Variation
Artist:Hanatan
ArtistUnicode:花たん
Creator:Kenterz
Version:Hard
Source:
Tags:Yairi Fast
BeatmapID:469487
BeatmapSetID:185962

[Difficulty]
HPDrainRate:5
CircleSize:3.5
OverallDifficulty:5
ApproachRate:8
SliderMultiplier:1.2
SliderTickRate:1

[Events]
//Background and Video events
0,0,"BG.jpg",0,0
//Break Periods
2,84841,99259
//Storyboard Layer 0 (Background)
//Storyboard Layer 1 (Fail)
//Storyboard Layer 2 (Pass)
//Storyboard Layer 3 (Foreground)
//Storyboard Sound Samples
//Background Colour Transformations
3,100,163,162,255

[TimingPoints]
2809.02146656535,434.782608695652,4,2,1,80,1,0
9765,245.901639344262,4,1,1,80,1,0
10010,245.901639344262,4,1,1,80,1,0
10993,-133.333333333333,4,1,1,80,0,0
29559,-125,4,1,1,80,0,0
45419,-100,4,1,1,80,0,0
60419,-133.333333333333,4,2,1,50,0,0
61157,-100,4,1,2,80,0,1
61219,-100,4,1,1,80,0,1
68042,-100,4,1,1,60,0,1
68534,-100,4,1,1,80,0,1
72469,-100,4,1,1,60,0,1
72960,-100,4,1,1,80,0,1
75911,-100,4,1,1,60,0,1
76403,-100,4,1,1,70,0,1
76895,-100,4,1,1,80,0,1
80337,-100,4,1,1,60,0,1
80829,-100,4,1,1,80,0,1
81813,-100,4,1,1,80,0,0
81828,-100,4,2,1,5,0,0
82305,-133.333333333333,4,1,1,80,0,0
84641,-133.333333333333,4,1,1,80,0,0
100378,-125,4,1,1,80,0,0
116239,-111.111111111111,4,1,1,80,0,0
128042,-111.111111111111,4,1,0,80,0,0
128104,-111.111111111111,4,1,1,80,0,0
130009,-111.111111111111,4,2,1,50,0,0
131239,-111.111111111111,4,1,1,60,0,0
131977,-100,4,1,2,80,0,1
132038,-100,4,1,1,80,0,1
138862,-100,4,1,1,60,0,1
139600,-100,4,1,1,80,0,1
143288,-100,4,1,1,60,0,1
143780,-100,4,1,1,80,0,1
145255,-100,4,1,1,60,0,1
145747,-100,4,1,1,80,0,1
146731,-100,4,1,1,60,0,1
147223,-100,4,1,1,70,0,1
147714,-100,4,1,1,80,0,1
152632,-100,4,1,1,80,0,0
152648,-100,4,2,1,5,0,0
153124,-133.333333333333,4,1,1,80,0,0
155337,-133.333333333333,4,2,1,50,0,0
155583,-100,4,2,1,55,0,0
156567,-100,4,2,1,45,0,0
157550,-100,4,2,1,35,0,0
158534,-100,4,2,1,25,0,0
159518,-100,4,2,1,15,0,0
160501,-100,4,2,1,5,0,0
163452,-100,4,1,1,70,0,0
186075,-100,4,1,1,50,0,0
187059,-100,4,1,1,80,0,0
187428,-100,4,1,1,50,0,0
188042,-100,4,1,1,80,0,0
191485,-100,4,1,1,60,0,0
191977,-100,4,1,1,80,0,0
193452,-100,4,1,1,60,0,0
193944,-100,4,1,1,80,0,0
203780,-125,4,1,1,80,0,1
203841,-125,4,2,1,30,0,0
205255,-125,4,1,1,80,0,0
205763,-125,4,2,1,30,0,0
207223,-125,4,1,1,80,0,0
207730,-125,4,2,1,30,0,0
209190,-125,4,2,1,60,0,0
209205,-125,4,2,1,5,0,0
209436,-125,4,2,1,5,0,0
209559,-100,4,1,1,80,0,1
210665,-100,4,1,1,60,0,1
211157,-100,4,1,1,80,0,0
211649,-100,4,1,1,80,0,1
215091,-100,4,1,1,60,0,1
215583,-100,4,1,1,80,0,1
217059,-100,4,1,1,60,0,1
217550,-100,4,1,1,80,0,1
219272,-100,4,1,1,80,0,0
219518,-100,4,1,2,80,0,1
219579,-100,4,1,1,80,0,1
227141,-100,4,1,1,80,0,0
227387,-100,4,1,1,90,0,1
228862,-100,4,1,1,60,0,1
229354,-100,4,1,1,90,0,1
236731,-100,4,1,1,80,0,0
239190,-100,4,1,1,80,0,0
240665,-200,4,1,1,80,0,0
240727,-200,4,1,1,5,0,0
241649,-200,4,1,1,80,0,0
242632,-133.333333333333,4,1,1,50,0,0
243124,-133.333333333333,4,1,1,60,0,0
243616,-133.333333333333,4,1,1,70,0,0
244108,-133.333333333333,4,1,1,80,0,0
244415,-133.333333333333,4,2,1,5,0,0
244477,-133.333333333333,4,1,1,80,0,0
260230,-133.333333333333,4,2,1,5,0,0

[Colours]
Combo1 : 192,192,192
Combo2 : 255,255,255

[HitObjects]
120,160,9765,5,0,0:0:0:0:
120,160,10010,2,0,P|176:140|240:172,1,120,4|2,0:0|0:0,0:0:0:0:
256,236,10378,1,2,0:0:0:0:
229,311,10501,2,0,P|184:273|179:215,1,120,8|0,0:0|0:0,0:0:0:0:
248,84,10993,5,4,0:2:0:0:
248,84,11485,2,0,L|356:76,1,90.0000034332276,2|0,0:0|0:0,0:0:0:0:
256,192,11854,12,4,13452,0:0:0:0:
120,276,13821,6,0,L|112:172,1,90.0000034332277,4|0,0:0|0:0,0:0:0:0:
144,116,14190,2,0,P|112:108|52:136,2,90.0000034332277,0|8|0,0:0|0:0|0:0,0:0:0:0:
192,180,14805,2,0,L|300:184,1,90.0000034332277,0|0,0:0|0:0,0:0:0:0:
432,144,15296,1,8,0:0:0:0:
320,248,15542,1,0,0:0:0:0:
364,100,15788,6,0,P|328:88|272:104,1,90.0000034332277
244,168,16157,2,0,L|240:272,2,90.0000034332277,0|8|0,0:0|0:0|0:0,0:0:0:0:
204,100,16772,1,8,0:0:0:0:
100,212,17018,2,0,P|52:216|8:192,2,90.0000034332277,0|0|0,0:0|0:0|0:0,0:0:0:0:
204,100,17755,6,0,L|293:96,1,90.0000034332277,4|0,0:0|0:0,0:0:0:0:
364,124,18124,1,0,0:0:0:0:
396,272,18370,2,0,P|344:276|296:248,1,90.0000034332277,8|0,0:0|0:0,0:0:0:0:
288,186,18739,2,0,L|293:96,1,90.0000034332277
112,76,19231,2,0,L|115:165,1,90.0000034332277,8|0,0:0|0:0,0:0:0:0:
48,324,19723,6,0,P|96:304|144:320,1,90.0000034332277,8|8,0:0|0:0,0:0:0:0:
204,340,20091,2,0,L|200:388,2,45.0000017166138,0|0|8,0:0|0:0|0:0,0:0:0:0:
176,188,20583,1,8,0:0:0:0:
244,148,20706,2,0,L|352:144,1,90.0000034332277
408,180,21075,2,0,L|400:232,2,45.0000017166138,8|0|0,0:0|0:0|0:0,0:0:0:0:
408,180,21690,6,0,P|416:128|392:92,1,90.0000034332277,4|0,0:0|0:0,0:0:0:0:
320,64,22059,2,0,L|216:56,1,90.0000034332277,8|0,0:0|0:0,0:0:0:0:
84,144,22550,1,8,0:0:0:0:
128,208,22673,2,0,P|132:248|104:296,1,90.0000034332277,0|0,0:0|0:0,0:0:0:0:
12,172,23165,1,0,0:0:0:0:
156,116,23411,1,0,0:0:0:0:
216,256,23657,6,0,L|316:252,1,90.0000034332277,4|0,0:0|0:0,0:0:0:0:
380,228,24026,1,8,0:0:0:0:
356,76,24272,2,0,L|368:24,2,45.0000017166138,0|0|8,0:0|0:0|0:0,0:0:0:0:
296,124,24641,2,0,P|264:144|200:140,1,90.0000034332277,0|0,0:0|0:0,0:0:0:0:
144,116,25009,1,8,0:0:0:0:
144,192,25132,2,0,P|99:191|60:213,1,90.0000034332277,0|0,0:0|0:0,0:0:0:0:
140,344,25624,6,0,L|248:340,1,90.0000034332277,4|0,0:0|0:0,0:0:0:0:
292,296,25993,2,0,P|316:256|308:208,2,90.0000034332277,8|0|8,0:0|0:0|0:0,0:0:0:0:
224,264,26608,1,0,0:0:0:0:
176,116,26854,2,0,L|276:112,1,90.0000034332277
408,168,27346,1,0,0:0:0:0:
368,316,27591,6,0,L|268:320,1,90.0000034332277,4|0,0:0|0:0,0:0:0:0:
224,264,27960,2,0,P|216:232|220:204,2,45.0000017166138,8|0|0,0:0|0:0|0:0,0:0:0:0:
356,228,28452,1,8,0:0:0:0:
408,168,28575,2,0,P|420:116|400:68,1,90.0000034332277
332,24,28944,2,0,L|224:20,1,90.0000034332277,8|0,0:0|0:0,0:0:0:0:
176,60,29313,1,0,0:0:0:0:
96,204,29559,6,0,P|148:180|228:224,1,144
320,328,30173,2,0,P|340:292|332:232,1,96,8|0,0:0|0:0,0:0:0:0:
324,164,30542,2,0,L|432:172,2,96,0|0|0,0:0|0:0|0:0,0:0:0:0:
264,216,31157,1,8,0:0:0:0:
144,120,31403,1,8,0:0:0:0:
112,52,31526,6,0,B|156:36|192:64|192:64|220:52|256:60,1,144,0|0,0:0|0:0,0:0:0:0:
324,164,32141,2,0,L|316:280,1,96,8|0,0:0|0:0,0:0:0:0:
292,332,32509,1,0,0:0:0:0:
184,224,32755,1,0,0:0:0:0:
48,292,33001,1,0,0:0:0:0:
48,292,33124,2,0,L|56:352,2,48,8|0|0,0:0|0:0|0:0,0:0:0:0:
32,216,33493,6,0,B|40:168|40:168|16:132|20:100|36:72,1,144,0|0,0:0|0:0,0:0:0:0:
184,44,34108,2,0,L|284:36,1,96,8|0,0:0|0:0,0:0:0:0:
340,88,34477,2,0,P|352:132|328:188,1,96
288,240,34846,1,0,0:0:0:0:
136,216,35091,2,0,L|144:116,1,96,8|0,0:0|0:0,0:0:0:0:
108,52,35460,5,8,0:0:0:0:
48,192,35706,1,8,0:0:0:0:
48,192,35829,2,0,L|52:256,2,48,8|0|8,0:0|0:0|0:0,0:0:0:0:
172,284,36321,2,0,L|174:331,2,48,8|0|8,0:0|0:0|0:0,0:0:0:0:
184,132,36813,1,8,0:0:0:0:
312,216,37059,2,0,L|316:268,2,48,8|8|8,0:0|0:0|0:0,0:0:0:0:
356,152,37428,6,0,P|400:156|424:64,1,144,4|0,0:0|0:0,0:0:0:0:
288,40,38042,2,0,B|260:40|232:56|232:56|188:52,1,96,8|0,0:0|0:0,0:0:0:0:
184,132,38411,2,0,P|200:168|184:232,2,96,0|0|0,0:0|0:0|0:0,0:0:0:0:
124,76,39026,1,8,0:0:0:0:
40,200,39272,1,8,0:0:0:0:
80,264,39395,6,0,P|96:300|80:364,1,96,0|0,0:0|0:0,0:0:0:0:
86,354,39764,1,0,0:0:0:0:
236,332,40009,2,0,L|344:328,1,96,8|0,0:0|0:0,0:0:0:0:
384,272,40378,2,0,B|388:244|388:244|412:208|412:208|416:180,1,96,0|8,0:0|0:0,0:0:0:0:
412,108,40747,1,0,0:0:0:0:
272,40,40993,2,0,L|216:32,2,48,8|0|0,0:0|0:0|0:0,0:0:0:0:
272,116,41362,6,0,L|160:96,1,96,4|0,0:0|0:0,0:0:0:0:
136,164,41731,2,0,P|152:220|136:264,2,96,0|8|0,0:0|0:0|0:0,0:0:0:0:
100,96,42346,1,0,0:0:0:0:
36,236,42591,1,0,0:0:0:0:
76,300,42714,2,0,P|104:320|132:320,1,48
192,316,42960,2,0,P|232:300|296:324,1,96,8|0,0:0|0:0,0:0:0:0:
360,352,43329,1,4,0:2:0:0:
360,352,43452,6,0,L|352:240,1,96,0|0,0:0|0:0,0:0:0:0:
360,184,43821,1,0,0:0:0:0:
428,220,43944,2,0,P|436:172|400:120,1,96,8|0,0:0|0:0,0:0:0:0:
340,112,44313,1,0,0:0:0:0:
284,164,44436,2,0,L|272:196,8,24,0|0|0|0|0|0|0|0|8,0:0|0:0|0:0|0:0|0:0|0:0|0:0|0:0|0:0,0:0:0:0:
263,210,45419,6,0,B|216:196|184:224|184:224|152:208|136:216,1,120,4|0,0:0|0:0,0:0:0:0:
144,288,45788,2,0,L|128:144,1,120,0|0,0:0|0:0,0:0:0:0:
96,100,46157,2,0,B|132:80|168:104|168:104|156:56|184:16|236:16,2,180,0|0|8,0:0|0:0|0:0,0:0:0:0:
132,168,47018,1,8,0:0:0:0:
212,172,47141,2,0,L|280:164,1,60,8|8,0:0|0:0,0:0:0:0:
340,124,47387,6,0,P|304:200|324:244,1,120,4|0,0:0|0:0,0:0:0:0:
368,288,47755,2,0,B|452:280|452:280|508:304,1,120
440,352,48124,2,0,B|396:320|404:268|432:240|432:240|420:172,1,180
394,112,48616,2,0,P|365:108|340:124,1,60
304,192,48862,2,0,L|312:272,3,60,2|2|2|2,0:0|0:0|0:0|0:0,0:0:0:0:
240,296,49354,6,0,L|228:152,1,120,4|0,0:0|0:0,0:0:0:0:
192,108,49723,2,0,P|144:96|76:152,1,120
152,172,50091,2,0,P|116:116|188:32,1,180
244,52,50583,2,0,L|248:128,1,60
232,188,50829,2,0,L|224:252,5,40,8|8|8|8|8|8,0:0|0:0|0:0|0:0|0:0|0:0,0:0:0:0:
224,276,51321,6,0,B|268:296|300:272|300:272|324:284|360:276,1,120,4|0,0:0|0:0,0:0:0:0:
332,208,51690,2,0,L|320:68,1,120
380,44,52059,2,0,L|460:52,1,60,8|8,0:0|0:0,0:0:0:0:
452,124,52305,2,0,L|392:118,1,60,0|0,0:0|0:0,0:0:0:0:
321,88,52550,2,0,B|292:76|264:84|264:84|228:96|192:84,1,120,0|8,0:0|0:0,0:0:0:0:
136,52,52919,2,0,P|128:92|144:128,2,60,8|8|8,0:0|0:0|0:0,0:0:0:0:
204,88,53288,6,0,L|17:109,1,180,0|0,0:0|0:0,0:0:0:0:
20,180,53780,2,0,L|152:164,1,120,8|0,0:0|0:0,0:0:0:0:
284,144,54272,2,0,P|316:188|292:308,1,180
244,356,54764,2,0,P|223:301|249:248,1,120,8|0,0:0|0:0,0:0:0:0:
392,232,55255,6,0,L|384:356,1,120,4|0,0:0|0:0,0:0:0:0:
316,372,55624,1,0,0:0:0:0:
295,304,55747,2,0,P|239:288|183:332,1,120,8|0,0:0|0:0,0:0:0:0:
128,360,56116,2,0,P|152:300|120:236,1,120
80,200,56485,1,0,0:0:0:0:
177,90,56731,2,0,L|297:98,1,120,8|0,0:0|0:0,0:0:0:0:
376,64,57223,5,4,0:0:0:0:
296,97,57346,1,0,0:0:0:0:
224,136,57960,1,0,0:0:0:0:
296,184,58083,1,0,0:0:0:0:
296,184,58698,2,0,L|415:178,2,120,4|4|0,0:0|0:0|0:0,0:0:0:0:
252,240,60419,6,0,P|224:196|236:148,1,90.0000034332277,0|2,0:0|0:0,0:0:0:0:
304,80,60911,1,0,0:0:0:0:
372,164,61157,6,0,L|364:348,1,180,6|0,0:0|0:0,0:0:0:0:
208,368,61772,1,2,0:0:0:0:
168,300,61895,2,0,P|120:264|48:276,1,120,8|2,0:0|0:0,0:0:0:0:
24,336,62264,1,2,0:0:0:0:
100,336,62387,2,0,L|112:152,1,180,8|2,0:0|0:0,0:0:0:0:
100,80,62878,1,8,0:0:0:0:
220,180,63124,6,0,P|272:196|336:152,1,120,6|8,0:0|0:0,0:0:0:0:
472,108,63616,2,0,L|464:252,1,120,0|8,0:0|0:0,0:0:0:0:
460,308,63985,1,0,0:0:0:0:
388,344,64108,2,0,P|380:296|392:264,2,60,2|2|8,0:0|0:0|0:0,0:0:0:0:
244,280,64600,2,0,P|252:232|240:200,2,60,2|2|8,0:0|0:0|0:0,0:0:0:0:
196,344,64969,1,8,0:0:0:0:
128,308,65091,6,0,L|120:112,1,180,6|0,0:0|0:0,0:0:0:0:
168,64,65583,2,0,P|220:52|280:96,2,120,2|8|0,0:0|0:0|0:0,0:0:0:0:
120,128,66198,1,2,0:0:0:0:
164,192,66321,2,0,L|308:180,1,120,8|0,0:0|0:0,0:0:0:0:
428,244,66813,1,8,0:0:0:0:
428,244,66936,6,0,B|440:224|440:224|428:204|428:204|436:192|436:192|424:168|436:140|436:140|432:112|432:112|436:68,1,180,6|8,0:0|0:0,0:0:0:0:
372,32,67428,1,2,0:0:0:0:
312,80,67550,2,0,P|280:112|184:104,1,120,8|8,0:0|0:0,0:0:0:0:
56,84,68042,2,0,L|48:32,6,40,2|2|2|2|2|2|4,0:0|0:0|0:0|0:0|0:0|0:0|0:2,0:0:0:0:
84,240,68780,2,0,P|112:232|156:248,1,60,2|2,0:0|0:0,0:0:0:0:
208,292,69026,6,0,P|256:320|332:288,1,120,6|8,0:0|0:0,0:0:0:0:
376,252,69395,1,2,0:0:0:0:
256,148,69641,1,2,0:0:0:0:
412,124,69887,1,8,0:0:0:0:
280,224,70132,2,0,P|244:228|208:208,1,60,2|8,0:0|0:0,0:0:0:0:
176,152,70378,1,2,0:0:0:0:
204,76,70501,2,0,P|268:60|328:104,1,120,8|8,0:0|0:0,0:0:0:0:
376,244,70993,6,0,L|256:256,1,120,6|8,0:0|0:0,0:0:0:0:
198,319,71362,2,0,P|174:265|188:208,1,120,2|2,0:0|0:0,0:0:0:0:
245,36,71854,2,0,P|269:90|256:148,1,120,8|2,0:0|0:0,0:0:0:0:
188,208,72223,2,0,L|128:214,1,60,8|0,0:0|0:0,0:0:0:0:
60,248,72469,2,0,P|48:280|60:328,1,60,2|2,0:0|0:0,0:0:0:0:
120,352,72714,2,0,P|132:320|120:272,1,60,2|2,0:0|0:0,0:0:0:0:
128,214,72960,6,0,P|110:156|146:92,1,120,4|8,0:0|0:0,0:0:0:0:
192,44,73329,2,0,L|268:36,2,60,2|0|2,0:0|0:0|0:0,0:0:0:0:
300,180,73821,2,0,L|440:168,1,120,8|2,0:0|0:0,0:0:0:0:
464,240,74190,2,0,P|472:280|460:320,1,60,8|0,0:0|0:0,0:0:0:0:
396,344,74436,2,0,L|336:336,5,40,2|2|2|2|2|2,0:0|0:0|0:0|0:0|0:0|0:0,0:0:0:0:
328,332,74928,6,0,B|260:316|260:316|244:284|208:276,1,120,6|8,0:0|0:0,0:0:0:0:
64,332,75419,2,0,P|92:280|76:216,1,120,8|8,0:0|0:0,0:0:0:0:
24,160,75788,1,2,0:0:0:0:
84,104,75911,2,0,B|116:96|144:108|144:108|180:120|216:104,1,120,2|2,0:0|0:0,0:0:0:0:
268,56,76280,1,2,0:0:0:0:
285,136,76403,2,0,L|296:256,1,120,8|8,0:0|0:0,0:0:0:0:
412,348,76895,6,0,P|444:312|420:224,1,120,6|8,0:0|0:0,0:0:0:0:
364,208,77264,1,0,0:0:0:0:
296,256,77387,2,0,B|252:292|252:292|188:296|168:276,1,120,2|8,0:0|0:0,0:0:0:0:
132,232,77755,2,0,L|120:92,1,120,2|2,0:0|0:0,0:0:0:0:
180,52,78124,1,8,0:0:0:0:
56,168,78370,1,2,0:0:0:0:
212,208,78616,1,8,0:0:0:0:
48,256,78862,6,0,L|168:276,1,120,6|8,0:0|0:0,0:0:0:0:
240,292,79231,1,0,0:0:0:0:
292,232,79354,2,0,P|312:196|296:104,1,120,2|8,0:0|0:0,0:0:0:0:
256,52,79723,2,0,P|320:80|384:64,1,120
444,44,80091,2,0,L|440:103,1,60,8|0,0:0|0:0,0:0:0:0:
436,180,80337,2,0,L|428:324,1,120,0|8,0:0|0:0,0:0:0:0:
429,299,80829,6,0,P|380:340|304:324,1,120,4|0,0:0|0:0,0:0:0:0:
280,264,81198,1,0,0:0:0:0:
360,260,81321,2,0,P|340:208|272:180,1,120,8|0,0:0|0:0,0:0:0:0:
200,336,81813,6,0,B|208:300|208:300|188:256|216:212|216:212|204:160|204:160|224:80,1,240,4|0,0:2|0:0,0:0:0:0:
256,192,82673,12,4,84641,0:0:0:0:
132,152,100009,6,0,L|124:88,2,45.0000017166138,0|0|0,0:0|0:0|0:0,0:0:0:0:
108,224,100378,2,0,B|160:240|196:196|196:196|252:204,1,144,4|0,0:0|0:0,0:0:0:0:
372,284,100993,2,0,L|364:176,1,96,8|0,0:0|0:0,0:0:0:0:
388,116,101362,1,0,0:0:0:0:
448,260,101608,1,0,0:0:0:0:
304,312,101854,2,0,L|248:328,1,48,0|8,0:0|0:0,0:0:0:0:
212,264,102100,2,0,L|258:250,1,48
300,184,102346,6,0,B|308:136|308:136|296:88|296:88|304:24,1,144,4|0,0:0|0:0,0:0:0:0:
152,72,102960,2,0,L|136:172,1,96,8|0,0:0|0:0,0:0:0:0:
100,236,103329,2,0,P|144:212|208:228,1,96
248,264,103698,2,0,L|264:332,1,48
328,348,103944,1,8,0:0:0:0:
328,348,104067,2,0,L|388:344,1,48
436,296,104313,6,0,B|448:272|432:240|432:240|456:196|452:160|444:152,1,144,4|0,0:0|0:0,0:0:0:0:
340,48,104928,2,0,L|236:56,1,96,8|0,0:0|0:0,0:0:0:0:
192,112,105296,2,0,B|176:164|208:216|208:216|200:268,1,144
60,308,105911,2,0,P|120:292|160:312,1,96,8|0,0:0|0:0,0:0:0:0:
224,328,106280,6,0,L|332:320,1,96,4|8,0:0|0:0,0:0:0:0:
396,312,106649,2,0,L|408:252,1,48,8|2,0:0|0:0,0:0:0:0:
332,240,106895,2,0,L|344:180,1,48,8|2,0:0|0:0,0:0:0:0:
420,192,107141,2,0,L|432:132,1,48,8|2,0:0|0:0,0:0:0:0:
356,120,107387,2,0,L|368:60,2,48,0|2|8,0:0|0:0|0:0,0:0:0:0:
212,68,107878,2,0,P|164:48|104:60,1,96,8|8,0:0|0:0,0:0:0:0:
64,104,108247,6,0,L|76:256,1,144,4|0,0:0|0:0,0:0:0:0:
208,328,108862,2,0,L|324:316,1,96,8|0,0:0|0:0,0:0:0:0:
372,284,109231,2,0,P|392:240|380:188,1,96
340,128,109600,1,0,0:0:0:0:
212,228,109846,2,0,L|108:232,1,96,8|0,0:0|0:0,0:0:0:0:
48,268,110214,6,0,B|32:232|48:196|48:196|36:124,1,144,4|0,0:0|0:0,0:0:0:0:
160,32,110829,2,0,L|272:36,1,96,8|0,0:0|0:0,0:0:0:0:
324,76,111198,1,0,0:0:0:0:
224,192,111444,1,0,0:0:0:0:
352,248,111690,1,0,0:0:0:0:
400,308,111813,2,0,L|464:304,2,48,8|0|0,0:0|0:0|0:0,0:0:0:0:
324,316,112182,6,0,B|228:324|228:324|172:296,1,144,4|0,0:0|0:0,0:0:0:0:
64,208,112796,2,0,P|84:164|68:104,1,96,8|0,0:0|0:0,0:0:0:0:
136,68,113165,2,0,P|192:36|236:52,1,96
276,96,113534,1,8,0:0:0:0:
220,240,113780,2,0,L|224:356,1,96
372,364,114272,6,0,P|400:340|400:268,1,96,4|0,0:0|0:0,0:0:0:0:
372,216,114641,1,0,0:0:0:0:
400,144,114764,2,0,L|304:148,1,96,8|0,0:0|0:0,0:0:0:0:
164,184,115255,2,0,L|160:236|160:236,6,32,2|2|2|2|2|2|8,0:0|0:0|0:0|0:0|0:0|0:0|0:0,0:0:0:0:
188,204,116239,6,0,L|200:332,1,107.999996704102,4|0,0:0|0:0,0:0:0:0:
200,384,116608,2,0,B|236:384|260:352|260:352|320:364,1,107.999996704102
366,333,116977,2,0,L|356:172,2,161.999995056153,0|8|8,0:0|0:0|0:0,0:0:0:0:
452,312,117837,1,0,0:0:0:0:
452,312,117960,2,0,P|468:280|464:240,1,53.9999983520508,8|0,0:0|0:0,0:0:0:0:
463,179,118206,6,0,L|356:172,1,107.999996704102,4|0,0:0|0:0,0:0:0:0:
284,136,118575,2,0,P|304:176|284:248,1,107.999996704102
244,296,118944,2,0,B|224:288|224:288|196:300|196:300|168:284|168:284|140:292|140:292|88:284|88:284|88:284,2,161.999995056153,0|8|8,0:0|0:0|0:0,0:0:0:0:
320,316,119805,2,0,P|320:356|300:384,2,53.9999983520508,0|0|0,0:0|0:0|0:0,0:0:0:0:
292,236,120173,6,0,P|272:188|284:136,1,107.999996704102,4|0,0:0|0:0,0:0:0:0:
308,64,120542,2,0,L|436:80,1,107.999996704102
445,155,120911,2,0,L|285:135,2,161.999995056153,0|8|8,0:0|0:0|0:0,0:0:0:0:
504,280,121895,1,0,0:0:0:0:
384,348,122141,6,0,B|344:348|320:320|320:320|260:328,1,107.999996704102,4|0,0:0|0:0,0:0:0:0:
220,288,122509,2,0,P|232:240|200:184,1,107.999996704102
152,136,122878,2,0,L|88:128,2,53.9999983520508,8|0|0,0:0|0:0|0:0,0:0:0:0:
224,108,123247,2,0,L|296:100,2,53.9999983520508,8|0|0,0:0|0:0|0:0,0:0:0:0:
164,60,123616,1,0,0:0:0:0:
136,208,123862,1,0,0:0:0:0:
284,176,124108,6,0,L|460:172,1,161.999995056153,4|0,0:0|0:0,0:0:0:0:
464,248,124600,2,0,L|332:252,1,107.999996704102,8|0,0:0|0:0,0:0:0:0:
212,208,125091,2,0,B|192:156|232:116|232:116|224:44,1,161.999995056153,0|0,0:0|0:0,0:0:0:0:
164,12,125583,2,0,P|116:4|56:48,1,107.999996704102,8|0,0:0|0:0,0:0:0:0:
48,184,126075,6,0,P|72:220|28:328,1,161.999995056153,4|0,0:0|0:0,0:0:0:0:
100,364,126567,2,0,P|148:340|204:356,1,107.999996704102,8|0,0:0|0:0,0:0:0:0:
352,348,127059,2,0,L|360:220,2,107.999996704102,0|0|8,0:0|0:0|0:0,0:0:0:0:
276,364,127673,2,0,L|280:292,1,53.9999983520508
228,168,128042,6,0,P|188:148|116:168,1,107.999996704102,4|8,0:0|0:0,0:0:0:0:
80,220,128411,2,0,L|72:296,2,53.9999983520508,0|0|0,0:0|0:0|0:0,0:0:0:0:
127,159,128780,2,0,L|136:88,1,53.9999983520508,8|0,0:0|0:0,0:0:0:0:
196,60,129026,6,0,L|320:56,1,107.999996704102,4|8,0:0|0:0,0:0:0:0:
376,88,129395,2,0,P|384:52|372:20,2,53.9999983520508,0|8|0,0:0|0:0|0:0,0:0:0:0:
312,132,129764,2,0,P|304:172|312:204,1,53.9999983520508,8|0,0:0|0:0,0:0:0:0:
348,248,130009,2,0,P|264:200|184:224,2,161.999995056153,4|0|0,0:1|0:1|0:0,0:0:0:0:
348,248,131239,2,0,P|392:196|380:136,1,107.999996704102
276,56,131731,1,0,0:0:0:0:
172,188,131977,6,0,L|160:372,1,180,6|2,0:0|0:0,0:0:0:0:
320,320,132591,1,2,0:0:0:0:
396,356,132714,2,0,P|432:296|416:232,1,120,8|0,0:0|0:0,0:0:0:0:
344,100,133206,1,8,0:0:0:0:
244,236,133452,2,0,L|248:320,2,60,2|0|8,0:0|0:0|0:0,0:0:0:0:
160,88,133944,6,0,B|92:132|36:92|36:92|20:24,2,180,4|2|8,0:0|0:0|0:0,0:0:0:0:
236,52,134805,1,0,0:0:0:0:
224,136,134928,2,0,L|216:208,2,60,2|2|8,0:0|0:0|0:0,0:0:0:0:
360,236,135419,2,0,L|364:304,2,60,2|2|8,0:0|0:0|0:0,0:0:0:0:
200,288,135911,6,0,P|152:264|48:328,1,180,4|2,0:0|0:0,0:0:0:0:
80,156,136526,1,2,0:0:0:0:
80,156,136649,2,0,P|96:104|64:36,1,120,8|0,0:0|0:0,0:0:0:0:
20,108,137018,1,2,0:0:0:0:
4,184,137141,2,0,P|40:228|112:228,1,120,8|0,0:0|0:0,0:0:0:0:
256,176,137632,1,8,0:0:0:0:
256,176,137755,6,0,L|256:40,1,120,4|2,0:0|0:0,0:0:0:0:
324,16,138124,2,0,L|392:8,1,60,8|2,0:0|0:0,0:0:0:0:
432,76,138370,2,0,L|372:83,1,60,10|0,0:0|0:0,0:0:0:0:
336,156,138616,2,0,P|332:200|348:228,1,60,10|2,0:0|0:0,0:0:0:0:
404,276,138862,2,0,L|412:152,2,120,2|2|8,0:0|0:0|0:0,0:0:0:0:
244,336,139600,2,0,L|176:328,1,60,8|8,0:0|0:0,0:0:0:0:
116,280,139846,6,0,B|112:244|112:244|136:208|120:160,1,120,4|8,0:0|0:0,0:0:0:0:
88,96,140214,1,2,0:0:0:0:
220,200,140460,1,2,0:0:0:0:
52,196,140706,1,8,0:0:0:0:
172,80,140952,2,0,P|204:68|248:76,1,60,0|8,0:0|0:0,0:0:0:0:
300,112,141198,1,2,0:0:0:0:
360,168,141321,2,0,P|380:120|356:52,1,120,8|10,0:0|0:0,0:0:0:0:
292,212,141813,6,0,L|296:336,1,120,4|8,0:0|0:0,0:0:0:0:
360,376,142182,1,2,0:0:0:0:
220,280,142428,1,2,0:0:0:0:
384,244,142673,1,8,0:0:0:0:
296,100,142919,2,0,L|228:104,1,60,2|8,0:0|0:0,0:0:0:0:
164,76,143165,1,0,0:0:0:0:
104,136,143288,2,0,P|92:196|112:264,1,120,2|2,0:0|0:0,0:0:0:0:
264,316,143780,6,0,B|308:328|308:328|392:300,1,120,4|8,0:0|0:0,0:0:0:0:
448,272,144149,1,2,0:0:0:0:
304,184,144395,1,2,0:0:0:0:
436,96,144641,2,0,P|384:56|316:72,1,120,8|0,0:0|0:0,0:0:0:0:
272,108,145009,2,0,P|236:108|196:84,1,60,8|0,0:0|0:0,0:0:0:0:
156,40,145255,2,0,L|156:176,1,120,2|2,0:0|0:0,0:0:0:0:
96,320,145747,6,0,P|144:280|216:296,1,120,4|8,0:0|0:0,0:0:0:0:
260,328,146116,2,0,P|292:340|340:328,1,60,2|8,0:0|0:0,0:0:0:0:
388,308,146362,1,0,0:0:0:0:
428,240,146485,2,0,P|384:228|348:244,1,60,10|0,0:0|0:0,0:0:0:0:
304,264,146731,2,0,L|288:140,2,120,2|2|8,0:0|0:0|0:0,0:0:0:0:
156,344,147469,2,0,L|144:264,1,60,2|2,0:0|0:0,0:0:0:0:
88,228,147714,6,0,P|68:180|108:120,1,120,4|8,0:0|0:0,0:0:0:0:
264,88,148206,2,0,L|396:96,1,120,2|8,0:0|0:0,0:0:0:0:
432,156,148575,2,0,B|440:212|440:212|424:268|424:268|432:340,1,180,2|8,0:0|0:0,0:0:0:0:
276,264,149190,2,0,L|268:200,2,60,2|0|8,0:0|0:0|0:0,0:0:0:0:
248,340,149559,1,0,0:0:0:0:
172,336,149682,6,0,P|128:312|52:332,1,120,4|8,0:0|0:0,0:0:0:0:
28,160,150173,2,0,L|36:36,1,120,2|8,0:0|0:0,0:0:0:0:
116,16,150542,2,0,B|112:72|112:72|136:108|180:112|224:88,1,180,2|8,0:0|0:0,0:0:0:0:
388,64,151157,2,0,L|472:72,2,60,2|2|8,0:0|0:0|0:0,0:0:0:0:
296,204,151649,6,0,P|284:256|324:312,1,120,6|0,0:0|0:0,0:0:0:0:
396,320,152018,1,2,0:0:0:0:
448,256,152141,2,0,L|456:128,1,120,8|2,0:0|0:0,0:0:0:0:
330,84,152632,2,0,P|233:121|296:203,1,240,4|0,0:2|0:0,0:0:0:0:
296,203,153493,6,0,P|224:192|192:240,1,135.000005149841,4|8,0:0|0:0,0:0:0:0:
188,312,153985,2,0,L|248:304,2,45.0000017166138,0|8|0,0:0|0:0|0:0,0:0:0:0:
100,220,154477,2,0,L|108:64,1,135.000005149841,2|2,0:0|0:0,0:0:0:0:
216,24,155091,1,8,0:0:0:0:
256,192,155583,12,4,162469,0:0:0:0:
128,96,163452,6,0,P|96:148|124:224,1,120,2|2,0:0|0:0,0:0:0:0:
160,260,163821,1,0,0:0:0:0:
236,236,163944,2,0,B|284:224|284:224|360:252,1,120,8|0,0:0|0:0,0:0:0:0:
504,224,164436,2,0,L|384:180,1,120,2|0,0:0|0:0,0:0:0:0:
320,148,164805,1,2,0:0:0:0:
288,76,164928,2,0,P|316:68|356:80,2,60,8|0|8,0:0|0:0|0:0,0:0:0:0:
236,236,165419,6,0,L|228:380,1,120,4|2,0:0|0:0,0:0:0:0:
156,376,165788,1,0,0:0:0:0:
84,360,165911,2,0,P|52:308|72:240,1,120,8|0,0:0|0:0,0:0:0:0:
192,176,166403,2,0,L|328:188,1,120,2|0,0:0|0:0,0:0:0:0:
388,196,166772,1,0,0:0:0:0:
464,168,166895,2,0,L|476:96,2,60,8|0|8,0:0|0:0|0:0,0:0:0:0:
408,352,167387,6,0,P|360:304|288:308,1,120,4|0,0:0|0:0,0:0:0:0:
240,332,167755,1,0,0:0:0:0:
172,368,167878,2,0,L|164:236,1,120,8|0,0:0|0:0,0:0:0:0:
84,112,168370,2,0,B|112:120|112:120|172:104|172:104|212:112,1,120,2|0,0:0|0:0,0:0:0:0:
272,136,168739,1,0,0:0:0:0:
336,88,168862,2,0,L|408:108,2,60,8|0|8,0:0|0:0|0:0,0:0:0:0:
216,188,169354,6,0,L|224:320,1,120,4|0,0:0|0:0,0:0:0:0:
296,336,169723,1,0,0:0:0:0:
372,356,169846,2,0,P|376:316|320:256,1,120,8|0,0:0|0:0,0:0:0:0:
172,260,170337,2,0,B|116:276|116:276|52:232,1,120,2|0,0:0|0:0,0:0:0:0:
40,168,170706,1,0,0:0:0:0:
64,92,170829,2,0,P|28:88|-8:108,2,60,8|0|8,0:0|0:0|0:0,0:0:0:0:
192,180,171321,6,0,P|244:196|308:152,1,120,4|8,0:0|0:0,0:0:0:0:
408,56,171813,2,0,L|400:192,1,120,2|8,0:0|0:0,0:0:0:0:
392,252,172182,1,0,0:0:0:0:
428,320,172305,2,0,P|380:292|312:304,1,120,0|2,0:0|0:2,0:0:0:0:
184,376,172796,1,2,0:2:0:0:
228,228,173042,1,2,0:2:0:0:
116,336,173288,6,0,P|84:276|104:216,1,120,4|8,0:0|0:0,0:0:0:0:
140,164,173657,1,0,0:0:0:0:
216,148,173780,2,0,L|344:160,1,120,2|8,0:0|0:0,0:0:0:0:
440,44,174272,2,0,P|396:12|316:24,1,120,2|8,0:0|0:0,0:0:0:0:
276,68,174641,1,0,0:0:0:0:
204,36,174764,2,0,P|160:24|92:80,1,120,2|8,0:0|0:0,0:0:0:0:
68,212,175255,5,12,0:0:0:0:
216,148,175501,1,8,0:0:0:0:
48,128,175747,1,8,0:0:0:0:
92,292,175993,1,8,0:0:0:0:
256,252,176239,2,0,L|268:176,2,60,8|2|8,0:0|0:0|0:0,0:0:0:0:
344,368,176731,2,0,P|380:384|420:376,2,60,8|2|8,0:0|0:0|0:0,0:0:0:0:
408,244,177223,6,0,L|428:56,1,180,6|8,0:0|0:0,0:0:0:0:
348,64,177714,2,0,B|340:128|340:128|272:164,1,120,0|8,0:0|0:0,0:0:0:0:
220,188,178083,1,0,0:0:0:0:
148,220,178206,2,0,P|168:172|144:104,1,120,2|8,0:0|0:0,0:0:0:0:
72,248,178698,2,0,L|64:328,3,60,8|8|8|8,0:0|0:0|0:0|0:0,0:0:0:0:
128,356,179190,6,0,L|268:348,1,120,6|8,0:0|0:0,0:0:0:0:
312,208,179682,1,8,0:0:0:0:
368,356,179928,1,2,0:0:0:0:
248,256,180173,2,0,P|232:204|264:144,1,120,8|8,0:0|0:0,0:0:0:0:
412,112,180665,2,0,L|476:120,2,60,8|2|8,0:0|0:0|0:0,0:0:0:0:
268,52,181157,6,0,B|220:40|220:40|144:72,1,120,6|8,0:0|0:0,0:0:0:0:
28,156,181649,1,8,0:0:0:0:
180,184,181895,1,2,0:0:0:0:
40,276,182141,1,8,0:0:0:0:
196,256,182387,2,0,L|204:120,1,120,8|8,0:0|0:0,0:0:0:0:
184,60,182755,2,0,P|216:56|248:72,1,60,2|8,0:0|0:0,0:0:0:0:
344,184,183124,6,0,P|388:184|408:116,2,120,6|8|8,0:0|0:0|0:0,0:0:0:0:
216,276,183862,2,0,B|164:260|164:260|112:284|80:268,2,120,2|8|8,0:0|0:0|0:0,0:0:0:0:
344,184,184600,2,0,P|360:128|328:68,1,120,2|8,0:0|0:0,0:0:0:0:
200,32,185091,5,8,0:0:0:0:
96,172,185337,1,2,0:0:0:0:
268,152,185583,1,8,0:0:0:0:
120,96,185829,1,8,0:0:0:0:
76,244,186075,2,0,L|16:236,2,60,8|2|8,0:0|0:0|0:0,0:0:0:0:
220,300,186567,2,0,L|224:224,2,60,8|2|8,0:0|0:0|0:0,0:0:0:0:
372,344,187059,2,0,B|384:304|360:252|360:252|364:156,1,180,4|0,0:2|0:0,0:0:0:0:
364,88,187550,1,0,0:0:0:0:
364,88,188042,6,0,P|328:72|252:116,1,120,4|0,0:0|0:0,0:0:0:0:
216,168,188411,2,0,B|224:100|224:100|192:40,1,120
148,116,188780,2,0,B|140:184|140:184|164:240|140:296,2,180,0|8|8,0:0|0:0|0:0,0:0:0:0:
200,56,189641,2,0,P|232:40|272:48,1,60,0|8,0:0|0:0,0:0:0:0:
376,140,190009,6,0,B|384:200|384:200|368:236|380:264,1,120,4|0,0:0|0:0,0:0:0:0:
420,324,190378,2,0,P|368:284|296:300,1,120,0|0,0:0|0:0,0:0:0:0:
256,328,190747,2,0,B|264:276|264:276|248:240|248:240|256:208|256:208|244:184|252:140,2,180,0|0|8,0:0|0:0|0:0,0:0:0:0:
184,360,191608,2,0,L|112:368,2,60,2|2|2,0:0|0:0|0:0,0:0:0:0:
256,328,191977,6,0,P|296:300|372:312,1,120,4|0,0:0|0:0,0:0:0:0:
444,312,192346,2,0,B|448:280|428:256|428:256|444:216|420:172,1,120
460,124,192714,2,0,B|400:104|364:152|364:152|292:132,2,180,0|8|8,0:0|0:0|0:0,0:0:0:0:
500,192,193575,1,8,0:0:0:0:
448,248,193698,2,0,L|364:256,1,60,8|0,0:0|0:0,0:0:0:0:
312,236,193944,6,0,P|264:224|192:320,2,180,4|0|8,0:0|0:0|0:0,0:0:0:0:
344,308,194805,2,0,L|424:320,2,60,0|0|0,0:0|0:0|0:0,0:0:0:0:
268,300,195173,2,0,L|128:276,1,120,2|8,0:0|0:0,0:0:0:0:
76,264,195542,2,0,L|12:268,2,60,0|0|0,0:0|0:0|0:0,0:0:0:0:
128,208,195911,6,0,P|156:160|100:40,1,180,4|0,0:0|0:0,0:0:0:0:
188,16,196403,2,0,P|240:40|308:16,1,120,8|0,0:0|0:0,0:0:0:0:
412,132,196895,2,0,B|404:192|404:192|412:260|412:260|408:324,1,180,0|0,0:0|0:0,0:0:0:0:
332,336,197387,2,0,B|336:256|336:256|332:204,1,120,8|0,0:0|0:0,0:0:0:0:
228,100,197878,6,0,B|108:96|108:96|76:72|36:88,1,180,4|0,0:0|0:0,0:0:0:0:
4,144,198370,2,0,P|-8:188|24:264,1,120,8|0,0:0|0:0,0:0:0:0:
84,304,198739,1,0,0:0:0:0:
164,296,198862,2,0,L|232:288,2,60,0|0|0,0:0|0:0|0:0,0:0:0:0:
122,133,199354,2,0,P|169:97|228:100,1,120,8|0,0:0|0:0,0:0:0:0:
324,228,199846,6,0,L|312:308,2,60,4|0|0,0:0|0:0|0:0,0:0:0:0:
404,108,200583,2,0,L|396:40,2,60,4|0|0,0:0|0:0|0:0,0:0:0:0:
288,152,201321,5,4,0:0:0:0:
408,228,201567,1,4,0:0:0:0:
212,288,201813,2,0,L|392:300,2,180,0|0|0,0:0|0:0|0:0,0:0:0:0:
212,288,203042,2,0,P|236:232|196:160,1,120
104,88,203534,1,0,0:0:0:0:
16,236,203841,6,0,L|168:228,1,144,0|0,0:0|0:0,0:0:0:0:
308,308,204518,2,0,L|316:148,1,144
315,164,205255,2,0,P|356:184|416:164,1,96,0|0,0:0|2:0,0:0:0:0:
332,72,205747,6,0,L|180:80,1,144
68,224,206485,2,0,L|232:232,1,144
211,231,207223,2,0,L|208:124,1,96,0|0,0:0|2:0,0:0:0:0:
296,48,207714,6,0,P|340:88|328:176,1,144,0|0,0:0|0:0,0:0:0:0:
324,356,208452,2,0,P|280:316|292:228,1,144,0|0,0:0|0:0,0:0:0:0:
285,236,209190,6,0,L|175:247,1,96,2|0,0:0|0:0,0:0:0:0:
176,256,209559,6,0,P|196:200|128:104,1,180,6|8,0:0|0:0,0:0:0:0:
52,128,210050,1,2,0:0:0:0:
32,212,210173,2,0,L|40:336,1,120,8|0,0:0|0:0,0:0:0:0:
204,300,210665,6,0,P|248:268|324:288,1,120,2|2,0:0|0:0,0:0:0:0:
380,324,211034,1,2,0:0:0:0:
388,240,211157,2,0,L|380:112,1,120,4|8,0:2|0:0,0:0:0:0:
228,48,211649,6,0,P|168:40|116:96,1,120,6|8,0:0|0:0,0:0:0:0:
96,156,212018,1,0,0:0:0:0:
264,216,212264,1,2,0:0:0:0:
136,340,212509,2,0,L|144:220,1,120,8|0,0:0|0:0,0:0:0:0:
184,144,212878,2,0,P|220:136|260:148,1,60,8|0,0:0|0:0,0:0:0:0:
324,168,213124,2,0,P|340:200|332:248,2,60,8|0|8,0:0|0:0|0:0,0:0:0:0:
192,64,213616,6,0,P|136:80|104:152,1,120,4|8,0:0|0:0,0:0:0:0:
124,212,213985,1,0,0:0:0:0:
272,272,214231,1,0,0:0:0:0:
120,344,214477,2,0,L|240:340,1,120,8|0,0:0|0:0,0:0:0:0:
324,352,214846,2,0,L|412:356,1,60,8|0,0:0|0:0,0:0:0:0:
391,279,215091,2,0,L|272:272,1,120,2|2,0:0|0:0,0:0:0:0:
104,264,215583,6,0,P|84:212|124:144,1,120,6|8,0:0|0:0,0:0:0:0:
180,112,215952,2,0,L|312:120,2,120,2|2|8,0:0|0:0|0:0,0:0:0:0:
44,208,216690,1,2,0:0:0:0:
104,264,216813,2,0,L|184:272,1,60,8|0,0:0|0:0,0:0:0:0:
240,304,217059,2,0,P|264:240|240:172,1,120
252,191,217550,6,0,P|320:204|372:160,1,120,6|8,0:0|0:0,0:0:0:0:
392,100,217919,1,0,0:0:0:0:
336,40,218042,2,0,L|256:36,1,60,2|8,0:0|0:0,0:0:0:0:
200,76,218288,2,0,L|120:72,1,60,8|0,0:0|0:0,0:0:0:0:
84,140,218534,2,0,P|60:192|88:260,2,120,0|2|8,0:0|0:0|0:0,0:0:0:0:
252,132,219272,1,0,0:0:0:0:
276,212,219395,1,0,0:0:0:0:
300,288,219518,6,0,L|308:96,1,180,6|2,0:0|0:0,0:0:0:0:
264,40,220009,2,0,P|208:24|144:68,1,120,2|10,0:0|0:0,0:0:0:0:
128,128,220378,1,0,0:0:0:0:
181,292,220624,2,0,L|300:288,1,120,8|0,0:0|0:0,0:0:0:0:
380,296,220993,2,0,L|444:304,2,60,2|2|8,0:0|0:0|0:0,0:0:0:0:
236,208,221485,6,0,P|196:144|264:64,1,180,4|0,0:0|0:0,0:0:0:0:
336,64,221977,2,0,L|464:72,1,120,0|8,0:0|0:0,0:0:0:0:
388,228,222469,2,0,L|380:140,2,60,2|0|8,0:0|0:0|0:0,0:0:0:0:
236,304,222960,2,0,L|244:224,2,60,2|2|8,0:0|0:0|0:0,0:0:0:0:
168,356,223329,1,8,0:0:0:0:
88,328,223452,6,0,L|76:136,1,180,6|0,0:0|0:0,0:0:0:0:
64,64,223944,2,0,B|100:60|124:76|124:76|181:70,1,120,0|8,0:0|0:0,0:0:0:0:
356,100,224436,2,0,P|364:64|352:32,2,60,0|2|8,0:0|0:0|0:0,0:0:0:0:
304,168,224805,1,0,0:0:0:0:
388,180,224928,2,0,L|456:176,2,60,2|2|8,0:0|0:0|0:0,0:0:0:0:
304,168,225296,6,0,P|268:208|184:192,1,120,6|0,0:0|0:0,0:0:0:0:
136,160,225665,2,0,L|132:92,1,60,8|0,0:0|0:0,0:0:0:0:
216,124,225911,2,0,L|212:56,1,60,8|0,0:0|0:0,0:0:0:0:
292,88,226157,2,0,L|288:20,1,60,8|0,0:0|0:0,0:0:0:0:
368,0,226403,2,0,L|376:144,1,120
384,288,226895,1,4,0:2:0:0:
276,160,227141,2,0,L|196:152,1,60,2|2,0:0|0:0,0:0:0:0:
136,124,227387,6,0,P|92:180|112:248,1,120,6|8,0:0|0:0,0:0:0:0:
144,296,227755,1,2,0:0:0:0:
224,276,227878,1,8,0:0:0:0:
288,320,228001,2,0,L|368:316,2,60,2|8|2,0:0|0:0|0:0,0:0:0:0:
224,276,228370,2,0,P|212:236|228:196,1,60,8|2,0:0|0:0,0:0:0:0:
276,160,228616,2,0,P|308:144|356:152,1,60,8|2,0:0|0:0,0:0:0:0:
400,192,228862,2,0,L|388:336,1,120,2|2,0:0|0:0,0:0:0:0:
390,311,229354,6,0,P|320:268|272:288,1,120,6|8,0:0|0:0,0:0:0:0:
216,320,229723,1,2,0:0:0:0:
152,264,229846,1,8,0:0:0:0:
68,272,229969,2,0,L|60:352,2,60,2|8|2,0:0|0:0|0:0,0:0:0:0:
100,196,230337,2,0,P|116:164|112:116,1,60,8|2,0:0|0:0,0:0:0:0:
84,64,230583,2,0,P|112:56|164:72,1,60,8|2,0:0|0:0,0:0:0:0:
200,124,230829,2,0,P|264:136|332:104,1,120,2|2,0:0|0:0,0:0:0:0:
372,56,231198,1,0,0:0:0:0:
314,118,231321,6,0,B|304:188|304:188|324:248,1,120,6|8,0:0|0:0,0:0:0:0:
356,312,231690,1,0,0:0:0:0:
288,360,231813,2,0,L|220:352,1,60,8|2,0:0|0:0,0:0:0:0:
156,308,232059,2,0,P|144:280|156:232,1,60,8|2,0:0|0:0,0:0:0:0:
196,184,232305,1,8,0:0:0:0:
176,104,232428,1,2,0:0:0:0:
254,121,232550,2,0,L|314:118,1,60,8|2,0:0|0:0,0:0:0:0:
388,92,232796,2,0,P|416:156|384:220,1,120,8|8,0:0|0:0,0:0:0:0:
348,268,233165,1,2,0:0:0:0:
264,264,233288,6,0,B|228:260|208:232|208:232|144:220,1,120,6|8,0:0|0:0,0:0:0:0:
72,240,233657,2,0,L|0:248,1,60,2|8,0:0|0:0,0:0:0:0:
64,88,234026,2,0,L|132:96,1,60,2|8,0:0|0:0,0:0:0:0:
208,100,234272,2,0,P|268:72|320:88,2,120,8|2|8,0:0|0:0|0:0,0:0:0:0:
72,200,235009,1,0,0:0:0:0:
172,336,235255,6,0,B|236:344|236:344|284:336|304:312,1,120,6|8,0:0|0:0,0:0:0:0:
360,284,235624,1,2,0:0:0:0:
432,240,235747,2,0,L|440:108,1,120,2|8,0:0|0:0,0:0:0:0:
380,60,236116,2,0,P|324:40|240:120,1,180,0|0,0:0|0:0,0:0:0:0:
280,264,236731,2,0,L|287:348,1,60,2|0,0:2|2:0,0:0:0:0:
285,323,237223,6,0,L|104:316,1,180,4|0,0:0|0:0,0:0:0:0:
52,252,237714,2,0,P|32:208|52:136,1,120,8|0,0:0|0:0,0:0:0:0:
112,84,238083,1,2,0:0:0:0:
196,88,238206,2,0,L|264:92,2,60,8|8|8,0:0|0:0|0:0,0:0:0:0:
132,244,238698,2,0,L|251:240,1,120,2|2,0:0|0:0,0:0:0:0:
396,316,239190,6,0,P|360:252|380:192,1,120,6|2,0:0|0:0,0:0:0:0:
420,140,239559,1,0,0:0:0:0:
368,72,239682,2,0,B|340:64|340:64|304:72|304:72|240:64,1,120,8|4,0:0|0:2,0:0:0:0:
92,116,240173,1,4,0:2:0:0:
104,128,240665,6,0,L|108:252,1,120,0|0,0:0|2:0,0:0:0:0:
256,192,241649,12,4,244108,0:0:0:0:
120,80,244477,6,0,P|164:52|216:56,1,90.0000034332277,4|0,0:0|0:0,0:0:0:0:
264,88,244846,2,0,L|272:188,2,90.0000034332277,0|8|0,0:0|0:0|0:0,0:0:0:0:
324,44,245460,1,0,0:0:0:0:
444,124,245706,1,0,0:0:0:0:
408,264,245952,1,8,0:0:0:0:
356,128,246198,1,8,0:0:0:0:
276,248,246444,6,0,L|184:252,1,90.0000034332277,0|0,0:0|0:0,0:0:0:0:
124,292,246813,2,0,P|140:244|120:192,1,90.0000034332277,0|8,0:0|0:0,0:0:0:0:
32,104,247305,1,8,0:0:0:0:
96,72,247428,2,0,L|200:80,1,90.0000034332277,8|0,0:0|0:0,0:0:0:0:
328,72,247919,1,0,0:0:0:0:
208,152,248165,1,0,0:0:0:0:
344,220,248411,6,0,P|392:232|448:212,1,90.0000034332277,0|0,0:0|0:0,0:0:0:0:
492,176,248780,1,0,0:0:0:0:
376,92,249026,2,0,L|272:96,1,90.0000034332277,8|0,0:0|0:0,0:0:0:0:
252,160,249395,2,0,B|248:184|248:184|252:208|252:208|248:232|248:232|252:256,1,90.0000034332277,0|0,0:0|0:0,0:0:0:0:
144,344,249887,1,8,0:0:0:0:
288,328,250132,1,8,0:0:0:0:
160,264,250378,6,0,L|56:256,1,90.0000034332277,8|8,0:0|0:0,0:0:0:0:
28,196,250747,2,0,P|12:160|20:104,2,90.0000034332277,0|8|0,0:0|0:0|0:0,0:0:0:0:
70,257,251362,2,0,L|160:264,1,90.0000034332277,0|0,0:0|0:0,0:0:0:0:
228,236,251731,1,8,0:0:0:0:
168,104,251977,2,0,L|112:96,2,45.0000017166138,8|0|0,0:0|0:0|0:0,0:0:0:0:
240,84,252346,6,0,P|284:60|368:96,1,135.000005149841,4|8,0:0|0:0,0:0:0:0:
396,224,252960,2,0,L|388:320,1,90.0000034332277,0|8,0:0|0:0,0:0:0:0:
324,348,253329,2,0,P|272:352|232:320,1,90.0000034332277
168,208,253821,2,0,L|172:104,1,90.0000034332277,8|8,0:0|0:0,0:0:0:0:
296,44,254313,6,0,P|356:28|424:80,1,135.000005149841,4|8,0:0|0:0,0:0:0:0:
460,200,254928,1,0,0:0:0:0:
356,300,255173,1,8,0:0:0:0:
300,256,255296,2,0,L|200:248,1,90.0000034332277
148,284,255665,1,8,0:0:0:0:
80,312,255788,2,0,P|48:252|56:212,1,90.0000034332277,0|8,0:0|0:0,0:0:0:0:
92,96,256280,6,0,L|228:88,1,135.000005149841,4|8,0:0|0:0,0:0:0:0:
364,128,256895,2,0,L|368:68,2,45.0000017166138,0|0|8,0:0|0:0|0:0,0:0:0:0:
324,188,257264,2,0,P|336:240|320:280,1,90.0000034332277,0|0,0:0|0:0,0:0:0:0:
196,336,257755,2,0,L|100:332,1,90.0000034332277,8|8,0:0|0:0,0:0:0:0:
48,200,258247,6,0,P|28:140|64:80,1,135.000005149841,4|8,0:0|0:0,0:0:0:0:
200,44,258862,2,0,L|256:40,2,45.0000017166138,8|0|8,0:0|0:0|0:0,0:0:0:0:
168,184,259354,2,0,L|212:187,1,45.0000017166138,8|0,0:0|0:0,0:0:0:0:
284,172,259600,2,0,L|344:168,1,45.0000017166138,8|0,0:0|0:0,0:0:0:0:
396,144,259846,2,0,L|400:88,2,45.0000017166138,0|8|0,0:0|0:0|0:0,0:0:0:0:
392,216,260214,6,0,L|400:304,1,67.5000025749207
