osu file format v13

[General]
AudioFilename: Variation.mp3
AudioLeadIn: 0
PreviewTime: 203042
Countdown: 0
SampleSet: Soft
StackLeniency: 0.7
Mode: 0
LetterboxInBreaks: 1
EpilepsyWarning: 1
WidescreenStoryboard: 1

[Editor]
Bookmarks: 29559,45419,57223,69026,84641,100378,116239,128042,139846,155583,179190,188042,199846,203780,209559,219518,237223
DistanceSpacing: 1.1
BeatDivisor: 4
GridSize: 4
TimelineZoom: 1.7

[Metadata]
Title:Kagerou Variation
TitleUnicode:影炎≒Variation
Artist:Hanatan
ArtistUnicode:花たん
Creator:Kenterz
Version:Fast's Insane
Source:
Tags:Yairi Fast
BeatmapID:459197
BeatmapSetID:185962

[Difficulty]
HPDrainRate:7
CircleSize:4
OverallDifficulty:7
ApproachRate:8.5
SliderMultiplier:1.5
SliderTickRate:1

[Events]
//Background and Video events
0,0,"BG.jpg",0,0
//Break Periods
2,163652,178515
//Storyboard Layer 0 (Background)
//Storyboard Layer 1 (Fail)
//Storyboard Layer 2 (Pass)
//Storyboard Layer 3 (Foreground)
//Storyboard Sound Samples
//Background Colour Transformations
3,100,163,162,255

[TimingPoints]
2809.02146656535,434.782608695652,4,2,1,80,1,0
9765,245.901639344262,4,1,1,80,1,0
10010,245.901639344262,4,1,1,80,1,0
10993,-133.333333333333,4,1,1,80,0,0
21690,-117.647058823529,4,1,1,80,0,0
29559,-125,4,1,1,80,0,0
45419,-111.111111111111,4,1,1,80,0,0
61157,-100,4,1,2,80,0,1
61219,-100,4,1,1,80,0,1
68042,-100,4,1,1,60,0,1
68534,-100,4,1,1,80,0,1
72469,-100,4,1,1,60,0,1
72960,-100,4,1,1,80,0,1
75911,-100,4,1,1,60,0,1
76403,-100,4,1,1,70,0,1
76895,-100,4,1,1,80,0,1
80337,-100,4,1,1,60,0,1
80829,-100,4,1,1,80,0,1
81813,-100,4,1,1,80,0,0
82305,-133.333333333333,4,1,1,80,0,0
84641,-133.333333333333,4,1,1,80,0,0
92755,-117.647058823529,4,1,1,80,0,0
100378,-125,4,1,1,80,0,0
116239,-111.111111111111,4,1,1,80,0,0
128042,-111.111111111111,4,1,0,80,0,0
128104,-111.111111111111,4,1,1,80,0,0
131977,-100,4,1,2,80,0,1
132038,-100,4,1,1,80,0,1
138862,-100,4,1,1,60,0,1
139600,-100,4,1,1,80,0,1
143288,-100,4,1,1,60,0,1
143780,-100,4,1,1,80,0,1
145255,-100,4,1,1,60,0,1
145747,-100,4,1,1,80,0,1
146731,-100,4,1,1,60,0,1
147223,-100,4,1,1,70,0,1
147714,-100,4,1,1,80,0,1
152632,-100,4,1,1,80,0,0
153124,-133.333333333333,4,1,1,80,0,0
155337,-133.333333333333,4,2,1,50,0,0
155583,-100,4,2,1,55,0,0
156567,-100,4,2,1,45,0,0
157550,-100,4,2,1,35,0,0
158534,-100,4,2,1,25,0,0
159518,-100,4,2,1,15,0,0
160501,-100,4,2,1,5,0,0
163452,-100,4,1,1,70,0,0
186075,-100,4,1,1,50,0,0
187059,-100,4,1,1,80,0,0
187428,-100,4,1,1,50,0,0
188042,-100,4,1,1,80,0,0
191485,-100,4,1,1,60,0,0
191977,-100,4,1,1,80,0,0
193452,-100,4,1,1,60,0,0
193944,-100,4,1,1,80,0,0
203780,-125,4,1,1,80,0,1
203841,-125,4,2,1,30,0,0
205255,-125,4,1,1,80,0,0
209436,-125,4,2,1,5,0,0
209559,-100,4,1,1,80,0,1
210665,-100,4,1,1,60,0,1
211157,-100,4,1,1,80,0,0
211649,-100,4,1,1,80,0,1
215091,-100,4,1,1,60,0,1
215583,-100,4,1,1,80,0,1
217059,-100,4,1,1,60,0,1
217550,-100,4,1,1,80,0,1
219272,-100,4,1,1,80,0,0
219518,-100,4,1,2,80,0,1
219579,-100,4,1,1,80,0,1
227141,-100,4,1,1,80,0,0
227387,-100,4,1,1,90,0,1
228862,-100,4,1,1,60,0,1
229354,-100,4,1,1,90,0,1
236731,-100,4,1,1,80,0,0
239190,-100,4,1,1,80,0,0
240665,-200,4,1,1,80,0,0
240727,-200,4,1,1,5,0,0
241649,-200,4,1,1,80,0,0
242632,-133.333333333333,4,1,1,50,0,0
243124,-133.333333333333,4,1,1,60,0,0
243616,-133.333333333333,4,1,1,70,0,0
244108,-133.333333333333,4,1,1,80,0,0
244415,-133.333333333333,4,2,1,5,0,0
244477,-133.333333333333,4,1,1,80,0,0

[Colours]
Combo1 : 192,192,192
Combo2 : 255,255,255

[HitObjects]
248,152,9765,5,10,0:0:0:0:
248,152,10010,2,0,P|252:192|240:248,1,75,12|0,0:0|0:0,0:0:0:0:
172,280,10255,1,0,0:0:0:0:
120,204,10378,1,0,0:0:0:0:
48,260,10501,2,0,P|36:168|88:120,1,150,8|0,0:0|0:0,0:0:0:0:
224,60,10993,6,0,L|408:84,1,168.750006437302,8|2,0:0|0:0,0:0:0:0:
468,120,11485,2,0,P|476:168|468:200,1,56.2500021457673,8|0,0:0|2:0,0:0:0:0:
339,301,11854,6,0,L|172:280,1,168.750006437302,8|0,0:0|0:0,0:0:0:0:
169,127,12346,2,0,P|164:99|168:72,1,56.2500021457673,0|0,0:0|0:0,0:0:0:0:
240,24,12591,1,0,0:0:0:0:
312,72,12714,2,0,P|315:99|310:127,1,56.2500021457673,0|0,0:0|0:0,0:0:0:0:
212,200,12960,6,0,P|156:212|84:116,1,168.750006437302,0|0,0:0|0:0,0:0:0:0:
120,64,13452,1,8,0:0:0:0:
202,47,13575,2,0,L|312:72,1,112.500004291535,2|4,0:2|0:2,0:0:0:0:
312,72,14067,6,0,L|316:152,1,56.2500021457673,0|8,0:0|0:0,0:0:0:0:
400,112,14313,2,0,L|402:168,1,56.2500021457673,0|8,0:0|0:0,0:0:0:0:
488,152,14559,2,0,L|492:232,1,56.2500021457673,0|8,0:0|0:0,0:0:0:0:
412,268,14805,1,0,0:0:0:0:
328,252,14928,6,0,L|252:240,2,56.2500021457673,0|0|8,0:0|0:0|0:0,0:0:0:0:
300,332,15296,2,0,L|224:320,1,56.2500021457673,8|0,0:0|0:0,0:0:0:0:
186,384,15542,2,0,P|168:362|160:336,1,56.2500021457673,8|0,0:0|0:0,0:0:0:0:
184,256,15788,1,12,0:0:0:0:
184,256,16034,6,0,P|184:216|172:188,1,56.2500021457673,0|8,0:0|0:0,0:0:0:0:
156,120,16280,2,0,P|121:140|103:164,1,56.2500021457673,0|8,0:0|0:0,0:0:0:0:
89,234,16526,1,0,0:0:0:0:
24,180,16649,2,0,L|32:120,1,56.2500021457673,8|0,0:0|0:0,0:0:0:0:
92,64,16895,5,0,2:0:0:0:
156,120,17018,2,0,B|196:136|196:136|272:124,1,112.500004291535,8|8,0:0|0:0,0:0:0:0:
320,56,17387,2,0,L|375:46,1,56.2500021457673,0|8,0:0|0:0,0:0:0:0:
440,100,17632,2,0,L|495:90,1,56.2500021457673,0|12,0:0|0:0,0:0:0:0:
392,284,18001,6,0,L|336:274,1,56.2500021457673,0|8,0:0|0:0,0:0:0:0:
284,208,18247,1,0,0:0:0:0:
352,156,18370,2,0,B|396:152|396:152|460:192,1,112.500004291535,8|8,0:0|0:0,0:0:0:0:
447,274,18739,2,0,L|392:284,1,56.2500021457673,8|0,0:0|0:0,0:0:0:0:
220,268,18985,6,0,P|200:224|224:144,1,112.500004291535,8|8,0:0|0:0,0:0:0:0:
284,208,19354,1,8,0:0:0:0:
352,156,19477,1,8,0:0:0:0:
280,108,19600,1,8,0:0:0:0:
210,162,19723,6,0,P|144:176|92:144,1,112.500004291535,12|8,0:0|0:0,0:0:0:0:
80,76,20091,2,0,L|85:20,1,56.2500021457673,8|8,0:0|0:0,0:0:0:0:
20,144,20337,2,0,L|28:220,1,56.2500021457673,8|0,0:0|0:0,0:0:0:0:
104,236,20583,2,0,L|99:292,1,56.2500021457673,8|8,0:0|0:0,0:0:0:0:
20,320,20829,5,2,0:2:0:0:
80,376,20952,2,0,P|124:384|148:380,1,56.2500021457673,8|8,0:0|0:0,0:0:0:0:
200,328,21198,1,8,0:0:0:0:
272,284,21321,2,0,P|300:283|327:290,1,56.2500021457673,0|8,0:0|0:0,0:0:0:0:
372,364,21567,1,8,0:0:0:0:
436,308,21690,6,0,L|432:168,1,127.50000243187,12|8,0:0|0:0,0:0:0:0:
364,124,22059,2,0,L|361:60,1,63.7500012159348,8|0,0:0|0:0,0:0:0:0:
284,12,22305,1,8,0:0:0:0:
208,60,22428,2,0,P|160:68|128:64,1,63.7500012159348,0|8,0:0|0:0,0:0:0:0:
4,31,22673,2,0,P|35:23|67:23,1,63.7500012159348,8|0,0:0|0:0,0:0:0:0:
118,150,22919,6,0,P|65:182|4:172,1,127.50000243187,8|8,0:0|0:0,0:0:0:0:
72,232,23288,2,0,P|84:268|84:304,1,63.7500012159348,0|8,0:0|0:0,0:0:0:0:
16,352,23534,1,8,0:0:0:0:
108,324,23657,6,0,L|248:336,1,127.50000243187,12|8,0:0|0:0,0:0:0:0:
296,268,24026,2,0,L|359:273,1,63.7500012159348,8|0,0:0|0:0,0:0:0:0:
428,216,24272,1,8,0:0:0:0:
428,216,24395,1,0,0:0:0:0:
372,144,24518,2,0,P|372:100|384:72,1,63.7500012159348,8|8,0:0|0:0,0:0:0:0:
452,32,24764,1,2,0:2:0:0:
344,60,24887,6,0,L|208:36,1,127.50000243187,8|8,0:0|0:0,0:0:0:0:
144,84,25255,2,0,P|124:128|132:172,1,63.7500012159348,0|8,0:0|0:0,0:0:0:0:
176,216,25501,1,8,0:0:0:0:
248,272,25624,6,0,P|196:252|124:308,1,127.50000243187,8|8,0:0|0:0,0:0:0:0:
264,356,25993,2,0,L|336:344,1,63.7500012159348,8|0,0:0|0:0,0:0:0:0:
380,272,26239,2,0,L|452:260,1,63.7500012159348,8|0,0:0|0:0,0:0:0:0:
496,188,26485,1,8,0:0:0:0:
436,120,26608,6,0,B|400:108|400:108|300:128,1,127.50000243187,8|8,0:0|0:0,0:0:0:0:
176,216,26977,1,0,0:0:0:0:
133,296,27100,2,0,P|195:305|248:272,1,127.50000243187,8|8,0:0|0:0,0:0:0:0:
268,184,27469,2,0,L|260:112,1,63.7500012159348,8|12,0:0|0:0,0:0:0:0:
56,176,27837,6,0,L|63:239,1,63.7500012159348,8|8,0:0|0:0,0:0:0:0:
133,296,28083,1,0,0:0:0:0:
176,216,28206,2,0,L|168:152,1,63.7500012159348,8|0,0:0|0:0,0:0:0:0:
200,68,28452,2,0,P|232:44|264:40,1,63.7500012159348,8|8,0:0|0:0,0:0:0:0:
336,80,28698,5,2,0:2:0:0:
424,104,28821,2,0,P|454:96|478:75,2,63.7500012159348,8|8|8,0:0|0:0|0:0,0:0:0:0:
360,170,29190,2,0,L|296:166,1,63.7500012159348,0|8,0:0|0:0,0:0:0:0:
448,200,29436,1,8,0:0:0:0:
448,200,29559,6,0,P|472:252|436:328,1,120,14|0,0:0|2:0,0:0:0:0:
344,356,29928,2,0,L|216:340,1,120,10|8,0:0|0:0,0:0:0:0:
148,248,30296,2,0,P|144:204|156:180,1,60,2|8,0:0|0:0,0:0:0:0:
212,132,30542,6,0,P|160:144|108:96,1,120,8|8,0:0|0:0,0:0:0:0:
156,32,30911,2,0,L|228:24,1,60,8|0,0:0|0:0,0:0:0:0:
280,80,31157,1,8,0:0:0:0:
360,56,31280,2,0,L|432:64,1,60,8|8,0:0|0:0,0:0:0:0:
468,132,31526,6,0,L|436:272,1,120,14|0,0:0|2:0,0:0:0:0:
340,316,31895,2,0,P|288:312|240:244,1,120,10|8,0:0|0:0,0:0:0:0:
308,160,32264,2,0,L|304:88,1,60,8|8,0:0|0:0,0:0:0:0:
240,44,32509,6,0,P|184:36|128:96,1,120,8|8,0:0|0:0,0:0:0:0:
112,152,32878,1,8,0:0:0:0:
164,220,33001,2,0,L|152:292,1,60,0|8,0:0|0:0,0:0:0:0:
88,332,33247,1,8,0:0:0:0:
36,264,33370,1,8,0:0:0:0:
88,196,33493,6,0,L|76:56,1,120,14|0,0:0|2:0,0:0:0:0:
192,36,33862,2,0,L|331:48,1,120,10|8,0:0|0:0,0:0:0:0:
408,120,34231,1,8,0:0:0:0:
408,120,34354,1,8,0:0:0:0:
480,76,34477,6,0,P|492:128|448:196,1,120,8|8,0:0|0:0,0:0:0:0:
380,204,34846,2,0,P|351:255|363:313,1,120,8|8,0:0|0:0,0:0:0:0:
436,268,35214,2,0,L|496:280,1,60,8|8,0:0|0:0,0:0:0:0:
288,348,35460,6,0,P|224:344|176:288,1,120,10|8,0:0|0:0,0:0:0:0:
160,228,35829,1,8,0:0:0:0:
228,180,35952,2,0,P|224:132|212:108,1,60,8|8,0:0|0:0,0:0:0:0:
156,64,36198,1,8,0:0:0:0:
88,112,36321,2,0,P|92:160|104:184,1,60,8|8,0:0|0:0,0:0:0:0:
160,228,36567,5,10,0:0:0:0:
228,180,36690,1,10,0:0:0:0:
296,232,36813,2,0,L|360:220,1,60,10|10,0:0|0:0,0:0:0:0:
396,148,37059,2,0,P|384:100|320:64,1,120,2|8,0:0|0:0,0:0:0:0:
248,96,37428,6,0,L|120:84,1,120,14|0,0:0|2:0,0:0:0:0:
44,168,37796,2,0,L|54:296,1,120,10|8,0:0|0:0,0:0:0:0:
156,352,38165,2,0,P|200:352|232:336,1,60,8|8,0:0|0:0,0:0:0:0:
268,280,38411,6,0,P|328:256|396:284,1,120,8|8,0:0|0:0,0:0:0:0:
436,332,38780,1,8,0:0:0:0:
464,252,38903,2,0,P|464:212|448:180,1,60,0|8,0:0|0:0,0:0:0:0:
392,140,39149,1,8,0:0:0:0:
392,140,39272,1,8,0:0:0:0:
312,172,39395,6,0,L|184:156,1,120,14|0,0:0|2:0,0:0:0:0:
124,56,39764,2,0,L|252:40,1,120,10|8,0:0|0:0,0:0:0:0:
348,100,40132,2,0,L|407:92,1,60,8|8,0:0|0:0,0:0:0:0:
476,141,40378,6,0,P|489:199|464:251,1,120,8|8,0:0|0:0,0:0:0:0:
344,180,40747,2,0,L|404:188,1,60,8|0,0:0|0:0,0:0:0:0:
380,268,40993,2,0,L|320:260,1,60,8|8,0:0|0:0,0:0:0:0:
264,200,41239,1,8,0:0:0:0:
264,200,41362,6,0,P|240:240|264:320,1,120,14|0,0:0|2:0,0:0:0:0:
364,360,41731,2,0,L|504:336,1,120,10|8,0:0|0:0,0:0:0:0:
508,220,42100,2,0,P|504:188|488:152,1,60,8|8,0:0|0:0,0:0:0:0:
416,132,42346,6,0,P|380:140|308:92,1,120,8|8,0:0|0:0,0:0:0:0:
384,56,42714,1,8,0:0:0:0:
220,92,42960,2,0,L|144:84,1,60,8|8,0:0|0:0,0:0:0:0:
88,44,43206,2,0,P|80:68|128:164,1,120,8|12,0:0|0:0,0:0:0:0:
268,12,43698,5,8,0:0:0:0:
268,12,43821,1,8,0:0:0:0:
268,12,43944,2,0,L|327:18,1,60,8|0,0:0|0:0,0:0:0:0:
380,128,44190,2,0,L|439:121,1,60,8|8,0:0|0:0,0:0:0:0:
496,188,44436,6,0,P|500:232|452:300,1,120,8|8,0:0|0:0,0:0:0:0:
388,252,44805,1,8,0:0:0:0:
320,300,44928,1,2,0:0:0:0:
260,240,45050,2,0,P|216:240|184:260,1,60,8|8,0:0|0:0,0:0:0:0:
136,300,45296,1,8,0:0:0:0:
96,372,45419,6,0,L|112:224,1,134.999995880127,14|0,0:0|2:0,0:0:0:0:
64,168,45788,2,0,L|80:20,1,134.999995880127,10|0,0:0|2:0,0:0:0:0:
160,8,46157,2,0,P|232:32|256:108,1,134.999995880127,10|0,0:0|2:0,0:0:0:0:
224,160,46526,2,0,L|238:294,1,134.999995880127,10|0,0:0|0:0,0:0:0:0:
308,344,46895,5,8,0:0:0:0:
348,268,47018,1,0,0:0:0:0:
420,308,47141,2,0,P|464:312|492:304,1,67.4999979400635,8|0,0:0|0:0,0:0:0:0:
504,224,47387,6,0,L|489:89,1,134.999995880127,14|0,0:0|2:0,0:0:0:0:
416,48,47755,2,0,P|336:44|286:85,1,134.999995880127,10|0,0:0|2:0,0:0:0:0:
240,140,48124,2,0,P|175:153|116:123,1,134.999995880127,10|0,0:0|2:0,0:0:0:0:
92,40,48493,5,0,0:0:0:0:
80,136,48616,2,0,L|92:288,1,134.999995880127,10|8,0:0|0:0,0:0:0:0:
164,316,48985,2,0,P|212:320|244:308,1,67.4999979400635,8|8,0:0|0:0,0:0:0:0:
280,244,49231,1,8,0:0:0:0:
348,296,49354,6,0,P|364:244|312:164,1,134.999995880127,14|0,0:0|2:0,0:0:0:0:
244,164,49723,2,0,P|210:107|225:42,1,134.999995880127,10|0,0:0|2:0,0:0:0:0:
356,8,50091,2,0,L|488:32,1,134.999995880127,10|0,0:0|2:0,0:0:0:0:
512,116,50460,6,0,P|516:160|500:208,1,67.4999979400635,10|0,0:0|0:0,0:0:0:0:
444,236,50706,1,8,0:0:0:0:
380,180,50829,2,0,P|324:168|256:228,1,134.999995880127,8|8,0:0|0:0,0:0:0:0:
236,292,51198,1,8,0:0:0:0:
268,368,51321,6,0,L|104:344,1,134.999995880127,14|0,0:0|2:0,0:0:0:0:
76,288,51690,2,0,P|60:236|104:160,1,134.999995880127,10|0,0:0|0:0,0:0:0:0:
228,152,52059,2,0,P|205:214|143:235,1,134.999995880127,10|0,0:0|2:0,0:0:0:0:
94,166,52428,1,10,0:0:0:0:
132,92,52550,2,0,P|176:72|216:76,1,67.4999979400635,0|0,0:0|2:0,0:0:0:0:
268,116,52796,6,0,P|320:120|360:104,1,67.4999979400635,8|0,0:0|0:0,0:0:0:0:
392,52,53042,1,8,0:0:0:0:
392,52,53165,1,8,0:0:0:0:
392,52,53288,6,0,L|392:204,1,134.999995880127,14|8,0:0|0:0,0:0:0:0:
456,244,53657,1,0,0:0:0:0:
496,168,53780,2,0,L|496:93,1,67.4999979400635,8|0,0:0|0:0,0:0:0:0:
392,187,54026,6,0,P|352:212|272:192,1,134.999995880127,8|8,0:0|0:0,0:0:0:0:
264,108,54395,1,0,0:0:0:0:
264,108,54518,2,0,L|344:116,1,67.4999979400635,8|0,0:0|0:0,0:0:0:0:
208,44,54764,2,0,L|140:37,1,67.4999979400635,8|0,0:0|0:0,0:0:0:0:
67,84,55009,2,0,P|54:114|52:148,1,67.4999979400635,8|0,0:0|0:0,0:0:0:0:
132,184,55255,6,0,P|140:260|96:312,1,134.999995880127,12|8,0:0|0:0,0:0:0:0:
60,232,55624,1,0,0:0:0:0:
52,148,55747,2,0,P|54:114|68:84,1,67.4999979400635,8|0,0:0|0:0,0:0:0:0:
144,48,55993,2,0,P|192:60|232:144,1,134.999995880127,8|8,0:0|0:0,0:0:0:0:
136,268,56485,5,8,0:0:0:0:
136,268,56608,1,0,0:0:0:0:
136,268,56731,2,0,L|280:284,1,134.999995880127,8|8,0:0|0:0,0:0:0:0:
332,224,57100,1,0,0:0:0:0:
288,152,57223,6,0,P|284:100|296:68,1,67.4999979400635,10|2,0:0|0:0,0:0:0:0:
356,32,57469,2,0,P|404:40|452:132,1,134.999995880127,10|2,0:0|0:0,0:0:0:0:
332,224,57960,6,0,P|288:236|256:228,1,67.4999979400635,10|2,0:0|0:0,0:0:0:0:
204,176,58206,2,0,P|144:164|80:220,1,134.999995880127,10|2,0:0|0:0,0:0:0:0:
220,312,58698,6,0,L|296:304,1,67.4999979400635,10|0,0:0|0:0,0:0:0:0:
360,348,58944,2,0,P|368:328|356:256,1,67.4999979400635,10|0,0:0|0:0,0:0:0:0:
308,224,59190,6,0,B|328:128|328:128|344:184,1,134.999995880127,10|0,0:0|2:0,0:0:0:0:
408,212,59559,2,0,P|452:220|492:204,1,67.4999979400635,0|2,2:0|2:0,0:0:0:0:
476,44,59928,5,2,2:0:0:0:
476,44,60050,1,2,2:0:0:0:
328,128,60296,6,0,L|260:120,1,67.4999979400635,0|0,0:0|0:0,0:0:0:0:
204,56,60542,1,0,0:0:0:0:
204,56,60665,2,0,P|176:112|212:192,1,134.999995880127,0|0,0:0|2:0,0:0:0:0:
368,212,61157,6,0,P|411:152|399:80,1,150,6|0,0:0|0:0,0:0:0:0:
324,40,61526,2,0,B|276:52|224:44|224:44|204:48|180:84,1,150,10|0,0:0|0:0,0:0:0:0:
104,56,61895,2,0,P|108:108|200:160,1,150,10|0,0:0|0:0,0:0:0:0:
256,120,62264,6,0,B|280:188|232:228|232:228|252:224|276:228,1,150,10|0,0:0|0:0,0:0:0:0:
320,292,62632,1,10,0:0:0:0:
256,352,62755,2,0,L|168:344,1,75,2|2,0:0|0:0,0:0:0:0:
132,276,63001,1,2,0:0:0:0:
64,332,63124,6,0,P|44:272|108:192,1,150,10|0,0:0|0:0,0:0:0:0:
172,196,63493,2,0,B|200:212|208:228|208:228|252:196|320:208,1,150,10|0,0:0|0:0,0:0:0:0:
388,232,63862,2,0,P|372:148|308:116,1,150,10|0,0:0|0:0,0:0:0:0:
240,152,64231,6,0,P|256:60|312:32,1,150,10|0,0:0|0:0,0:0:0:0:
384,60,64600,2,0,L|468:44,1,75,10|2,0:0|0:0,0:0:0:0:
512,116,64846,1,2,0:0:0:0:
512,116,64969,1,2,0:0:0:0:
456,184,65091,6,0,P|468:216|404:316,1,150,10|0,0:0|0:0,0:0:0:0:
336,276,65460,2,0,B|352:244|376:232|376:232|352:184|380:132,1,150,10|0,0:0|0:0,0:0:0:0:
448,96,65829,2,0,P|412:64|300:92,1,150,10|0,0:0|0:0,0:0:0:0:
288,156,66198,6,0,B|284:184|287:211|287:211|240:252|260:324,1,150,10|0,0:0|0:0,0:0:0:0:
316,360,66567,2,0,P|228:380|172:332,1,150,8|8,0:0|0:0,0:0:0:0:
184,264,66936,6,0,B|160:156|160:156|136:208,1,150,12|8,0:0|0:0,0:0:0:0:
80,252,67305,1,8,0:0:0:0:
80,252,67428,1,0,0:0:0:0:
80,252,67550,2,0,P|20:264|-4:260,1,75,8|8,0:0|0:0,0:0:0:0:
24,108,67796,2,0,P|84:96|108:100,1,75,8|8,0:0|0:0,0:0:0:0:
160,156,68042,6,0,P|228:160|284:88,1,150,8|2,0:0|0:0,0:0:0:0:
189,16,68411,2,0,L|264:20,1,75,8|0,0:0|0:0,0:0:0:0:
344,52,68657,2,0,L|432:48,1,75,8|8,0:0|0:0,0:0:0:0:
480,112,68903,1,8,0:0:0:0:
428,180,69026,6,0,B|408:236|456:288|456:288|440:280|412:280,1,150,14|0,0:0|0:0,0:0:0:0:
340,264,69395,2,0,P|276:272|228:360,1,150,10|0,0:0|0:0,0:0:0:0:
316,352,69764,2,0,B|364:332|364:332|400:344|400:344|424:348|472:368,1,150,10|0,0:0|0:0,0:0:0:0:
508,292,70132,6,0,P|508:216|440:144,1,150,10|0,0:0|0:0,0:0:0:0:
380,180,70501,2,0,P|324:180|292:164,1,75,10|2,0:0|0:0,0:0:0:0:
264,96,70747,1,2,0:0:0:0:
264,96,70870,1,2,0:0:0:0:
200,156,70993,6,0,P|176:100|236:12,1,150,10|0,0:0|0:0,0:0:0:0:
300,12,71362,2,0,L|448:48,1,150,10|0,0:0|0:0,0:0:0:0:
496,116,71731,2,0,B|504:160|504:160|500:224|428:244,1,150,10|0,0:0|0:0,0:0:0:0:
380,180,72100,6,0,P|312:216|304:300,1,150,10|0,0:0|0:0,0:0:0:0:
272,368,72469,1,2,0:0:0:0:
356,348,72591,1,10,0:0:0:0:
212,304,72714,2,0,P|160:296|120:308,1,75,2|2,0:0|0:0,0:0:0:0:
68,352,72960,6,0,B|48:308|56:276|64:256|88:236|88:236|44:236,1,150,10|0,0:0|0:0,0:0:0:0:
0,176,73329,2,0,P|-4:116|84:60,1,150,10|0,0:0|0:0,0:0:0:0:
76,144,73698,2,0,B|112:132|128:112|128:112|188:96|236:152,1,150,10|0,0:0|0:0,0:0:0:0:
156,196,74067,6,0,P|208:216|292:160,1,150,10|0,0:0|0:0,0:0:0:0:
212,128,74436,2,0,P|240:100|344:108,1,150,10|2,0:0|0:0,0:0:0:0:
416,332,74928,6,0,L|232:320,1,150,12|8,0:0|0:0,0:0:0:0:
224,248,75296,1,8,0:0:0:0:
284,184,75419,2,0,P|300:128|292:88,1,75,8|0,0:0|0:0,0:0:0:0:
140,76,75665,2,0,P|124:132|132:172,1,75,8|8,0:0|0:0,0:0:0:0:
212,128,75911,6,0,P|216:32|168:-8,2,150,10|8|10,0:0|0:0|0:0,0:0:0:0:
125,147,76526,2,0,P|128:208|156:240,1,75,2|2,0:0|0:0,0:0:0:0:
208,268,76772,1,2,0:0:0:0:
280,216,76895,6,0,B|296:176|296:176|284:144|284:144|296:120|300:96|300:48,1,150,12|0,0:0|0:0,0:0:0:0:
224,28,77264,2,8,P|172:24|152:32,1,75,8|8,0:0|0:0,0:0:0:0:
92,96,77509,1,0,0:0:0:0:
92,96,77632,1,8,0:0:0:0:
152,160,77755,6,0,P|156:216|88:272,1,150,8|8,0:0|0:0,0:0:0:0:
88,271,78124,1,8,0:0:0:0:
236,360,78370,2,0,L|404:336,1,150,8|0,0:0|0:0,0:0:0:0:
480,196,78862,6,0,P|464:104|424:176,1,225,14|0,0:0|0:0,0:0:0:0:
364,236,79354,2,0,P|340:184|360:72,1,150,14|0,0:0|0:0,0:0:0:0:
416,40,79723,2,0,P|380:12|264:108,1,225,14|8,0:0|0:0,0:0:0:0:
348,93,80214,1,8,0:0:0:0:
416,40,80337,1,8,0:0:0:0:
364,236,80583,1,8,0:0:0:0:
263,102,80829,6,0,P|220:92|176:96,1,75,8|0,0:0|0:0,0:0:0:0:
176,180,81075,2,0,P|219:190|263:186,1,75,8|0,0:0|0:0,0:0:0:0:
292,24,81321,2,0,P|240:12|140:20,1,150,8|8,0:0|0:0,0:0:0:0:
1,77,81690,2,0,P|38:84|76:79,1,75,8|4,0:0|0:0,0:0:0:0:
168,92,82305,6,0,P|208:124|216:200,1,112.500004291535,4|2,0:2|0:0,0:0:0:0:
176,252,82673,2,0,B|200:288|200:288|232:284|232:284|248:308|248:308|296:276|304:312|316:328|356:280|420:304,1,281.250010728836,10|8,0:0|0:0,0:0:0:0:
480,360,83411,6,0,L|512:368,2,28.1250010728836,0|0|8,0:0|0:0|0:0,0:0:0:0:
432,296,83657,2,0,L|440:220,1,56.2500021457673,0|8,0:0|0:0,0:0:0:0:
480,168,83903,1,0,0:0:0:0:
424,108,84026,2,0,P|376:104|348:112,1,56.2500021457673,8|0,0:0|0:0,0:0:0:0:
308,160,84272,1,8,0:0:0:0:
340,236,84395,2,0,P|336:272|316:308,1,56.2500021457673,0|8,0:0|0:0,0:0:0:0:
264,344,84641,6,0,L|136:332,1,112.500004291535,4|8,0:0|0:0,0:0:0:0:
88,276,85009,2,0,P|52:276|19:282,1,56.2500021457673,8|0,0:0|0:0,0:0:0:0:
132,204,85255,1,8,0:0:0:0:
132,204,85378,2,0,P|114:172|92:148,2,56.2500021457673,0|8|8,0:0|0:0|0:0,0:0:0:0:
172,280,85747,5,0,0:0:0:0:
233,223,85870,2,0,P|288:214|339:235,1,112.500004291535,8|8,0:0|0:0,0:0:0:0:
392,304,86239,2,0,P|440:308|472:296,1,56.2500021457673,0|8,0:0|0:0,0:0:0:0:
500,240,86485,1,8,0:0:0:0:
448,172,86608,6,0,L|464:48,1,112.500004291535,12|8,0:0|0:0,0:0:0:0:
392,12,86977,1,8,0:0:0:0:
324,64,87100,2,0,P|284:72|252:68,1,56.2500021457673,0|8,0:0|0:0,0:0:0:0:
196,28,87346,1,0,0:0:0:0:
120,64,87469,1,8,0:0:0:0:
48,20,87591,6,0,P|36:56|68:132,1,112.500004291535,8|8,0:0|0:0,0:0:0:0:
140,148,87960,1,0,0:0:0:0:
196,212,88083,2,0,P|204:256|196:288,1,56.2500021457673,8|0,0:0|0:0,0:0:0:0:
140,324,88329,2,0,P|188:300|252:328,1,112.500004291535,8|12,0:0|0:0,0:0:0:0:
440,168,88821,6,0,L|432:92,1,56.2500021457673,8|8,0:0|0:0,0:0:0:0:
352,84,89067,1,0,0:0:0:0:
292,140,89190,2,0,L|286:195,1,56.2500021457673,8|0,0:0|0:0,0:0:0:0:
320,276,89436,1,8,0:0:0:0:
392,324,89559,2,0,L|460:316,1,56.2500021457673,8|0,0:0|0:0,0:0:0:0:
316,364,89805,6,0,L|180:382,1,112.500004291535,8|8,0:0|0:0,0:0:0:0:
128,340,90173,1,8,0:0:0:0:
80,268,90296,2,0,P|76:236|84:196,1,56.2500021457673,0|8,0:0|0:0,0:0:0:0:
144,156,90542,2,0,P|96:128|24:144,1,112.500004291535,12|0,0:0|0:0,0:0:0:0:
41,133,90911,6,0,L|48:72,1,56.2500021457673,8|0,0:0|0:0,0:0:0:0:
132,64,91157,2,0,L|138:2,1,56.2500021457673,8|0,0:0|0:0,0:0:0:0:
220,104,91403,2,0,L|288:88,1,56.2500021457673,8|8,0:0|0:0,0:0:0:0:
348,136,91649,5,0,0:0:0:0:
300,204,91772,2,0,P|296:232|304:272,1,56.2500021457673,8|8,0:0|0:0,0:0:0:0:
424,296,92018,1,8,0:0:0:0:
468,224,92141,2,0,P|500:264|452:376,1,168.750006437302,8|12,0:0|0:0,0:0:0:0:
268,128,92755,6,0,L|276:64,1,63.7500012159348,8|8,0:0|0:0,0:0:0:0:
352,12,93001,1,0,0:0:0:0:
424,64,93124,2,0,P|464:72|492:64,1,63.7500012159348,8|0,0:0|0:0,0:0:0:0:
329,130,93370,2,0,P|299:122|268:128,1,63.7500012159348,8|8,0:0|0:0,0:0:0:0:
204,192,93616,1,0,0:0:0:0:
260,264,93739,6,0,P|208:284|128:240,2,127.50000243187,12|8|8,0:0|0:0|0:0,0:0:0:0:
296,180,94354,1,8,0:0:0:0:
348,252,94477,1,12,0:0:0:0:
484,60,94723,6,0,P|444:44|408:48,1,63.7500012159348,8|8,0:0|0:0,0:0:0:0:
348,96,94969,1,0,0:0:0:0:
268,136,95091,2,0,P|216:116|184:48,1,127.50000243187,8|8,0:0|0:0,0:0:0:0:
272,48,95460,1,8,0:0:0:0:
348,96,95583,1,0,0:0:0:0:
344,184,95706,6,0,P|316:216|276:224,1,63.7500012159348,8|0,0:0|0:0,0:0:0:0:
168,248,95952,2,0,P|196:216|236:208,1,63.7500012159348,8|0,0:0|0:0,0:0:0:0:
256,352,96198,2,0,P|242:311|255:273,1,63.7500012159348,8|8,0:0|0:0,0:0:0:0:
344,184,96444,6,0,P|348:248|316:324,1,127.50000243187,12|8,0:0|0:0,0:0:0:0:
168,248,96813,2,0,P|164:184|196:108,1,127.50000243187,8|8,0:0|0:0,0:0:0:0:
260,72,97182,1,0,0:0:0:0:
348,96,97305,2,0,P|396:88|424:68,1,63.7500012159348,8|8,0:0|0:0,0:0:0:0:
456,4,97550,5,0,0:0:0:0:
428,104,97673,2,0,L|448:240,1,127.50000243187,8|8,0:0|0:0,0:0:0:0:
464,320,98042,1,0,0:0:0:0:
380,292,98165,2,0,P|344:292|304:304,1,63.7500012159348,8|8,0:0|0:0,0:0:0:0:
252,360,98411,6,0,P|232:280|264:228,1,127.50000243187,12|8,0:0|0:0,0:0:0:0:
336,212,98780,2,0,P|356:152|333:94,1,127.50000243187,8|8,0:0|0:0,0:0:0:0:
256,48,99149,1,0,0:0:0:0:
184,104,99272,2,0,P|136:96|104:72,2,63.7500012159348,8|8|0,0:0|0:0|0:0,0:0:0:0:
256,48,99641,6,0,P|272:96|272:124,1,63.7500012159348,8|8,0:0|0:0,0:0:0:0:
356,144,99887,2,0,P|322:181|298:195,1,63.7500012159348,0|8,0:0|0:0,0:0:0:0:
328,280,100132,2,0,P|284:276|254:255,1,63.7500012159348,8|8,0:0|0:0,0:0:0:0:
188,236,100378,6,0,P|140:260|64:228,1,120,14|0,0:0|2:0,0:0:0:0:
72,103,100747,2,0,P|128:84|184:104,1,120,10|0,0:0|2:0,0:0:0:0:
248,168,101116,1,8,0:0:0:0:
248,168,101239,2,0,P|296:168|320:156,1,60,8|8,0:0|0:0,0:0:0:0:
352,92,101485,6,0,L|476:120,1,120,8|8,0:0|0:0,0:0:0:0:
469,118,101854,1,0,0:0:0:0:
416,184,101977,2,0,P|408:216|416:264,1,60,8|8,0:0|0:0,0:0:0:0:
472,300,102223,5,8,0:0:0:0:
380,248,102346,2,0,L|252:264,1,120,14|0,0:0|2:0,0:0:0:0:
192,312,102714,2,0,P|152:296|128:268,1,60,8|0,0:0|0:0,0:0:0:0:
108,208,102960,1,8,0:0:0:0:
152,136,103083,2,0,P|156:88|148:56,1,60,8|8,0:0|0:0,0:0:0:0:
108,4,103329,6,0,P|80:32|76:112,2,120,10|8|8,0:0|0:0|0:0,0:0:0:0:
154,76,103944,2,0,P|200:88|232:80,1,60,8|8,0:0|0:0,0:0:0:0:
280,36,104190,1,8,0:0:0:0:
360,4,104313,6,0,P|364:60|312:116,1,120,14|0,0:0|2:0,0:0:0:0:
280,36,104682,2,0,P|243:82|246:140,1,120,8|0,0:0|2:0,0:0:0:0:
316,192,105050,2,0,L|396:184,1,60,8|8,0:0|0:0,0:0:0:0:
480,224,105296,6,0,B|440:227|440:227|416:253|416:253|352:264,1,120,8|8,0:0|0:0,0:0:0:0:
448,152,105665,2,0,L|531:139,1,60,8|0,0:0|0:0,0:0:0:0:
376,186,105911,2,0,B|336:189|336:189|312:215|312:215|248:226,1,120,8|8,0:0|0:0,0:0:0:0:
204,276,106280,6,0,P|184:220|212:156,1,120,14|8,0:0|0:0,0:0:0:0:
284,140,106649,1,8,0:0:0:0:
224,80,106772,1,8,0:0:0:0:
144,112,106895,2,0,P|104:120|64:112,1,60,8|8,0:0|0:0,0:0:0:0:
96,32,107141,2,0,P|136:24|176:32,1,60,8|8,0:0|0:0,0:0:0:0:
224,80,107387,6,0,P|253:81|282:73,1,60,10|10,0:0|0:0,0:0:0:0:
344,16,107632,1,10,0:0:0:0:
344,16,107755,1,10,0:0:0:0:
360,100,107878,2,0,L|352:224,1,120,10|8,0:0|0:0,0:0:0:0:
412,280,108247,6,0,P|372:300|288:276,1,120,14|0,0:0|2:0,0:0:0:0:
208,208,108616,1,8,0:0:0:0:
208,208,108739,2,0,L|216:128,1,60,0|8,0:0|0:0,0:0:0:0:
160,84,108985,2,0,P|128:76|80:88,1,60,8|8,0:0|0:0,0:0:0:0:
52,148,109231,6,0,P|48:216|96:264,1,120,10|8,0:0|0:0,0:0:0:0:
128,184,109600,1,2,0:0:0:0:
208,208,109723,1,2,0:0:0:0:
248,284,109846,2,0,P|232:292|168:284,1,60,8|8,0:0|0:0,0:0:0:0:
292,208,110091,1,8,0:0:0:0:
336,280,110214,6,0,P|352:268|360:160,1,120,14|0,0:0|2:0,0:0:0:0:
280,96,110583,2,0,P|304:72|340:56,1,60,8|0,0:0|2:0,0:0:0:0:
444,88,110829,2,0,L|452:232,1,120,10|8,0:0|0:0,0:0:0:0:
348,212,111198,6,0,L|345:152,1,60,8|0,0:0|2:0,0:0:0:0:
280,96,111444,2,0,P|244:76|168:100,1,120,8|2,0:0|0:0,0:0:0:0:
228,160,111813,1,8,0:0:0:0:
144,176,111936,1,8,0:0:0:0:
88,112,112059,1,8,0:0:0:0:
72,28,112182,6,0,L|48:164,1,120,14|0,0:0|2:0,0:0:0:0:
72,240,112550,2,0,L|96:376,1,120,8|8,0:0|0:0,0:0:0:0:
208,320,112919,1,8,0:0:0:0:
244,244,113042,1,8,0:0:0:0:
227,159,113165,6,0,P|177:189|158:244,1,120,10|8,0:0|0:0,0:0:0:0:
296,316,113534,2,0,L|416:292,1,120,14|0,0:0|0:0,0:0:0:0:
452,216,113903,2,0,P|456:168|440:136,1,60,8|8,0:0|0:0,0:0:0:0:
392,96,114149,1,8,0:0:0:0:
316,136,114272,6,0,B|288:132|288:132|272:144|272:144|236:136|236:136|192:152,1,120,14|0,0:0|0:0,0:0:0:0:
124,112,114641,1,8,0:0:0:0:
164,36,114764,2,0,L|236:44,1,60,8|0,0:0|0:0,0:0:0:0:
80,40,115009,2,0,L|20:33,1,60,8|0,0:0|0:0,0:0:0:0:
52,156,115255,6,0,L|72:280,1,120,12|8,0:0|0:0,0:0:0:0:
144,316,115624,1,8,0:0:0:0:
200,256,115747,2,0,P|232:252|272:268,1,60,8|8,0:0|0:0,0:0:0:0:
324,316,115993,1,8,0:0:0:0:
344,236,116116,1,8,0:0:0:0:
408,296,116239,6,0,B|416:320|416:320|436:300|436:300|444:268|444:268|428:216,1,134.999995880127,14|0,0:0|2:0,0:0:0:0:
372,152,116608,2,0,B|368:124|368:124|376:84|376:84|360:8,1,134.999995880127,10|0,0:0|2:0,0:0:0:0:
288,136,116977,2,0,L|272:208,1,67.4999979400635,10|8,0:0|0:0,0:0:0:0:
200,256,117223,1,8,0:0:0:0:
144,188,117346,6,0,B|148:152|148:152|160:124|160:124|152:92|152:92|152:48,1,134.999995880127,8|0,0:0|2:0,0:0:0:0:
8,92,117714,2,0,P|4:128|8:171,1,67.4999979400635,8|8,0:0|0:0,0:0:0:0:
32,244,117960,1,8,0:0:0:0:
32,244,118083,1,8,0:0:0:0:
68,324,118206,6,0,B|76:336|92:340|92:340|124:328|124:328|156:336|156:336|212:324,1,134.999995880127,14|0,0:0|2:0,0:0:0:0:
268,276,118575,2,0,P|324:268|388:332,1,134.999995880127,10|0,0:0|2:0,0:0:0:0:
340,192,118944,2,0,B|336:132|384:100|384:100|388:152,1,134.999995880127,10|0,0:0|2:0,0:0:0:0:
260,168,119313,6,0,P|216:172|188:168,1,67.4999979400635,8|8,0:0|0:0,0:0:0:0:
124,112,119559,1,8,0:0:0:0:
184,48,119682,2,0,P|220:48|252:64,1,67.4999979400635,8|8,0:0|0:0,0:0:0:0:
348,108,119928,2,0,P|384:108|416:92,1,67.4999979400635,8|8,0:0|0:0,0:0:0:0:
464,24,120173,6,0,B|504:72|488:120|488:120|488:168,1,134.999995880127,14|0,0:0|2:0,0:0:0:0:
404,184,120542,2,0,B|424:236|480:244|480:244|432:252,1,134.999995880127,10|8,0:0|0:0,0:0:0:0:
364,280,120911,2,0,B|340:268|340:268|312:280|312:280|340:300|340:300|400:292|444:332,1,202.499993820191,10|8,0:0|0:0,0:0:0:0:
364,372,121403,6,0,P|320:372|288:348,1,67.4999979400635,8|8,0:0|0:0,0:0:0:0:
228,312,121649,2,0,P|232:240|296:192,1,134.999995880127,8|8,0:0|0:0,0:0:0:0:
312,280,122018,1,8,0:0:0:0:
364,208,122141,6,0,P|360:172|264:108,1,134.999995880127,14|0,0:0|2:0,0:0:0:0:
208,144,122509,2,0,P|132:124|108:60,1,134.999995880127,10|0,0:0|2:0,0:0:0:0:
44,184,122878,2,0,L|52:268,1,67.4999979400635,10|8,0:0|0:0,0:0:0:0:
104,324,123124,1,8,0:0:0:0:
104,324,123247,1,0,0:0:0:0:
176,272,123370,6,0,P|220:280|264:352,1,134.999995880127,0|8,0:0|0:0,0:0:0:0:
316,280,123739,2,0,P|320:232|308:200,1,67.4999979400635,8|8,0:0|0:0,0:0:0:0:
260,144,123985,1,8,0:0:0:0:
336,96,124108,6,0,L|496:124,1,134.999995880127,14|8,0:0|0:0,0:0:0:0:
500,200,124477,2,0,P|496:248|484:276,1,67.4999979400635,8|8,0:0|0:0,0:0:0:0:
416,316,124723,1,8,0:0:0:0:
348,260,124846,2,0,P|384:232|424:232,1,67.4999979400635,8|0,0:0|0:0,0:0:0:0:
332,348,125091,6,0,L|256:340,1,67.4999979400635,8|0,0:0|0:0,0:0:0:0:
196,288,125337,2,0,L|120:280,1,67.4999979400635,8|0,0:0|0:0,0:0:0:0:
68,216,125583,1,8,0:0:0:0:
68,216,125706,1,0,0:0:0:0:
68,216,125829,2,0,P|64:164|80:128,1,67.4999979400635,8|0,0:0|0:0,0:0:0:0:
132,88,126075,6,0,P|188:80|252:128,2,134.999995880127,14|8|8,0:0|0:0|0:0,0:0:0:0:
172,168,126690,1,8,0:0:0:0:
248,216,126813,2,0,P|272:212|332:176,1,67.4999979400635,8|0,0:0|0:0,0:0:0:0:
348,112,127059,6,0,P|380:140|396:232,1,134.999995880127,14|14,0:0|0:0,0:0:0:0:
328,284,127428,1,8,0:0:0:0:
408,324,127550,2,0,L|484:312,1,67.4999979400635,8|0,0:0|0:0,0:0:0:0:
332,372,127796,2,0,L|256:360,1,67.4999979400635,8|0,0:0|0:0,0:0:0:0:
172,264,128042,6,0,P|108:268|84:280,1,67.4999979400635,0|0,0:0|0:0,0:0:0:0:
48,336,128288,2,0,L|60:192,2,134.999995880127,10|6|10,0:0|0:0|0:0,0:0:0:0:
144,188,129026,6,0,B|144:168|136:156|136:156|144:136|140:116|140:116|132:104|136:92|136:92|132:44,2,134.999995880127,10|10|10,0:0|0:0|0:0,0:0:0:0:
220,232,129641,1,2,0:0:0:0:
284,172,129764,2,0,P|328:176|360:200,1,67.4999979400635,10|2,0:0|0:0,0:0:0:0:
384,264,130009,6,0,P|420:232|372:104,2,202.499993820191,12|14|14,0:0|0:0|0:0,0:0:0:0:
220,232,130993,6,0,P|200:200|204:144,1,67.4999979400635,2|2,0:0|1:0,0:0:0:0:
240,92,131239,2,0,P|168:84|112:144,2,134.999995880127,12|12|12,0:0|0:0|0:0,0:0:0:0:
216,320,131977,6,0,P|156:292|140:192,1,150,6|0,0:0|0:0,0:0:0:0:
196,156,132346,2,0,B|264:144|292:204|292:204|280:156,1,150,10|0,0:0|0:0,0:0:0:0:
336,104,132714,2,0,P|388:108|420:212,1,150,10|0,0:0|0:0,0:0:0:0:
368,250,133083,6,0,L|220:232,1,150,10|0,0:0|0:0,0:0:0:0:
152,288,133452,1,2,0:0:0:0:
136,204,133575,1,2,0:0:0:0:
200,148,133698,2,0,P|204:100|188:64,1,75,2|2,0:0|0:0,0:0:0:0:
120,36,133944,6,0,B|76:52|76:52|36:92|80:164,1,150,14|0,0:0|0:0,0:0:0:0:
136,204,134313,2,0,B|168:232|204:232|204:232|244:208|304:220,1,150,10|0,0:0|0:0,0:0:0:0:
260,304,134682,2,0,P|304:300|356:188,1,150,10|0,0:0|0:0,0:0:0:0:
328,140,135050,6,0,P|344:100|452:80,1,150,10|0,0:0|0:0,0:0:0:0:
500,136,135419,2,0,L|492:224,1,75,2|2,0:0|0:0,0:0:0:0:
425,346,135665,2,0,L|432:272,1,75,2|2,0:0|0:0,0:0:0:0:
356,224,135911,6,0,P|304:224|244:128,1,150,14|0,0:0|0:0,0:0:0:0:
268,68,136280,2,0,B|224:56|196:76|196:76|160:88|104:56,1,150,10|0,0:0|0:0,0:0:0:0:
60,4,136649,2,0,P|36:56|84:140,1,150,10|0,0:0|0:0,0:0:0:0:
156,164,137018,6,0,B|184:204|168:252|168:252|172:272|172:272|168:312,1,150,10|0,0:0|0:0,0:0:0:0:
96,356,137387,1,2,0:0:0:0:
96,356,137509,2,0,P|52:360|20:348,1,75,2|2,0:0|0:0,0:0:0:0:
88,216,137755,6,0,P|160:196|248:228,1,150,14|0,0:0|0:0,0:0:0:0:
284,284,138124,2,0,P|324:296|376:288,1,75,8|0,0:0|0:0,0:0:0:0:
420,232,138370,1,8,0:0:0:0:
420,232,138493,1,0,0:0:0:0:
360,168,138616,2,0,L|376:84,1,75,8|0,0:0|0:0,0:0:0:0:
448,48,138862,6,0,P|392:68|320:16,1,150,8|2,0:0|0:0,0:0:0:0:
248,64,139231,2,0,L|164:52,1,75,0|8,0:0|0:0,0:0:0:0:
88,76,139477,1,0,0:0:0:0:
36,144,139600,2,0,P|28:192|40:240,1,75,8|0,0:0|0:0,0:0:0:0:
100,272,139846,6,0,B|140:264|140:264|156:288|156:288|200:280|200:280|256:300,1,150,14|0,0:0|0:0,0:0:0:0:
296,352,140214,2,0,P|320:296|268:212,1,150,10|0,0:0|0:0,0:0:0:0:
196,212,140583,2,0,B|204:188|216:180|216:180|220:164|220:164|228:156|228:156|236:120|236:120|248:92|272:76,1,150,10|0,0:0|0:0,0:0:0:0:
348,56,140952,6,0,P|408:64|368:128,1,150,10|0,0:0|0:0,0:0:0:0:
308,176,141321,2,0,P|340:204|444:188,1,150,2|2,0:0|0:0,0:0:0:0:
484,116,141690,1,2,0:0:0:0:
484,116,141813,6,0,L|472:280,1,150,14|0,0:0|0:0,0:0:0:0:
404,320,142182,2,0,P|352:328|292:248,1,150,10|0,0:0|0:0,0:0:0:0:
308,176,142550,2,0,P|296:104|212:68,1,150,10|0,0:0|0:0,0:0:0:0:
160,116,142919,6,0,P|124:120|88:108,1,75,10|0,0:0|0:0,0:0:0:0:
44,32,143165,1,0,0:0:0:0:
4,108,143288,2,0,L|16:216,1,75,2|2,0:0|0:0,0:0:0:0:
68,320,143534,2,0,P|60:284|80:220,1,75,2|2,0:0|0:0,0:0:0:0:
136,196,143780,6,0,P|200:240|184:332,1,150,14|0,0:0|0:0,0:0:0:0:
280,268,144149,2,0,P|340:256|424:320,1,150,10|0,0:0|0:0,0:0:0:0:
456,376,144518,2,0,P|488:340|476:240,1,150,10|0,0:0|0:0,0:0:0:0:
404,200,144887,6,0,P|348:184|236:208,1,150,10|0,0:0|0:0,0:0:0:0:
196,256,145255,1,2,0:0:0:0:
196,256,145378,2,0,P|176:224|176:176,1,75,2|2,0:0|0:0,0:0:0:0:
224,116,145624,1,2,0:0:0:0:
140,184,145747,6,0,P|88:192|16:120,2,150,14|8|8,0:0|0:0|0:0,0:0:0:0:
224,116,146362,1,0,0:0:0:0:
300,76,146485,2,0,P|356:84|392:108,1,75,8|0,0:0|0:0,0:0:0:0:
388,180,146731,6,0,P|432:156|452:52,2,150,10|8|8,0:0|0:0|0:0,0:0:0:0:
300,172,147346,1,0,0:0:0:0:
216,196,147469,2,0,P|164:232|144:268,1,75,8|0,0:0|0:0,0:0:0:0:
112,316,147714,6,0,B|144:336|176:328|176:328|204:308|204:308|232:324|272:324,1,150,14|0,0:0|0:0,0:0:0:0:
328,284,148083,2,0,P|372:292|412:328,1,75,8|8,0:0|0:0,0:0:0:0:
452,376,148329,1,0,0:0:0:0:
484,296,148452,2,0,P|484:252|472:200,1,75,8|8,0:0|0:0,0:0:0:0:
408,172,148698,6,0,P|404:108|456:24,1,150,12|8,0:0|0:0,0:0:0:0:
336,76,149067,1,0,0:0:0:0:
336,76,149190,2,0,P|272:80|236:60,1,75,8|0,0:0|0:0,0:0:0:0:
192,24,149436,2,0,P|155:17|118:24,1,75,8|0,0:0|0:0,0:0:0:0:
52,80,149682,6,0,B|16:128|52:188|52:188|76:196|96:212|116:248|108:288,1,225,14|0,0:0|0:0,0:0:0:0:
24,272,150173,2,0,P|48:332|152:348,1,150,14|0,0:0|0:0,0:0:0:0:
196,308,150542,2,0,B|200:272|216:252|216:252|208:228|184:220|184:220|176:188|160:168|160:168|124:160|92:120,1,225,14|8,0:0|0:0,0:0:0:0:
172,80,151034,1,8,0:0:0:0:
172,80,151157,1,8,0:0:0:0:
24,272,151403,1,8,0:0:0:0:
276,312,151649,6,0,P|320:312|368:288,1,75,8|0,0:0|0:0,0:0:0:0:
372,216,151895,2,0,P|328:216|280:240,1,75,8|0,0:0|0:0,0:0:0:0:
432,284,152141,2,0,P|460:240|412:136,1,150,8|8,0:0|0:0,0:0:0:0:
352,132,152509,1,8,0:0:0:0:
372,216,152632,1,4,0:0:0:0:
264,160,153124,6,0,L|140:176,1,112.500004291535,4|2,0:0|0:0,0:0:0:0:
84,124,153493,2,0,B|60:96|64:68|72:24|104:12|140:8|152:12|168:20|168:20|196:56|264:60,1,281.250010728836,10|10,0:0|0:0,0:0:0:0:
336,32,154231,6,0,L|380:24,2,28.1250010728836,0|0|8,0:0|0:0|0:0,0:0:0:0:
250,105,154477,2,0,P|253:133|264:160,1,56.2500021457673,0|8,0:0|0:0,0:0:0:0:
340,196,154723,1,0,0:0:0:0:
384,268,154846,2,0,L|380:300,3,28.1250010728836,8|0|0|0,0:0|0:0|0:0|0:0,0:0:0:0:
400,320,155091,2,0,L|272:304,1,112.500004291535,8|0,0:0|0:0,0:0:0:0:
180,344,155460,2,0,P|152:344|120:336,1,56.2500021457673
256,192,155645,12,4,162469,0:0:0:0:
424,80,163452,5,12,0:0:0:0:
400,144,179190,6,0,P|336:160|268:88,2,150,14|10|10,0:0|0:0|0:0,0:0:0:0:
112,240,179928,2,0,P|176:256|244:184,2,150,14|10|10,0:0|0:0|0:0,0:0:0:0:
360,114,180665,5,8,0:0:0:0:
320,101,180788,1,8,0:0:0:0:
320,60,180911,1,8,0:0:0:0:
360,48,181034,1,8,0:0:0:0:
384,81,181157,1,14,0:0:0:0:
280,304,181403,6,0,L|120:292,1,150,10|10,0:0|0:0,0:0:0:0:
336,200,181895,1,14,0:0:0:0:
336,200,182141,2,0,L|485:188,1,150,10|10,0:0|0:0,0:0:0:0:
216,104,182632,5,8,0:0:0:0:
188,65,182755,1,8,0:0:0:0:
141,80,182878,1,8,0:0:0:0:
141,128,183001,1,8,0:0:0:0:
188,144,183124,1,14,0:0:0:0:
412,132,183370,6,0,P|434:202|407:270,2,150,10|10|14,0:0|0:0|0:0,0:0:0:0:
108,212,184108,2,0,P|85:141|112:73,1,150,10|10,0:0|0:0,0:0:0:0:
280,292,184600,1,14,0:0:0:0:
280,292,184846,6,0,B|232:284|232:284|196:296|196:296|168:288|120:308,2,150,10|10|14,0:0|0:0|0:0,0:0:0:0:
356,104,185583,2,0,B|404:112|404:112|440:100|440:100|468:108|516:88,1,150,10|10,0:0|0:0,0:0:0:0:
228,68,186075,6,0,L|206:21,2,50,12|0|0,0:0|0:0|0:0,0:0:0:0:
140,82,186321,2,0,L|93:60,2,50,8|0|0,0:0|0:0|0:0,0:0:0:0:
101,157,186567,6,0,L|51:170,2,50,8|0|0,0:0|0:0|0:0,0:0:0:0:
136,235,186813,2,0,L|106:276,2,50,8|0|0,0:0|0:0|0:0,0:0:0:0:
221,201,187059,6,0,P|276:188|352:260,1,150,12|8,0:0|0:0,0:0:0:0:
252,344,187428,2,0,P|208:344|176:332,1,75,0|2,0:0|0:0,0:0:0:0:
120,268,187673,1,2,0:0:0:0:
110,182,187796,2,0,P|120:120|144:92,1,75,2|2,0:0|0:0,0:0:0:0:
204,72,188042,6,0,L|380:104,1,150,14|0,0:0|2:0,0:0:0:0:
408,168,188411,2,0,P|420:220|348:292,1,150,10|0,0:0|2:0,0:0:0:0:
192,181,188780,2,0,L|340:208,1,150,10|0,0:0|2:0,0:0:0:0:
284,272,189149,6,0,L|200:256,1,75,8|0,0:0|0:0,0:0:0:0:
132,300,189395,1,0,0:0:0:0:
88,224,189518,2,0,P|76:176|88:136,1,75,8|8,0:0|0:0,0:0:0:0:
136,84,189764,1,8,0:0:0:0:
136,84,189887,1,8,0:0:0:0:
200,140,190009,6,0,P|220:88|176:4,1,150,14|0,0:0|2:0,0:0:0:0:
94,5,190378,2,0,P|50:63|63:135,1,150,10|0,0:0|2:0,0:0:0:0:
204,224,190747,2,0,B|324:208|324:208|280:192,1,150,10|0,0:0|2:0,0:0:0:0:
228,144,191116,6,0,P|220:104|304:32,1,150,10|8,0:0|0:0,0:0:0:0:
364,76,191485,2,0,P|408:80|440:68,1,75,8|8,0:0|0:0,0:0:0:0:
500,12,191731,1,8,0:0:0:0:
500,12,191854,1,8,0:0:0:0:
456,104,191977,6,0,B|448:164|448:164|472:204|464:256,1,150,14|0,0:0|2:0,0:0:0:0:
400,308,192346,2,0,P|348:304|296:220,1,150,10|0,0:0|2:0,0:0:0:0:
383,76,192714,2,0,B|368:152|368:152|380:224,1,150,10|0,0:0|2:0,0:0:0:0:
292,124,193083,6,0,L|312:28,1,75,8|8,0:0|0:0,0:0:0:0:
232,4,193329,1,0,0:0:0:0:
160,52,193452,2,0,P|104:72|24:20,1,150,8|8,0:0|0:0,0:0:0:0:
29,30,193821,1,8,0:0:0:0:
0,112,193944,6,0,L|24:260,1,150,14|0,0:0|2:0,0:0:0:0:
88,320,194313,2,0,P|112:324|200:244,1,150,10|0,0:0|2:0,0:0:0:0:
132,91,194682,2,0,B|104:168|104:168|112:236,1,150,10|0,0:0|2:0,0:0:0:0:
264,192,195050,2,0,P|296:188|364:208,1,75,8|0,0:0|0:0,0:0:0:0:
396,260,195296,1,0,0:0:0:0:
440,336,195419,6,0,P|396:348|356:336,1,75,8|0,0:0|0:0,0:0:0:0:
239,282,195665,2,0,P|275:270|312:276,1,75,8|0,0:0|0:0,0:0:0:0:
284,356,195911,5,14,0:0:0:0:
172,212,196157,2,0,L|176:124,1,75,8|8,0:0|0:0,0:0:0:0:
267,117,196403,2,0,L|264:192,1,75,8|8,0:0|0:0,0:0:0:0:
239,282,196649,6,0,P|180:308|92:264,1,150,8|8,0:0|0:0,0:0:0:0:
72,200,197018,1,0,0:0:0:0:
139,141,197141,2,0,P|71:115|3:144,1,150,8|8,0:0|0:0,0:0:0:0:
72,200,197509,1,0,0:0:0:0:
104,279,197632,2,0,P|67:285|31:275,1,75,8|8,0:0|0:0,0:0:0:0:
139,141,197878,6,0,L|308:160,1,150,14|8,0:0|0:0,0:0:0:0:
356,212,198247,1,0,0:0:0:0:
408,284,198370,2,0,P|408:328|392:364,1,75,8|8,0:0|0:0,0:0:0:0:
311,350,198616,1,8,0:0:0:0:
311,350,198739,1,8,0:0:0:0:
240,300,198862,6,0,P|224:266|228:229,1,75,8|8,0:0|0:0,0:0:0:0:
284,161,199108,2,0,P|288:61|224:21,1,150,8|8,0:0|0:0,0:0:0:0:
143,211,199600,1,2,0:0:0:0:
143,211,199723,1,2,0:0:0:0:
143,211,199846,6,0,P|106:213|71:200,1,75,2|2,0:0|0:0,0:0:0:0:
40,120,200091,2,0,B|60:8|60:8|80:64,1,150,10|10,0:0|0:0,0:0:0:0:
224,124,200583,6,0,P|272:132|312:120,1,75,10|2,0:0|0:0,0:0:0:0:
352,60,200829,2,0,P|384:120|340:200,1,150,10|10,0:0|0:0,0:0:0:0:
208,284,201321,6,0,L|304:288,1,75,10|2,0:0|0:0,0:0:0:0:
356,336,201567,2,0,L|452:340,1,75,10|2,0:0|0:0,0:0:0:0:
492,280,201813,6,0,B|496:215|460:176|460:176|428:204|380:212|324:176,1,225,10|2,0:0|0:0,0:0:0:0:
280,144,202305,2,0,P|268:88|280:44,1,75,10|2,0:0|0:0,0:0:0:0:
352,100,202550,6,0,B|372:108|396:112|396:112|444:76|500:96,1,150,10|10,0:0|0:0,0:0:0:0:
280,144,203042,2,0,B|260:136|236:132|236:132|188:168|132:148,1,150,10|10,0:0|0:0,0:0:0:0:
137,149,203534,1,0,0:0:0:0:
460,176,203780,1,14,0:0:0:0:
344,200,205255,6,0,L|336:280,1,60,12|0,0:0|0:0,0:0:0:0:
228,312,205501,2,0,P|188:312|164:304,1,60,8|0,0:0|0:0,0:0:0:0:
204,232,205747,1,14,0:0:0:0:
112,92,207223,6,0,L|248:104,1,120,14|8,0:0|0:0,0:0:0:0:
96,176,207591,2,0,L|24:169,1,60,0|14,0:0|0:0,0:0:0:0:
296,256,209190,6,0,L|312:128,1,120,6|0,0:0|2:0,0:0:0:0:
244,80,209559,6,0,P|200:64|100:112,1,150,14|8,0:0|0:0,0:0:0:0:
80,184,209928,2,0,L|88:272,1,75,8|0,0:0|0:0,0:0:0:0:
144,324,210173,1,8,0:0:0:0:
144,324,210296,1,0,0:0:0:0:
216,276,210419,2,0,L|312:288,1,75,8|0,0:0|0:0,0:0:0:0:
356,344,210665,6,0,P|416:352|480:280,2,150,8|8|8,0:0|0:0|0:0,0:0:0:0:
290,285,211280,2,0,P|280:244|288:188,1,75,8|8,0:0|0:0,0:0:0:0:
332,140,211526,1,8,0:0:0:0:
416,112,211649,6,0,P|356:52|284:64,1,150,14|0,0:0|0:0,0:0:0:0:
248,132,212018,2,0,P|200:132|160:104,1,75,8|0,0:0|0:0,0:0:0:0:
132,44,212264,1,8,0:0:0:0:
60,92,212387,2,0,L|80:256,1,150,10|8,0:0|0:0,0:0:0:0:
184,312,212755,6,0,P|228:320|304:236,1,150,10|8,0:0|0:0,0:0:0:0:
216,232,213124,1,2,0:0:0:0:
216,232,213247,1,2,0:0:0:0:
276,168,213370,2,0,P|280:132|256:80,1,75,2|2,0:0|0:0,0:0:0:0:
192,56,213616,6,0,P|244:16|340:48,1,150,14|0,0:0|0:0,0:0:0:0:
364,108,213985,2,0,P|368:152|356:196,1,75,8|0,0:0|0:0,0:0:0:0:
308,248,214231,1,0,0:0:0:0:
392,263,214354,2,0,P|351:324|279:329,1,150,10|0,0:0|0:0,0:0:0:0:
220,264,214723,6,0,B|108:280|108:280|152:296,1,150,10|0,0:0|0:0,0:0:0:0:
208,352,215091,2,0,P|180:372|124:376,1,75,2|2,0:0|0:0,0:0:0:0:
64,340,215337,2,0,P|36:304|48:248,1,75,2|2,0:0|0:0,0:0:0:0:
72,196,215583,6,0,P|92:124|48:60,1,150,14|0,0:0|0:0,0:0:0:0:
136,36,215952,2,0,P|180:36|220:52,1,75,8|0,0:0|0:0,0:0:0:0:
268,112,216198,1,0,0:0:0:0:
312,188,216321,2,0,P|260:200|184:128,1,150,10|0,0:0|0:0,0:0:0:0:
300,28,216690,6,0,P|344:28|396:48,1,75,10|0,0:0|0:0,0:0:0:0:
420,112,216936,1,0,0:0:0:0:
420,112,217059,2,0,B|460:80|456:36|456:36|464:100,1,150,2|2,0:0|0:0,0:0:0:0:
476,184,217428,1,2,0:0:0:0:
488,268,217550,6,0,P|420:248|392:176,2,150,14|10|10,0:0|0:0|0:0,0:0:0:0:
432,336,218165,2,0,P|380:364|340:364,1,75,0|8,0:0|0:0,0:0:0:0:
288,328,218411,1,0,0:0:0:0:
208,360,218534,6,0,P|140:340|112:268,2,150,10|10|10,0:0|0:0|0:0,0:0:0:0:
288,328,219149,1,2,0:0:0:0:
324,248,219272,2,0,P|324:204|308:168,1,75,2|0,0:0|0:0,0:0:0:0:
236,132,219518,6,0,P|176:132|124:232,1,150,6|0,0:0|0:0,0:0:0:0:
208,212,219887,2,0,P|166:271|88:280,1,150,10|0,0:0|0:0,0:0:0:0:
36,216,220255,2,0,L|56:48,1,150,10|0,0:0|0:0,0:0:0:0:
216,48,220624,6,0,P|280:56|316:156,1,150,10|0,0:0|0:0,0:0:0:0:
288,208,220993,2,0,P|304:212|380:196,1,75,2|2,0:0|0:0,0:0:0:0:
412,132,221239,1,2,0:0:0:0:
412,132,221362,1,2,0:0:0:0:
448,212,221485,6,0,P|424:268|328:288,1,150,10|0,0:0|0:0,0:0:0:0:
272,244,221854,2,0,P|228:240|184:264,1,75,10|0,0:0|0:0,0:0:0:0:
144,316,222100,1,0,0:0:0:0:
92,384,222223,2,0,P|60:336|104:240,1,150,10|0,0:0|0:0,0:0:0:0:
168,236,222591,6,0,L|140:84,1,150,10|0,0:0|0:0,0:0:0:0:
64,44,222960,1,2,0:0:0:0:
64,44,223083,1,2,0:0:0:0:
20,120,223206,2,0,P|32:164|56:192,1,75,2|2,0:0|0:0,0:0:0:0:
132,152,223452,6,0,P|192:148|256:228,1,150,14|0,0:0|0:0,0:0:0:0:
240,292,223821,2,0,P|280:292|332:184,1,150,10|0,0:0|0:0,0:0:0:0:
300,132,224190,2,0,B|312:28|312:28|344:88,1,150,8|0,0:0|0:0,0:0:0:0:
388,136,224559,6,0,P|424:144|476:120,1,75,10|0,0:0|0:0,0:0:0:0:
420,56,224805,1,0,0:0:0:0:
333,67,224928,2,0,L|184:56,1,150,2|2,0:0|0:0,0:0:0:0:
116,112,225296,6,0,P|100:172|152:252,1,150,14|0,0:0|0:0,0:0:0:0:
224,224,225665,2,0,P|268:224|304:248,1,75,8|0,0:0|0:0,0:0:0:0:
348,308,225911,1,8,0:0:0:0:
348,308,226034,1,0,0:0:0:0:
384,228,226157,2,0,L|372:124,1,75,8|0,0:0|0:0,0:0:0:0:
308,96,226403,6,0,P|248:76|172:140,1,150,10|8,0:0|0:0,0:0:0:0:
256,164,226772,1,0,0:0:0:0:
180,208,226895,2,0,P|144:200|100:152,1,75,8|2,0:0|0:0,0:0:0:0:
96,92,227141,1,2,0:0:0:0:
32,152,227264,1,2,0:0:0:0:
48,236,227387,6,0,B|68:276|68:276|108:280|108:280|132:304|176:304,1,150,14|0,0:0|0:0,0:0:0:0:
248,275,227755,2,0,B|276:244|272:200|272:200|276:156|300:136,1,150,10|0,0:0|0:0,0:0:0:0:
360,200,228124,2,0,P|420:208|452:196,1,75,10|0,0:0|0:0,0:0:0:0:
488,136,228370,6,0,B|472:28|472:28|456:76,1,150,10|8,0:0|0:0,0:0:0:0:
400,132,228739,2,0,P|352:128|316:112,1,75,8|8,0:0|0:0,0:0:0:0:
272,52,228985,1,8,0:0:0:0:
240,132,229108,2,0,P|236:172|248:224,1,75,8|8,0:0|0:0,0:0:0:0:
304,268,229354,6,0,P|240:248|168:316,1,150,14|0,0:0|0:0,0:0:0:0:
252,336,229723,2,0,P|316:356|388:288,1,150,10|0,0:0|0:0,0:0:0:0:
332,184,230091,2,0,P|328:144|344:96,1,75,10|0,0:0|0:0,0:0:0:0:
408,60,230337,6,0,P|328:92|248:52,1,150,10|8,0:0|0:0,0:0:0:0:
192,32,230706,1,8,0:0:0:0:
128,92,230829,2,0,L|120:180,1,75,8|8,0:0|0:0,0:0:0:0:
172,236,231075,1,8,0:0:0:0:
172,236,231198,1,8,0:0:0:0:
104,288,231321,6,0,P|168:268|240:320,1,150,14|0,0:0|0:0,0:0:0:0:
292,376,231690,2,0,P|286:303|338:252,1,150,2|0,0:0|0:0,0:0:0:0:
420,288,232059,2,0,P|464:292|500:276,1,75,10|0,0:0|0:0,0:0:0:0:
492,128,232305,6,0,P|424:120|360:188,1,150,10|8,0:0|0:0,0:0:0:0:
446,201,232673,1,8,0:0:0:0:
356,184,232796,2,0,L|272:180,1,75,8|8,0:0|0:0,0:0:0:0:
212,232,233042,2,0,L|128:228,1,75,8|8,0:0|0:0,0:0:0:0:
76,292,233288,6,0,P|48:216|100:148,1,150,14|8,0:0|0:0,0:0:0:0:
164,148,233657,1,8,0:0:0:0:
137,228,233780,1,8,0:0:0:0:
40,84,234026,2,0,L|48:4,1,75,8|0,0:0|0:0,0:0:0:0:
120,56,234272,6,0,B|172:72|212:40|212:40|240:32|292:56,1,150,10|8,0:0|0:0,0:0:0:0:
332,96,234641,2,0,P|376:104|416:96,1,75,8|0,0:0|0:0,0:0:0:0:
464,32,234887,1,8,0:0:0:0:
464,32,235009,2,0,P|488:68|488:124,1,75,8|8,0:0|0:0,0:0:0:0:
448,176,235255,6,0,P|436:228|504:308,1,150,14|8,0:0|0:0,0:0:0:0:
368,268,235624,2,0,P|328:268|288:280,1,75,8|8,0:0|0:0,0:0:0:0:
244,348,235870,1,0,0:0:0:0:
172,300,235993,2,0,L|184:212,1,75,8|8,0:0|0:0,0:0:0:0:
232,156,236239,6,0,B|232:132|224:112|224:112|228:96|232:80|232:80|216:44|232:8,2,150,10|8|10,0:0|0:0|0:0,0:0:0:0:
232,156,236854,1,10,0:0:0:0:
164,283,237223,6,0,L|152:107,1,150,14|8,0:0|0:0,0:0:0:0:
204,63,237591,1,8,0:0:0:0:
292,67,237714,2,0,P|344:67|424:143,1,150,14|8,0:0|0:0,0:0:0:0:
452,275,238083,6,0,B|416:271|388:267|360:231|360:231|328:259|288:271|240:247,1,225,14|8,0:0|0:0,0:0:0:0:
192,187,238575,2,0,P|180:143|192:103,1,75,8|8,0:0|0:0,0:0:0:0:
436,183,238944,1,8,0:0:0:0:
168,271,239190,6,0,L|72:263,1,75,8|0,0:0|0:0,0:0:0:0:
192,187,239436,2,0,L|288:179,1,75,8|0,0:0|0:0,0:0:0:0:
248,299,239682,2,0,P|180:359|116:339,1,150,8|8,0:0|0:0,0:0:0:0:
128,348,240050,1,0,0:0:0:0:
128,348,240173,1,4,0:0:0:0:
192,187,240665,6,2,P|281:177|247:299,1,262.5,4|0,0:0|0:0,0:0:0:0:
247,298,241649,6,2,L|400:279,1,150,12|10,0:0|0:0,0:0:0:0:
452,211,242264,2,0,L|476:223,4,18.75,0|0|8|0|0,0:0|0:0|0:0|0:0|0:0,0:0:0:0:
376,167,242632,6,0,L|340:179,2,28.1250010728836,8|0|0,0:0|0:0|0:0,0:0:0:0:
320,99,242878,2,0,L|327:61,2,28.1250010728836,8|0|0,0:0|0:0|0:0,0:0:0:0:
216,59,243124,6,0,L|252:47,2,28.1250010728836,8|0|0,0:0|0:0|0:0,0:0:0:0:
143,112,243370,2,0,L|171:137,2,28.1250010728836,8|0|0,0:0|0:0|0:0,0:0:0:0:
60,79,243616,6,0,L|52:155,1,56.2500021457673,8|0,0:0|0:0,0:0:0:0:
4,203,243862,1,8,0:0:0:0:
4,203,243985,1,0,0:0:0:0:
68,259,244108,2,0,L|168:243,1,84.3750032186509,8|8,0:0|0:0,0:0:0:0:
174,263,244354,2,0,L|254:271,1,56.2500021457673,8|12,0:0|0:0,0:0:0:0:
