osu file format v14

[General]
AudioFilename: Variation.mp3
AudioLeadIn: 0
PreviewTime: 203042
Countdown: 0
SampleSet: Soft
StackLeniency: 0.7
Mode: 0
LetterboxInBreaks: 1
EpilepsyWarning: 1
WidescreenStoryboard: 1

[Editor]
DistanceSpacing: 1.1
BeatDivisor: 4
GridSize: 4
TimelineZoom: 1

[Metadata]
Title:Kagerou Variation
TitleUnicode:影炎≒Variation
Artist:Hanatan
ArtistUnicode:花たん
Creator:Kenterz
Version:Extra
Source:
Tags:Yairi Fast
BeatmapID:444430
BeatmapSetID:185962

[Difficulty]
HPDrainRate:6.5
CircleSize:4
OverallDifficulty:8
ApproachRate:9.5
SliderMultiplier:1.9
SliderTickRate:1

[Events]
//Background and Video events
0,0,"BG.jpg",0,0
//Break Periods
2,84840,99484
//Storyboard Layer 0 (Background)
Sprite,Background,Centre,"SB\black.jpg",320,240 F,0,195419,195911,0,0.4594871 M,0,195419,200706,320,240,304,288 V,0,199846,,1.472616,1.275692 F,0,199846,201936,1 R,0,199969,,0.2756921 M,0,200706,201321,304,288 F,0,201936,203042,1 S,0,202550,,1 F,0,203042,203411,1,0.004065037
//Storyboard Layer 1 (Fail)
//Storyboard Layer 2 (Pass)
//Storyboard Layer 3 (Foreground)
Sprite,Foreground,Centre,"SB\light.png",320,240 M,0,199969,,199,375 S,0,199969,,0.350154 F,0,199969,200214,1,0.1039999
Sprite,Foreground,Centre,"SB\light.png",320,240 M,0,201321,,481,159 V,0,201321,,1,1 F,0,201321,201444,1,0.7822565 S,0,201321,201567,0.2648204,0.3829743 F,0,201444,201567,0.7822565,0
Sprite,Foreground,Centre,"SB\light.png",320,240 M,0,201567,,394,167 F,0,201567,201690,1,0.7625641 S,0,201567,201813,0.3042052,0.4026666 F,0,201690,201813,0.7625641,0
Sprite,Foreground,Centre,"SB\light.png",320,240 M,0,199846,199907,416,320,312,344 V,0,199846,199907,0.3238974,0.3173334,0.7374356,0.2188715 R,0,199907,,-0.2756921 M,0,199907,199969,312,344,208,369 V,0,199907,199969,0.7374356,0.2188715,0.3107692,0.3238974
Sprite,Foreground,Centre,"SB\light.png",320,240 M,0,201813,,327,128 F,0,201813,202182,1,0 S,0,201813,202182,0.2976408,0.4026665
Sprite,Foreground,Centre,"SB\light.png",320,240 M,0,202182,,328,129 F,0,202182,202550,1,0 S,0,202182,202550,0.2976408,0.4157947
Sprite,Foreground,Centre,"SB\light.png",320,240 M,0,202550,,335,159 F,0,202550,203042,1,0 S,0,202550,203042,0.2713844,0.4026664
Sprite,Foreground,Centre,"SB\light.png",320,240 M,0,199846,,412,321 F,0,199846,200091,1,0.03179474 S,0,199846,200091,0.3895386
Sprite,Foreground,Centre,"SB\light.png",320,240 M,0,200706,,434,427 M,0,200706,,434,427 F,0,200706,200952,1,0 S,0,200829,,0.2845128
Sprite,Foreground,Centre,"SB\light.png",320,240 V,0,200583,200645,0.3895386,0.4354871,0.2649275,0.8490257 M,0,200583,200706,446,236,436,415 V,0,200645,200706,0.2649275,0.8490257,0.4157951,0.4354872 R,0,200706,,0.06564087
Sprite,Foreground,Centre,"SB\light.png",320,240 M,0,202059,,327,126 F,0,202059,,1 S,0,202059,,0.2976408
Sprite,Foreground,Centre,"SB\light.png",320,240 M,0,200583,,447,241 S,0,200583,,0.2845128 F,0,200583,200829,1,0
Sprite,Foreground,Centre,"SB\light.png",320,240 M,0,57223,,338,261 S,0,57223,,0.3501539 V,0,57223,,1.013128,0.9868718 F,0,57223,57469,1,0.09743584
Sprite,Foreground,Centre,"SB\light.png",320,240 M,0,57346,,78,234 S,0,57346,,0.3370256 F,0,57346,57591,1,0
Sprite,Foreground,Centre,"SB\light.png",320,240 M,0,57960,,308,346 S,0,57960,,0.3632825 F,0,57960,58206,1,0
Sprite,Foreground,Centre,"SB\light.png",320,240 M,0,58083,,219,161 S,0,58083,,0.3304616 F,0,58083,58329,1,0
Sprite,Foreground,Centre,"SB\light.png",320,240 F,0,57960,,1 V,0,57960,58022,0.3107691,0.3304613,0.501128,0.186051 M,0,57960,58083,314,344,219,162 R,0,58022,,1.181538 V,0,58022,58083,0.501128,0.186051,0.3435895,0.3501537
Sprite,Foreground,Centre,"SB\light.png",320,240 M,0,58698,,216,154 F,0,58698,58944,1,0 S,0,58698,58944,0.3501538,0.4683077
Sprite,Foreground,Centre,"SB\light.png",320,240 M,0,58944,,81,232 F,0,58944,59190,1,0 S,0,58944,59190,0.3238974,0.4551796
Sprite,Foreground,Centre,"SB\light.png",320,240 M,0,59190,59251,298,196,320,193 S,0,59190,59559,0.3764102 M,0,59251,59313,320,193,335,188 M,0,59313,59374,335,188,354,175 M,0,59374,59436,354,175,371,170 M,0,59436,59497,371,170,394,175 M,0,59497,59559,394,175,419,163 M,0,59559,59620,419,163,438,157 F,0,59559,59682,1,0 S,0,59559,59682,0.3764102,0.5864615 M,0,59620,59682,438,157,460,151
Sprite,Foreground,Centre,"SB\light.png",320,240 V,0,57223,57284,0.3370255,0.3435898,0.7965124,0.2057436 M,0,57223,57346,339,262,81,231 R,0,57284,,0.1444104 V,0,57284,57346,0.7965124,0.2057436,0.3435895,0.3238974
//Storyboard Sound Samples

[TimingPoints]
2809.02146656535,434.782608695652,4,2,1,80,1,0
9765,245.901639344262,4,1,1,80,1,0
10010,245.901639344262,4,1,1,80,1,0
13452,-66.6666666666667,4,1,1,80,0,0
13821,-133.333333333333,4,1,1,80,0,0
19723,-100,4,1,1,80,0,0
20706,-133.333333333333,4,1,1,80,0,0
24887,-100,4,1,1,80,0,0
25624,-133.333333333333,4,1,1,80,0,0
35460,-100,4,1,1,80,0,0
37428,-133.333333333333,4,1,1,80,0,0
43452,-100,4,1,1,80,0,0
44928,-133.333333333333,4,2,1,50,0,0
45419,-100,4,1,1,80,0,0
52796,-133.333333333333,4,1,1,80,0,0
59190,-200,4,1,1,80,0,0
59251,-200,4,2,1,5,0,0
60419,-200,4,2,1,55,0,0
61157,-100,4,1,2,80,0,1
61219,-100,4,1,1,80,0,1
68042,-100,4,1,1,60,0,1
68534,-100,4,1,1,80,0,1
72469,-100,4,1,1,60,0,1
72960,-100,4,1,1,80,0,1
74436,-100,4,1,1,50,0,1
74600,-100,4,1,1,60,0,1
74764,-100,4,1,1,70,0,1
74928,-100,4,1,1,80,0,1
75911,-100,4,1,1,60,0,1
76403,-100,4,1,1,70,0,1
76895,-100,4,1,1,80,0,1
80337,-100,4,1,1,60,0,1
80829,-100,4,1,1,80,0,1
81813,-100,4,1,1,80,0,0
82305,-133.333333333333,4,1,1,80,0,0
106280,-100,4,1,1,80,0,0
108247,-133.333333333333,4,1,1,80,0,0
114272,-100,4,1,1,80,0,0
115747,-133.333333333333,4,2,1,50,0,0
116239,-100,4,1,1,80,0,0
119682,-100,4,1,1,60,0,0
120173,-100,4,1,1,80,0,0
124108,-133.333333333333,4,1,1,80,0,0
130009,-133.333333333333,4,1,1,40,0,0
130501,-133.333333333333,4,1,1,50,0,0
131239,-133.333333333333,4,2,1,60,0,0
131977,-100,4,1,2,80,0,1
132038,-100,4,1,1,80,0,1
138862,-100,4,1,1,60,0,1
139600,-100,4,1,1,80,0,1
143288,-100,4,1,1,60,0,1
143780,-100,4,1,1,80,0,1
145255,-100,4,1,1,60,0,1
145747,-100,4,1,1,80,0,1
146731,-100,4,1,1,60,0,1
147223,-100,4,1,1,70,0,1
147714,-100,4,1,1,80,0,1
152632,-100,4,1,1,80,0,0
153124,-133.333333333333,4,1,1,80,0,0
155153,-133.333333333333,4,1,1,5,0,0
155522,-133.333333333333,4,2,1,5,0,0
155583,-100,4,2,1,55,0,0
156567,-100,4,2,1,45,0,0
157550,-100,4,2,1,35,0,0
158534,-100,4,2,1,25,0,0
159518,-100,4,2,1,15,0,0
160501,-100,4,2,1,5,0,0
163452,-100,4,1,1,70,0,0
186075,-100,4,1,1,50,0,0
187059,-100,4,1,1,80,0,0
187428,-100,4,1,1,50,0,0
187550,-133.333333333333,4,2,1,40,0,0
188042,-100,4,1,1,80,0,0
191485,-100,4,1,1,60,0,0
191977,-100,4,1,1,80,0,0
193452,-100,4,1,1,60,0,0
193944,-100,4,1,1,80,0,0
195911,-133.333333333333,4,1,1,80,0,0
203780,-200,4,1,1,80,0,1
203841,-200,4,2,1,30,0,0
205255,-200,4,1,1,80,0,0
205809,-200,4,2,1,30,0,0
207223,-200,4,1,1,80,0,0
207837,-200,4,2,1,30,0,0
209190,-200,4,1,1,80,0,0
209251,-200,4,1,1,60,0,0
209313,-200,4,2,1,40,0,0
209374,-200,4,2,1,20,0,0
209436,-200,4,2,1,5,0,0
209559,-100,4,1,1,80,0,1
210665,-100,4,1,1,60,0,1
211157,-100,4,1,1,80,0,1
215091,-100,4,1,1,60,0,1
215583,-100,4,1,1,80,0,1
217059,-100,4,1,1,60,0,1
217550,-100,4,1,1,80,0,1
219272,-100,4,1,1,80,0,0
219518,-100,4,1,2,80,0,1
219579,-100,4,1,1,80,0,1
227141,-100,4,1,1,80,0,0
227387,-100,4,1,1,90,0,1
228862,-100,4,1,1,60,0,1
229354,-100,4,1,1,90,0,1
236731,-100,4,1,1,80,0,0
237223,-133.333333333333,4,1,1,80,0,0
239190,-100,4,1,1,80,0,0
241649,-200,4,1,1,80,0,0
242632,-100,4,1,1,50,0,0
243124,-90.9090909090909,4,1,1,60,0,0
243616,-83.3333333333333,4,1,1,70,0,0
244108,-76.9230769230769,4,1,1,80,0,0
244415,-76.9230769230769,4,2,1,5,0,0
244477,-133.333333333333,4,1,1,80,0,0
250378,-100,4,1,1,80,0,0
251239,-133.333333333333,4,1,1,80,0,0
255542,-100,4,1,1,80,0,0
256280,-133.333333333333,4,1,1,80,0,0
260337,-133.333333333333,4,2,1,5,0,0

[Colours]
Combo1 : 192,192,192
Combo2 : 255,255,255

[HitObjects]
184,112,9765,6,0,B|144:176|184:200|184:200|240:216,1,142.5,0|0,0:0|2:0,0:0:0:0:
320,296,10010,6,0,B|264:280|264:280|224:300|180:280,1,142.5,6|0,0:0|2:0,0:0:0:0:
144,44,10255,2,0,P|176:32|216:40,1,63.3333333333333,2|2,0:0|0:0,0:0:0:0:
268,96,10440,1,2,0:0:0:0:
225,212,10501,6,0,B|147:179|147:179|115:199|67:191,1,142.5,8|0,0:0|2:0,0:0:0:0:
184,112,10747,6,0,B|261:144|261:144|293:124|341:132,1,142.5,2|0,0:0|2:0,0:0:0:0:
424,136,10993,1,4,0:2:0:0:
448,160,11485,6,0,B|394:159|362:123|362:123|274:139,1,142.5,0|0,0:0|2:0,0:0:0:0:
248,196,11731,2,0,L|202:211,1,47.5,2|0,0:0|0:0,0:0:0:0:
136,304,11854,6,0,B|140:264|140:264|112:224|132:176|132:176|80:216,1,190,6|2,0:0|0:0,0:0:0:0:
40,152,12161,1,2,0:0:0:0:
40,152,12223,2,0,L|84:116,1,47.5,8|0,0:0|0:0,0:0:0:0:
184,112,12346,2,0,L|180:64,2,47.5,2|2|8,0:0|0:0|0:0,0:0:0:0:
248,196,12591,6,0,B|248:212|260:236|260:236|292:196|260:136|260:136|256:64,2,190,2|2|2,0:0|0:0|0:0,0:0:0:0:
417,254,13206,2,0,L|372:268,1,47.5,2|2,0:0|0:0,0:0:0:0:
403,174,13329,2,0,L|448:160,1,47.5,2|2,0:0|0:0,0:0:0:0:
408,80,13452,6,0,B|368:92|368:92|348:80|348:80|320:104|284:104|284:104|252:32|160:20|120:140|252:176|232:84,1,356.25001358986,8|2,0:0|2:0,0:0:0:0:
231,113,13821,6,0,B|216:176|216:176|228:224|216:272,1,142.500005435944,4|0,0:0|0:0,0:0:0:0:
152,344,14190,2,0,L|60:360,1,71.2500027179719
132,224,14436,1,8,0:0:0:0:
296,180,14559,2,0,L|388:196,1,71.2500027179719
412,340,14805,2,0,L|273:315,1,106.875004076958
240,280,15050,2,0,P|224:240|236:192,1,71.2500027179719,0|0,0:0|0:0,0:0:0:0:
336,92,15296,2,0,P|368:92|416:132,1,71.2500027179719,0|8,0:0|0:0,0:0:0:0:
461,293,15542,2,0,P|443:323|412:340,1,71.2500027179719
220,308,15788,6,0,P|200:244|216:160,1,142.500005435944,0|0,0:0|0:0,0:0:0:0:
336,92,16157,1,0,0:0:0:0:
392,240,16280,2,0,L|304:232,1,71.2500027179719,0|8,0:0|0:0,0:0:0:0:
140,183,16526,2,0,L|210:170,1,71.2500027179719,0|8,0:0|0:0,0:0:0:0:
236,40,16772,2,0,L|104:60,1,106.875004076958,8|0,0:0|0:0,0:0:0:0:
80,48,17018,2,0,L|72:136,1,71.2500027179719
336,92,17264,2,0,L|328:180,1,71.2500027179719,0|0,0:0|0:0,0:0:0:0:
140,184,17509,2,0,L|132:272,1,71.2500027179719
216,348,17755,6,0,B|304:340|304:340|376:356,1,142.500005435944,4|0,0:0|0:0,0:0:0:0:
460,300,18124,2,0,L|456:196,1,71.2500027179719
330,163,18370,1,8,0:0:0:0:
222,277,18493,2,0,L|216:348,1,71.2500027179719
140,184,18739,2,0,L|150:77,1,106.875004076958
168,44,18985,2,0,P|204:24|244:32,1,71.2500027179719
408,144,19231,2,0,P|408:188|380:228,1,71.2500027179719,0|8,0:0|0:0,0:0:0:0:
222,277,19477,2,0,P|182:257|166:213,1,71.2500027179719
156,64,19723,6,0,B|180:64|200:56|200:56|232:80|276:72,1,95,8|2,0:0|0:0,0:0:0:0:
276,76,19907,1,2,0:0:0:0:
316,72,19969,2,0,L|372:60,2,47.5,8|2|8,0:0|0:0|0:0,0:0:0:0:
284,176,20214,2,0,L|332:164,1,47.5,2|2,0:0|0:0,0:0:0:0:
202,164,20337,2,0,B|142:148|102:172|102:172|140:184,1,142.5,4|0,0:2|2:0,0:0:0:0:
228,288,20583,1,8,0:0:0:0:
284,176,20706,6,0,L|280:56,1,106.875004076958,2|0,0:0|0:0,0:0:0:0:
288,44,20952,2,0,L|384:32,1,71.2500027179719
456,152,21198,1,0,0:0:0:0:
272,200,21321,6,0,B|192:240|144:152|240:112|256:176,1,178.12500679493,0|0,0:0|2:0,0:0:0:0:
288,212,21690,6,0,B|304:256|292:284|292:284|304:324|296:368,1,142.500005435944,4|0,0:0|0:0,0:0:0:0:
148,344,22059,2,0,L|232:336,1,71.2500027179719,8|0,0:0|0:0,0:0:0:0:
372,284,22305,1,2,0:0:0:0:
208,244,22428,1,2,0:0:0:0:
328,128,22550,1,8,0:0:0:0:
388,300,22673,2,0,L|256:296,1,106.875004076958
248,312,22919,2,0,L|232:216,1,71.2500027179719,0|8,0:0|0:0,0:0:0:0:
424,204,23165,2,0,L|408:108,1,71.2500027179719,0|0,0:0|0:0,0:0:0:0:
152,184,23411,2,0,L|136:88,1,71.2500027179719,0|8,0:0|0:0,0:0:0:0:
44,204,23657,6,0,L|64:356,1,142.500005435944,4|0,0:0|0:0,0:0:0:0:
248,312,24026,2,0,L|168:304,1,71.2500027179719,8|0,0:0|0:0,0:0:0:0:
292,240,24272,1,2,0:0:0:0:
393,371,24395,2,0,L|388:300,1,71.2500027179719,2|8,0:0|0:0,0:0:0:0:
281,133,24641,2,0,L|292:240,1,106.875004076958
248,312,24887,2,0,L|244:376,2,47.5,2|2|8,0:0|0:0|0:0,0:0:0:0:
180,232,25132,1,2,0:0:0:0:
180,232,25194,1,2,0:0:0:0:
180,232,25255,2,0,L|76:240,1,95,8|2,0:0|0:0,0:0:0:0:
24,296,25440,2,0,L|16:360,1,47.5,2|8,0:0|0:0,0:0:0:0:
104,160,25624,6,0,L|124:8,1,142.500005435944,4|0,0:0|0:0,0:0:0:0:
200,108,25993,2,0,P|228:120|288:92,1,71.2500027179719,8|0,0:0|0:0,0:0:0:0:
340,24,26239,1,2,0:0:0:0:
188,100,26362,2,0,P|176:144|196:196,1,71.2500027179719,2|8,0:0|0:0,0:0:0:0:
248,260,26608,2,0,P|256:312|208:376,1,106.875004076958
156,360,26854,2,0,L|80:352,1,71.2500027179719,0|8,0:0|0:0,0:0:0:0:
324,232,27100,2,0,L|394:224,1,71.2500027179719
175,168,27346,2,0,L|104:160,1,71.2500027179719,0|8,0:0|0:0,0:0:0:0:
32,256,27591,6,0,L|184:276,1,142.500005435944,4|0,0:0|0:0,0:0:0:0:
292,368,27960,2,0,L|284:292,1,71.2500027179719,8|0,0:0|0:0,0:0:0:0:
348,124,28206,1,0,0:0:0:0:
400,192,28329,2,0,L|472:196,1,71.2500027179719,0|8,0:0|0:0,0:0:0:0:
270,151,28575,6,0,L|128:144,1,142.500005435944,0|0,0:0|0:0,0:0:0:0:
76,208,28944,1,8,0:0:0:0:
164,232,29067,1,0,0:0:0:0:
140,152,29190,5,0,0:0:0:0:
288,80,29313,1,0,0:0:0:0:
120,60,29436,1,0,0:0:0:0:
216,120,29559,6,0,B|232:156|212:196|212:196|228:228|228:228|240:176,1,142.500005435944,4|0,0:0|0:0,0:0:0:0:
140,152,29928,2,0,B|88:144|52:168|52:168|52:136|88:116,2,142.500005435944,0|8|0,0:0|0:0|0:0,0:0:0:0:
312,184,30542,2,0,B|304:240|304:240|324:296|312:336,2,142.500005435944,0|0|0,0:0|0:0|0:0,0:0:0:0:
232,292,31157,1,8,0:0:0:0:
392,236,31280,1,0,0:0:0:0:
252,108,31403,1,0,0:0:0:0:
132,192,31526,6,0,B|98:178|98:178|134:182|162:170|162:170|203:176,1,142.500005435944
408,128,31895,2,0,B|332:146|332:146|320:174|284:186,2,142.500005435944,0|8|0,0:0|0:0|0:0,0:0:0:0:
252,108,32509,2,0,L|248:256|248:256,2,142.500005435944,0|0|0,0:0|0:0|0:0,0:0:0:0:
132,192,33124,1,8,0:0:0:0:
16,104,33247,1,0,0:0:0:0:
32,312,33370,1,0,0:0:0:0:
128,112,33493,6,0,B|92:120|92:120|100:88|80:56|80:56|88:4,1,142.500005435944,4|0,0:0|0:0,0:0:0:0:
208,104,33862,2,0,B|208:144|192:168|192:168|204:212|204:212|224:172,2,142.500005435944,0|8|0,0:0|0:0|0:0,0:0:0:0:
376,68,34477,2,0,B|282:80|282:80|278:56|258:40,1,142.500005435944
356,148,34846,2,0,B|449:135|449:135|453:159|473:175,2,142.500005435944,0|8|0,0:0|0:0|0:0,0:0:0:0:
274,310,35460,6,0,B|268:260|296:204|296:204|272:172|280:128,1,190,4|2,0:0|0:0,0:0:0:0:
279,128,35768,1,2,0:0:0:0:
279,128,35829,1,8,0:0:0:0:
279,128,35891,2,0,L|288:76,1,47.5,2|2,0:0|0:0,0:0:0:0:
156,148,36075,1,8,0:0:0:0:
156,148,36137,2,0,L|164:95,1,47.5,2|2,0:0|0:0,0:0:0:0:
56,100,36321,2,0,L|40:202,1,95,8|2,0:0|0:0,0:0:0:0:
176,288,36567,5,0,0:0:0:0:
16,288,36690,1,0,0:0:0:0:
144,200,36813,1,0,0:0:0:0:
92,344,36936,1,0,0:0:0:0:
48,200,37059,5,8,0:0:0:0:
279,128,37182,1,8,0:0:0:0:
232,356,37305,1,8,0:0:0:0:
56,212,37428,6,0,B|44:168|44:168|60:120|40:64,1,142.500005435944,4|0,0:0|0:0,0:0:0:0:
255,218,37796,2,0,B|248:216|248:216|192:204|159:236|159:236|144:200,2,142.500005435944,0|8|0,0:0|0:0|0:0,0:0:0:0:
305,372,38411,2,0,B|232:356|232:356|240:328|220:292,1,142.500005435944
56,212,38780,2,0,L|88:308,1,71.2500027179719
156,340,39026,1,8,0:0:0:0:
256,220,39149,2,0,L|264:140,1,71.2500027179719
408,276,39395,6,0,B|324:268|324:268|296:304|260:304,1,142.500005435944,4|0,0:0|0:0,0:0:0:0:
188,120,39764,2,0,B|224:120|248:144|248:144|256:220,2,142.500005435944,0|8|0,0:0|0:0|0:0,0:0:0:0:
128,344,40378,2,0,B|147:320|187:320|187:320|180:244,1,142.500005435944
128,180,40747,1,0,0:0:0:0:
136,192,40993,1,8,0:0:0:0:
272,48,41116,1,0,0:0:0:0:
300,252,41239,1,0,0:0:0:0:
396,192,41362,6,0,B|404:152|404:152|428:124|420:84|420:84|460:100,1,142.500005435944,4|0,0:0|0:0,0:0:0:0:
340,104,41731,2,0,B|312:104|288:128|288:128|248:116|196:120,2,142.500005435944,0|8|0,0:0|0:0|0:0,0:0:0:0:
342,325,42346,2,0,L|356:184,1,142.500005435944
264,228,42714,2,0,L|250:369,1,142.500005435944,0|8,0:0|0:0,0:0:0:0:
432,280,43083,2,0,L|440:372,2,71.2500027179719,0|0|4,0:0|0:0|0:0,0:0:0:0:
408,144,43452,6,0,B|424:112|400:72|400:72|360:60|360:8|408:0|420:40,1,190,0|0,0:0|0:0,0:0:0:0:
488,176,43821,1,0,0:0:0:0:
328,120,43944,2,0,B|288:137|248:117|248:117|188:125|216:193|256:164,1,190,8|0,0:0|0:0,0:0:0:0:
216,40,44251,6,0,L|160:48,1,47.5
112,96,44374,5,0,0:0:0:0:
107,142,44436,1,0,0:0:0:0:
135,178,44497,1,0,0:0:0:0:
181,185,44559,1,0,0:0:0:0:
228,176,44620,1,0,0:0:0:0:
256,164,44682,5,0,0:0:0:0:
282,164,44743,1,0,0:0:0:0:
309,173,44805,1,0,0:0:0:0:
336,188,44928,6,0,P|344:232|304:288,1,106.875004076958
312,282,45173,2,0,P|304:328|324:372,1,71.2500027179719
412,280,45419,6,0,B|432:216|412:164|412:164|452:136|448:72,1,190,4|0,0:0|2:0,0:0:0:0:
280,84,45788,2,0,B|236:81|236:81|280:57|280:57|320:53|368:89,1,190,0|0,0:0|2:0,0:0:0:0:
256,164,46157,2,0,B|169:158|169:158|161:214|104:240,1,190,0|0,0:0|2:0,0:0:0:0:
88,340,46526,2,0,L|77:137,1,190,0|2,0:0|0:0,0:0:0:0:
78,150,46833,1,2,0:0:0:0:
78,150,46895,1,8,0:0:0:0:
208,64,47018,1,2,0:0:0:0:
161,175,47141,2,0,L|256:164,1,95,8|0,0:0|0:0,0:0:0:0:
272,244,47387,6,0,B|352:228|352:228|388:280|452:264,1,190,4|0,0:0|2:0,0:0:0:0:
440,47,47755,2,0,B|444:76|444:76|426:106|440:140|440:140|420:187|420:187|405:141,1,190,0|0,0:0|2:0,0:0:0:0:
218,105,48124,2,0,B|208:64|208:64|264:112|264:112|300:96|336:104,1,190,0|0,0:0|2:0,0:0:0:0:
392,272,48493,1,0,0:0:0:0:
272,244,48616,2,0,L|168:240,1,95,0|2,0:0|0:0,0:0:0:0:
177,240,48800,1,2,0:0:0:0:
177,240,48862,1,8,0:0:0:0:
112,160,48985,1,0,0:0:0:0:
40,276,49108,2,0,L|44:376,1,95
272,244,49354,6,0,B|300:196|276:152|276:152|288:88|288:88|256:124,1,190,4|0,0:0|2:0,0:0:0:0:
107,245,49723,2,0,B|80:228|80:228|123:205|175:240|175:240|208:196,1,190,0|0,0:0|2:0,0:0:0:0:
364,152,50091,2,0,B|372:196|364:232|364:232|380:352,1,190,0|0,0:0|2:0,0:0:0:0:
280,280,50460,2,0,L|264:168,1,95,0|0,0:0|0:0,0:0:0:0:
280,64,50706,1,0,0:0:0:0:
136,40,50829,2,0,L|80:36,1,47.5,8|0,0:0|0:0,0:0:0:0:
152,120,50952,2,0,L|96:116,1,47.5,8|0,0:0|0:0,0:0:0:0:
172,200,51075,1,2,0:0:0:0:
137,197,51137,1,2,0:0:0:0:
102,194,51198,1,2,0:0:0:0:
67,191,51259,1,2,0:0:0:0:
36,188,51321,6,0,B|52:244|52:244|32:296|52:340|52:340|72:296,1,190,4|0,0:0|2:0,0:0:0:0:
332,272,51690,2,0,B|296:272|266:293|266:293|190:265|148:280,1,190,0|2,0:0|0:0,0:0:0:0:
149,279,51997,1,2,0:0:0:0:
149,279,52059,2,0,L|91:295,2,47.5,8|0|2,0:0|2:0|0:0,0:0:0:0:
36,188,52305,2,0,L|45:73,1,95
198,151,52550,2,0,B|192:196|155:224|155:224|150:280,1,142.5
188,352,52796,1,0,0:0:0:0:
316,264,52919,1,0,0:0:0:0:
428,276,53042,2,0,L|421:346,1,71.2500027179719
424,136,53288,6,0,B|416:172|434:204|434:204|428:277,1,142.500005435944,4|0,0:0|0:0,0:0:0:0:
508,152,53657,1,0,0:0:0:0:
340,112,53780,2,0,L|248:120,1,71.2500027179719,8|0,0:0|0:0,0:0:0:0:
72,60,54026,2,0,L|142:66,1,71.2500027179719
269,118,54272,2,0,P|288:176|232:244,1,142.500005435944,0|2,0:0|0:0,0:0:0:0:
172,248,54579,1,2,0:0:0:0:
172,248,54641,2,0,L|112:240,2,35.625001358986,2|2|8,0:0|0:0|0:0,0:0:0:0:
332,272,54887,1,0,0:0:0:0:
212,168,55009,2,0,L|112:156,1,71.2500027179719
269,118,55255,6,0,B|340:112|340:112|384:128|432:104,1,142.500005435944,4|2,0:0|0:0,0:0:0:0:
409,112,55563,1,2,0:0:0:0:
409,112,55624,2,0,L|420:56,2,35.625001358986,2|2|8,0:0|0:0|0:0,0:0:0:0:
448,232,55870,2,0,L|431:326,1,71.2500027179719
332,272,56116,1,0,0:0:0:0:
148,304,56239,2,0,B|203:315|251:287|251:287|255:303|267:319,1,142.500005435944
348,192,56608,1,2,0:0:0:0:
348,192,56669,1,2,0:0:0:0:
348,192,56731,2,0,L|256:204,1,71.2500027179719,8|0,0:0|0:0,0:0:0:0:
188,220,56977,1,0,0:0:0:0:
100,236,57100,1,0,0:0:0:0:
276,200,57223,5,4,0:0:0:0:
16,164,57346,1,0,0:0:0:0:
248,288,57960,5,4,0:0:0:0:
156,96,58083,1,0,0:0:0:0:
156,96,58698,5,4,0:0:0:0:
16,164,58944,1,4,0:0:0:0:
232,136,59190,2,0,B|280:136|300:104|300:104|344:116|344:116|384:84|420:88,1,190,4|0,0:0|0:0,0:0:0:0:
402,88,60419,5,0,0:0:0:0:
364,264,60665,1,2,0:0:0:0:
384,176,60911,1,0,0:0:0:0:
336,352,61157,6,0,B|272:344|272:344|216:316|216:316|144:308,1,190,6|8,0:0|0:0,0:0:0:0:
32,320,61526,2,0,B|28:276|56:228|56:228|64:116,1,190,0|2,0:0|0:0,0:0:0:0:
62,134,61833,1,2,0:0:0:0:
62,134,61895,1,8,0:0:0:0:
180,40,62018,2,0,L|172:248,1,190,0|2,0:0|0:0,0:0:0:0:
172,229,62325,1,2,0:0:0:0:
172,229,62387,1,8,0:0:0:0:
272,296,62509,1,0,0:0:0:0:
444,188,62632,2,0,L|332:192,1,95,2|2,0:0|0:0,0:0:0:0:
180,40,62878,2,0,L|292:44,1,95,8|0,0:0|0:0,0:0:0:0:
444,188,63124,6,0,B|432:224|432:224|408:184|408:184|424:148|408:120|408:120|414:81,1,190,6|8,0:0|0:0,0:0:0:0:
512,124,63493,1,2,0:0:0:0:
336,152,63616,1,0,0:0:0:0:
400,296,63739,1,0,0:0:0:0:
256,180,63862,2,0,B|200:164|152:184|152:184|36:152,1,190,8|2,0:0|0:0,0:0:0:0:
20,108,64169,1,2,0:0:0:0:
20,108,64231,2,0,L|16:52,2,47.5,0|0|8,0:0|0:0|0:0,0:0:0:0:
208,272,64477,1,0,0:0:0:0:
336,152,64600,1,2,0:0:0:0:
336,152,64661,1,2,0:0:0:0:
336,152,64723,2,0,L|328:48,1,95,0|8,0:0|0:0,0:0:0:0:
168,72,64969,1,2,0:0:0:0:
72,224,65091,6,0,B|140:236|140:236|160:200|212:196|212:196|164:168,1,190,6|8,0:0|0:0,0:0:0:0:
338,327,65460,2,0,B|248:352|248:352|200:324|208:272,1,190,2|2,0:0|0:0,0:0:0:0:
208,272,65768,1,2,0:0:0:0:
208,272,65829,2,0,L|216:188,1,47.5,8|0,0:0|2:0,0:0:0:0:
148,112,65952,2,0,B|188:96|228:120|228:120|348:104,1,190,0|2,0:0|0:0,0:0:0:0:
333,105,66259,1,2,0:0:0:0:
333,105,66321,1,8,0:0:0:0:
180,188,66444,1,0,0:0:0:0:
272,16,66567,2,0,L|392:20,1,95,2|2,0:0|0:0,0:0:0:0:
472,128,66813,1,8,0:0:0:0:
356,272,66936,6,0,B|338:258|338:258|340:284|340:284|316:260|278:258|252:280|252:280|208:272|208:272,1,190,6|2,0:0|0:0,0:0:0:0:
128,300,67243,2,0,L|119:253,1,47.5,2|8,0:0|0:0,0:0:0:0:
216,64,67428,2,0,L|224:110,1,47.5,2|2,0:0|0:0,0:0:0:0:
280,164,67550,2,0,P|328:184|400:152,1,95,8|2,0:0|0:0,0:0:0:0:
436,68,67796,1,8,0:0:0:0:
428,100,67857,1,0,0:0:0:0:
435,132,67918,1,0,0:0:0:0:
445,164,67980,1,0,0:0:0:0:
443,197,68042,2,0,P|440:240|412:268,1,63.3333333333333,2|2,0:0|0:0,0:0:0:0:
280,164,68206,2,0,P|312:144|364:156,1,63.3333333333333,2|2,0:0|0:0,0:0:0:0:
390,321,68370,2,0,P|366:301|355:271,1,63.3333333333333,2|2,0:0|0:0,0:0:0:0:
336,144,68534,2,0,B|344:49|344:49|244:69,1,190,2|8,0:0|0:0,0:0:0:0:
168,88,68903,1,8,0:0:0:0:
80,52,69026,6,0,B|60:92|80:136|80:136|64:256,1,190,6|8,0:0|0:0,0:0:0:0:
104,360,69395,1,2,0:0:0:0:
236,276,69518,2,0,L|356:268,1,95,2|0,0:0|0:0,0:0:0:0:
360,284,69887,2,0,B|328:184|328:184|348:96,1,190,8|2,0:0|0:0,0:0:0:0:
346,101,70194,1,2,0:0:0:0:
346,101,70255,1,8,0:0:0:0:
192,56,70378,1,2,0:0:0:0:
192,56,70440,1,2,0:0:0:0:
192,56,70501,2,0,L|200:160,1,95,8|0,0:0|0:0,0:0:0:0:
236,276,70747,1,2,0:0:0:0:
120,212,70870,1,2,0:0:0:0:
346,101,70993,6,0,B|383:116|415:95|415:95|479:127|479:127|415:135,1,190,6|8,0:0|0:0,0:0:0:0:
264,148,71362,1,0,0:0:0:0:
376,28,71485,1,2,0:0:0:0:
368,184,71608,2,0,B|364:244|364:244|388:320|388:320|380:376,2,190,2|8|2,0:0|0:0|0:0,0:0:0:0:
268,64,72223,2,0,L|216:48,2,47.5,8|0|0,0:0|0:0|0:0,0:0:0:0:
176,144,72469,2,0,P|168:184|184:224,1,63.3333333333333,2|2,0:0|0:0,0:0:0:0:
228,316,72632,2,0,P|256:312|292:268,1,63.3333333333333,2|2,0:0|0:0,0:0:0:0:
313,178,72796,2,0,P|282:171|251:180,1,63.3333333333333,2|2,0:0|0:0,0:0:0:0:
100,228,72960,6,0,B|84:176|96:132|96:132|80:28,1,190,6|8,0:0|0:0,0:0:0:0:
276,188,73329,2,0,L|181:177,1,95,2|2,0:0|0:0,0:0:0:0:
39,293,73575,2,0,L|228:316,1,190,2|8,0:0|0:0,0:0:0:0:
304,300,73882,1,2,0:0:0:0:
304,300,73944,2,0,L|320:244,2,47.5,2|0|2,0:0|0:0|0:0,0:0:0:0:
182,178,74190,2,0,L|178:46,1,95,8|0,0:0|0:0,0:0:0:0:
336,32,74436,2,0,P|368:32|408:56,1,63.3333333333333,2|2,0:0|0:0,0:0:0:0:
276,188,74600,2,0,P|262:159|260:128,1,63.3333333333333,2|2,0:0|0:0,0:0:0:0:
444,155,74764,2,0,P|433:185|409:205,1,63.3333333333333,2|2,0:0|0:0,0:0:0:0:
216,260,74928,6,0,B|160:276|112:232|112:232|0:240,1,190,6|8,0:0|0:0,0:0:0:0:
182,178,75296,2,0,L|189:105,2,47.5,2|2|8,0:0|0:0|0:0,0:0:0:0:
96,324,75542,1,2,0:0:0:0:
96,324,75604,1,2,0:0:0:0:
96,324,75665,2,0,P|148:352|212:336,1,95,8|2,0:0|0:0,0:0:0:0:
292,256,75911,2,0,P|280:216|236:188,1,63.3333333333333,2|2,0:0|0:0,0:0:0:0:
404,128,76075,2,0,P|392:157|397:187,1,63.3333333333333,2|2,0:0|0:0,0:0:0:0:
440,332,76239,2,0,P|408:332|380:319,1,63.3333333333333,2|2,0:0|0:0,0:0:0:0:
308,268,76403,2,0,L|300:204,1,47.5,2|2,0:0|0:0,0:0:0:0:
232,312,76526,2,0,L|224:248,1,47.5,2|2,0:0|0:0,0:0:0:0:
152,312,76649,1,2,0:0:0:0:
121,324,76710,1,2,0:0:0:0:
88,321,76771,1,2,0:0:0:0:
61,303,76833,1,2,0:0:0:0:
45,275,76895,6,0,B|32:224|56:184|56:184|40:128|64:84,2,190,6|8|2,0:0|0:0|0:0,0:0:0:0:
248,128,77509,2,0,L|153:134,1,95,2|8,0:0|0:0,0:0:0:0:
129,239,77755,2,0,B|188:236|188:236|236:288|307:269,1,190,6|0,0:0|0:0,0:0:0:0:
404,128,78124,2,0,L|396:348,1,190,8|2,0:0|0:0,0:0:0:0:
500,220,78493,1,2,0:0:0:0:
308,270,78616,2,0,P|261:264|217:281,1,95,8|0,0:0|0:0,0:0:0:0:
219,153,78862,6,0,B|308:140|308:140|368:156|404:128,1,190,6|8,0:0|0:0,0:0:0:0:
444,32,79231,1,2,0:0:0:0:
229,59,79354,2,0,L|220:154,1,95
48,256,79600,2,0,L|60:168,1,47.5,8|2,0:0|0:0,0:0:0:0:
130,240,79723,2,0,B|122:300|122:300|162:368|246:332,1,190,2|2,0:0|0:0,0:0:0:0:
308,272,80091,2,0,L|296:216,2,47.5,8|2|2,0:0|0:0|0:0,0:0:0:0:
428,320,80337,2,0,P|444:268|432:224,1,63.3333333333333,2|2,0:0|0:0,0:0:0:0:
336,144,80501,2,0,P|292:132|228:148,1,63.3333333333333,2|2,0:0|0:0,0:0:0:0:
212,279,80665,2,0,P|216:310|234:336,1,63.3333333333333,2|2,0:0|0:0,0:0:0:0:
444,328,80829,6,0,B|476:272|456:216|456:216|464:96,1,190,6|2,0:0|0:0,0:0:0:0:
392,72,81157,2,0,P|352:56|296:80,1,63.3333333333333,2|2,0:0|0:0,0:0:0:0:
202,162,81321,2,0,B|280:129|280:129|312:149|336:144,1,142.5,8|0,0:0|2:0,0:0:0:0:
228,64,81567,2,0,B|150:97|150:97|118:77|94:82,1,142.5,2|0,0:0|2:0,0:0:0:0:
0,140,81813,1,4,0:2:0:0:
16,124,82305,2,0,L|24:288,1,142.5,0|0,0:0|2:0,0:0:0:0:
144,316,82673,6,0,B|176:296|208:304|208:304|240:280|288:288,1,142.500005435944,6|0,0:0|0:0,0:0:0:0:
392,324,83042,2,0,L|392:360,2,35.625001358986,8|2|2,0:0|0:0|0:0,0:0:0:0:
432,208,83288,1,8,0:0:0:0:
344,90,83411,2,0,B|360:152|360:152|340:188|348:228,2,142.500005435944,2|2|2,0:0|0:0|0:0,0:0:0:0:
216,56,84026,2,0,L|172:60,1,35.625001358986,2|0,0:0|0:0,0:0:0:0:
112,108,84149,1,0,0:0:0:0:
99,151,84210,1,0,0:0:0:0:
116,192,84272,2,0,B|175:183|219:223|219:223|272:212|264:144|172:164,1,213.750008153916,4|0,2:0|2:0,0:0:0:0:
228,156,100009,21,0,0:0:0:0:
120,224,100132,1,0,0:0:0:0:
72,152,100255,1,0,0:0:0:0:
220,76,100378,6,0,B|260:76|288:104|288:104|368:92,1,142.500005435944
472,188,100747,2,8,B|392:164|392:164|324:176,2,142.500005435944,0|8|0,0:0|0:0|0:0,0:0:0:0:
276,244,101362,2,0,L|284:80,2,142.500005435944,0|0|0,0:0|0:0|0:0,0:0:0:0:
220,328,101977,1,8,0:0:0:0:
352,272,102100,2,0,L|440:264,1,71.2500027179719
196,212,102346,6,0,L|48:220,1,142.500005435944,4|0,0:0|0:0,0:0:0:0:
124,116,102714,2,0,L|128:24,1,71.2500027179719
284,32,102960,1,8,0:0:0:0:
348,200,103083,2,0,L|352:272,1,71.2500027179719
220,328,103329,2,0,B|216:288|192:260|192:260|200:176,2,142.500005435944,0|0|0,0:0|0:0|0:0,0:0:0:0:
49,320,103944,2,0,L|120:328,2,71.2500027179719,8|0|0,0:0|0:0|0:0,0:0:0:0:
284,236,104313,6,0,P|344:232|412:284,1,142.500005435944
220,328,104682,2,0,B|228:292|228:292|200:256|208:216|208:216|172:256,2,142.500005435944,0|8|0,0:0|0:0|0:0,0:0:0:0:
426,242,105296,2,0,L|284:236,1,142.500005435944,0|0,0:0|2:0,0:0:0:0:
120,220,105665,2,0,L|140:132,1,71.2500027179719,0|0,0:0|0:0,0:0:0:0:
116,48,105911,1,8,0:0:0:0:
268,36,106034,2,0,L|344:32,1,71.2500027179719
428,160,106280,6,0,B|376:164|376:164|304:216|304:216|240:224,1,190,6|2,0:0|0:0,0:0:0:0:
236,224,106587,1,2,0:0:0:0:
220,224,106649,2,0,L|168:228,2,47.5,8|2|2,0:0|0:0|0:0,0:0:0:0:
256,112,106895,2,0,L|204:116,2,47.5,8|2|2,0:0|0:0|0:0,0:0:0:0:
224,304,107141,2,0,L|120:312,1,95,8|2,0:0|0:0,0:0:0:0:
24,196,107387,1,2,0:0:0:0:
44,360,107509,1,0,0:0:0:0:
120,220,107632,1,0,0:0:0:0:
60,76,107755,1,0,0:0:0:0:
60,76,107878,2,0,B|108:80|148:60|148:60|208:96|272:68,1,190,8|0,0:0|0:0,0:0:0:0:
332,204,108247,6,0,B|324:128|324:128|344:88|336:48,1,142.500005435944,4|0,0:0|0:0,0:0:0:0:
248,204,108616,2,0,L|260:304,1,71.2500027179719,0|0,0:0|0:0,0:0:0:0:
344,328,108862,1,8,0:0:0:0:
416,188,108985,1,0,0:0:0:0:
292,132,109108,1,0,0:0:0:0:
424,288,109231,2,0,L|494:296,1,71.2500027179719
272,368,109477,1,0,0:0:0:0:
248,204,109600,2,0,L|256:112,1,71.2500027179719
352,248,109846,1,8,0:0:0:0:
172,176,109969,1,0,0:0:0:0:
272,368,110091,1,0,0:0:0:0:
100,296,110214,6,0,B|113:231|113:231|89:203|93:159,1,142.500005435944,4|0,0:0|0:0,0:0:0:0:
184,40,110583,2,0,L|288:48,1,71.2500027179719
172,176,110829,1,8,0:0:0:0:
96,68,110952,1,0,0:0:0:0:
248,144,111075,1,0,0:0:0:0:
104,216,111198,1,0,0:0:0:0:
244,296,111321,2,0,L|232:200,1,71.2500027179719
100,296,111567,1,0,0:0:0:0:
224,376,111690,1,0,0:0:0:0:
172,176,111813,1,8,0:0:0:0:
28,292,111936,2,0,L|100:296,1,71.2500027179719
244,296,112182,6,0,L|412:284,1,142.500005435944,4|0,0:0|0:0,0:0:0:0:
460,152,112550,1,0,0:0:0:0:
344,208,112673,1,0,0:0:0:0:
496,312,112796,2,0,L|488:388,1,71.2500027179719,8|0,0:0|0:0,0:0:0:0:
364,132,113042,1,0,0:0:0:0:
472,232,113165,1,0,0:0:0:0:
328,288,113288,1,0,0:0:0:0:
288,148,113411,2,0,L|284:52,1,71.2500027179719
268,228,113657,1,0,0:0:0:0:
420,192,113780,2,0,L|516:204,1,71.2500027179719,8|0,0:0|0:0,0:0:0:0:
396,336,114026,1,0,0:0:0:0:
268,228,114149,5,4,0:0:0:0:
192,312,114272,2,0,B|156:312|120:296|120:296|84:344|8:336,1,190
156,192,114641,1,0,0:0:0:0:
268,228,114764,2,0,B|304:228|340:244|340:244|376:196|452:204,1,190,8|0,0:0|0:0,0:0:0:0:
272,352,115132,6,0,L|260:304,1,47.5
268,228,115255,5,0,0:0:0:0:
302,196,115316,1,0,0:0:0:0:
311,150,115377,1,0,0:0:0:0:
291,108,115439,1,0,0:0:0:0:
264,80,115501,5,0,0:0:0:0:
241,88,115562,1,0,0:0:0:0:
218,87,115623,1,0,0:0:0:0:
196,77,115685,1,0,0:0:0:0:
180,60,115747,6,0,P|140:48|68:88,1,106.875004076958
81,70,115993,2,0,P|48:88|-4:80,1,71.2500027179719
96,220,116239,6,0,B|134:191|138:143|138:143|182:175|238:159,1,190,4|0,0:0|2:0,0:0:0:0:
312,24,116608,2,0,B|308:112|308:112|340:148|340:180|316:228,1,190,0|0,0:0|2:0,0:0:0:0:
232,288,116977,2,0,B|192:268|192:268|228:248|272:264|272:264|304:296|356:276,1,190,0|0,0:0|2:0,0:0:0:0:
436,204,117346,2,0,L|440:96,1,95,10|8,0:0|0:0,0:0:0:0:
496,280,117591,1,0,0:0:0:0:
320,240,117714,2,0,L|320:184,1,47.5,10|0,0:0|0:0,0:0:0:0:
232,288,117837,2,0,L|232:232,1,47.5,10|0,0:0|0:0,0:0:0:0:
160,336,117960,1,10,0:0:0:0:
320,364,118083,1,0,0:0:0:0:
144,208,118206,6,0,B|136:168|136:168|152:132|132:72|132:72|184:124,1,190,4|0,0:0|2:0,0:0:0:0:
349,196,118575,2,0,B|384:188|384:188|348:180|324:144|324:144|280:132|248:148,1,190,0|0,0:0|2:0,0:0:0:0:
404,112,118944,2,0,L|424:328,1,190,0|0,0:0|2:0,0:0:0:0:
320,364,119313,1,8,0:0:0:0:
160,336,119436,2,0,P|104:320|56:344,1,95,2|0,0:0|0:0,0:0:0:0:
288,264,119682,2,0,P|312:240|316:188,1,63.3333333333333,2|2,0:0|0:0,0:0:0:0:
192,140,119846,2,0,P|160:132|112:156,1,63.3333333333333,2|2,0:0|0:0,0:0:0:0:
130,283,120009,2,0,P|137:314|160:336,1,63.3333333333333,2|2,0:0|0:0,0:0:0:0:
304,280,120173,6,0,B|324:228|304:188|304:188|316:64,1,190,4|0,0:0|2:0,0:0:0:0:
104,212,120542,2,0,B|76:228|76:228|120:240|120:240|152:220|188:236|188:236|248:232,1,190,0|0,0:0|2:0,0:0:0:0:
416,352,120911,2,0,B|324:368|324:368|288:340|304:280,1,190,0|0,0:0|2:0,0:0:0:0:
380,40,121280,2,0,L|364:240,1,190
304,280,121587,1,0,0:0:0:0:
304,280,121649,2,0,L|256:296,2,47.5,8|0|0,0:0|0:0|0:0,0:0:0:0:
220,224,121833,1,0,0:0:0:0:
220,224,121895,2,0,L|172:240,3,47.5,8|0|0|0,0:0|0:0|0:0|0:0,0:0:0:0:
124,176,122141,6,0,B|180:156|180:156|192:108|252:100|252:100|184:84,1,190,4|0,0:0|0:0,0:0:0:0:
40,148,122509,2,0,B|28:200|52:236|52:236|32:324|36:372,1,190,0|0,0:0|0:0,0:0:0:0:
36,333,122817,1,0,0:0:0:0:
36,333,122878,1,8,0:0:0:0:
152,272,123001,1,0,0:0:0:0:
232,380,123124,2,0,L|364:368,1,95
233,246,123370,2,0,L|236:152,1,95
340,48,123616,1,0,0:0:0:0:
204,68,123739,1,0,0:0:0:0:
320,132,123862,1,0,0:0:0:0:
264,8,123985,1,0,0:0:0:0:
236,152,124108,6,0,B|189:162|148:140|148:140|64:156,1,142.500005435944,4|0,0:0|0:0,0:0:0:0:
204,68,124477,1,0,0:0:0:0:
72,232,124600,2,0,L|60:328,1,71.2500027179719,8|0,0:0|0:0,0:0:0:0:
259,352,124846,2,0,L|188:352,1,71.2500027179719
24,168,125091,2,0,P|12:124|92:48,1,142.500005435944,0|2,0:0|0:0,0:0:0:0:
84,56,125399,1,2,0:0:0:0:
104,64,125460,2,0,P|128:68|160:60,2,35.625001358986,2|2|8,0:0|0:0|0:0,0:0:0:0:
224,36,125706,2,0,L|220:132,1,71.2500027179719,2|0,0:0|0:0,0:0:0:0:
160,204,125952,1,2,0:0:0:0:
312,136,126075,6,0,B|348:144|380:120|380:120|456:128,1,142.500005435944,4|0,0:0|0:0,0:0:0:0:
324,56,126444,1,2,0:0:0:0:
324,56,126505,1,2,0:0:0:0:
324,56,126567,2,0,L|236:64,1,71.2500027179719,8|0,0:0|0:0,0:0:0:0:
167,136,126813,2,0,P|154:169|160:204,1,71.2500027179719
296,308,127059,1,2,0:0:0:0:
240,180,127182,1,0,0:0:0:0:
80,312,127305,2,0,L|240:300,1,142.500005435944,2|8,0:0|0:0,0:0:0:0:
372,316,127673,1,0,0:0:0:0:
240,180,127796,1,0,0:0:0:0:
328,380,127919,1,0,0:0:0:0:
368,192,128042,6,0,L|516:204,1,142.500005435944,4|8,0:0|0:0,0:0:0:0:
348,112,128411,1,0,0:0:0:0:
324,308,128534,2,0,L|328:380,1,71.2500027179719
240,180,128780,6,0,P|252:128|184:60,1,142.500005435944,4|8,0:0|0:0,0:0:0:0:
184,240,129149,1,0,0:0:0:0:
56,48,129272,2,0,L|152:40,1,71.2500027179719
128,300,129518,1,4,0:0:0:0:
240,180,129764,1,4,0:0:0:0:
184,240,130009,5,2,0:0:0:0:
213,259,130070,1,2,0:0:0:0:
248,264,130131,1,2,0:0:0:0:
281,254,130193,1,2,0:0:0:0:
307,230,130256,5,2,0:0:0:0:
329,217,130317,1,2,0:0:0:0:
353,212,130378,1,2,0:0:0:0:
378,214,130440,1,2,0:0:0:0:
400,224,130501,6,0,P|412:252|408:288,1,47.5000018119813,2|2,0:0|0:0,0:0:0:0:
240,180,130665,2,0,P|260:160|304:144,1,47.5000018119813,2|2,0:0|0:0,0:0:0:0:
288,336,130829,2,0,P|264:344|224:332,1,47.5000018119813,2|2,0:0|0:0,0:0:0:0:
128,300,130993,5,4,0:0:0:0:
240,180,131239,1,0,0:0:0:0:
184,240,131485,1,0,0:0:0:0:
296,116,131731,1,0,0:0:0:0:
128,300,131977,6,0,B|120:240|128:196|128:196|108:144|128:92,1,190,6|8,0:0|0:0,0:0:0:0:
284,36,132346,2,0,B|344:32|368:76|368:76|500:68,1,190,0|2,0:0|0:0,0:0:0:0:
458,70,132653,1,2,0:0:0:0:
458,70,132714,1,8,0:0:0:0:
296,116,132837,2,0,B|200:124|200:124|244:220,1,190,0|2,0:0|0:0,0:0:0:0:
239,209,133145,1,2,0:0:0:0:
239,209,133206,1,8,0:0:0:0:
372,152,133329,1,0,0:0:0:0:
272,312,133452,2,0,L|164:308,1,95,2|2,0:0|0:0,0:0:0:0:
28,152,133698,2,0,L|122:148,1,95,8|2,0:0|0:0,0:0:0:0:
372,152,133944,6,0,B|420:184|420:184|372:192|372:192|328:176|288:200,1,190,6|8,0:0|0:0,0:0:0:0:
235,371,134313,2,0,B|328:360|328:360|360:312|340:268,1,190,2|2,0:0|0:0,0:0:0:0:
340,268,134620,1,2,0:0:0:0:
340,268,134682,1,8,0:0:0:0:
204,164,134805,2,0,L|88:172,1,95,0|2,0:0|0:0,0:0:0:0:
28,152,134989,1,2,0:0:0:0:
28,152,135050,2,0,L|16:104,2,47.5,2|2|8,0:0|0:0|0:0,0:0:0:0:
112,280,135296,1,2,0:0:0:0:
180,88,135419,1,2,0:0:0:0:
203,86,135480,1,2,0:0:0:0:
227,84,135541,1,2,0:0:0:0:
251,83,135603,1,2,0:0:0:0:
276,84,135665,2,0,L|396:96,1,95,8|8,0:0|0:0,0:0:0:0:
340,268,135911,6,0,B|244:252|244:252|200:296|128:288,1,190,6|8,0:0|0:0,0:0:0:0:
160,2,136280,2,0,L|168:192,1,190,0|2,0:0|0:0,0:0:0:0:
168,192,136587,1,2,0:0:0:0:
168,192,136649,1,8,0:0:0:0:
376,140,136772,2,0,B|416:172|416:172|368:168|336:192|336:192|248:180,1,190,2|2,0:0|0:0,0:0:0:0:
282,184,137079,1,2,0:0:0:0:
282,184,137141,2,8,L|288:312,1,95
420,324,137387,1,0,0:0:0:0:
488,196,137509,1,2,0:0:0:0:
512,368,137632,1,8,0:0:0:0:
400,248,137755,6,0,B|356:252|336:292|336:292|196:288,1,190,6|2,0:0|0:0,0:0:0:0:
227,288,138063,1,2,0:0:0:0:
227,288,138124,2,0,L|216:228,2,47.5,8|0|2,0:0|0:0|0:0,0:0:0:0:
136,348,138370,1,8,0:0:0:0:
112,352,138432,1,2,0:0:0:0:
92,344,138493,1,2,0:0:0:0:
20,216,138616,2,0,L|140:208,1,95,2|0,0:0|0:0,0:0:0:0:
240,96,138862,2,0,P|280:108|308:140,1,63.3333333333333,2|2,0:0|0:0,0:0:0:0:
228,288,139026,2,0,P|200:304|144:300,1,63.3333333333333,2|2,0:0|0:0,0:0:0:0:
80,120,139190,2,0,P|76:80|104:24,1,63.3333333333333,2|2,0:0|0:0,0:0:0:0:
252,16,139354,2,0,B|300:8|340:48|340:48|472:28,1,190,0|8,0:0|0:0,0:0:0:0:
512,72,139723,1,8,0:0:0:0:
384,132,139846,6,0,B|340:144|340:144|368:164|368:164|348:208|372:240|372:240|368:296,1,190,4|8,0:0|0:0,0:0:0:0:
444,200,140214,1,0,0:0:0:0:
320,340,140337,2,0,L|216:348,1,95,2|2,0:0|0:0,0:0:0:0:
200,356,140706,2,0,B|208:308|168:268|168:268|180:148,1,190,8|2,0:0|0:0,0:0:0:0:
177,176,141014,1,0,0:0:0:0:
177,176,141075,1,8,0:0:0:0:
240,28,141198,2,0,L|176:36,2,47.5,2|2|8,0:0|0:0|0:0,0:0:0:0:
316,192,141444,1,2,0:0:0:0:
168,156,141567,1,2,0:0:0:0:
344,104,141690,1,2,0:0:0:0:
252,248,141813,6,0,B|288:284|352:268|352:268|408:284|456:276,1,190,4|8,0:0|0:0,0:0:0:0:
472,156,142182,1,0,0:0:0:0:
344,104,142305,2,0,L|249:107,1,95,2|2,0:0|0:0,0:0:0:0:
224,92,142673,2,0,B|320:88|320:88|280:192,1,190,8|2,0:0|0:0,0:0:0:0:
268,212,142981,1,2,0:0:0:0:
252,248,143042,2,0,L|264:380,1,95,10|2,0:0|0:0,0:0:0:0:
428,280,143288,2,0,P|448:260|460:208,1,63.3333333333333,2|2,0:0|0:0,0:0:0:0:
344,104,143452,2,0,P|320:92|256:116,1,63.3333333333333,2|0,0:0|0:0,0:0:0:0:
252,248,143616,2,0,P|276:276|332:284,1,63.3333333333333,2|2,0:0|0:0,0:0:0:0:
368,88,143780,6,0,B|308:60|256:84|256:84|172:72,1,190,4|8,0:0|0:0,0:0:0:0:
72,124,144149,1,0,0:0:0:0:
52,280,144272,1,2,0:0:0:0:
184,156,144395,1,2,0:0:0:0:
168,168,144641,2,0,B|160:228|204:252|204:252|192:308|192:308|176:260,1,190,8|2,0:0|0:0,0:0:0:0:
244,184,144948,2,0,L|308:180,1,47.5,2|8,0:0|0:0,0:0:0:0:
360,280,145132,1,2,0:0:0:0:
360,280,145194,1,0,0:0:0:0:
360,280,145255,2,0,P|356:316|396:372,1,63.3333333333333,2|2,0:0|0:0,0:0:0:0:
492,196,145419,2,0,P|508:164|500:116,1,63.3333333333333,2|2,0:0|0:0,0:0:0:0:
328,112,145583,2,2,P|292:104|232:124,1,63.3333333333333,2|2,0:0|0:0,0:0:0:0:
168,168,145747,6,0,L|176:364,1,190,4|8,0:0|0:0,0:0:0:0:
175,357,146055,1,2,0:0:0:0:
175,357,146116,1,2,0:0:0:0:
252,232,146239,1,0,0:0:0:0:
360,280,146362,1,2,0:0:0:0:
360,280,146423,1,2,0:0:0:0:
360,280,146485,1,8,0:0:0:0:
328,112,146608,1,2,0:0:0:0:
312,100,146669,1,0,0:0:0:0:
288,96,146731,2,0,L|196:104,1,63.3333333333333,2|2,0:0|0:0,0:0:0:0:
60,192,146895,2,0,L|128:212,1,63.3333333333333,2|2,0:0|0:0,0:0:0:0:
267,293,147059,2,0,L|252:232,1,63.3333333333333,2|0,0:0|0:0,0:0:0:0:
244,20,147223,2,0,L|304:12,3,47.5,2|2|2|2,0:0|0:0|0:0|0:0,0:0:0:0:
316,20,147469,1,2,0:0:0:0:
314,48,147530,1,2,0:0:0:0:
312,76,147591,1,2,0:0:0:0:
311,105,147653,1,2,0:0:0:0:
312,132,147714,6,0,B|308:232|308:232|428:212|428:212,2,190,4|8|0,0:0|0:0|0:0,0:0:0:0:
200,48,148329,1,2,0:0:0:0:
232,184,148452,1,8,0:0:0:0:
56,232,148575,2,0,B|148:215|148:215|168:260|224:271,1,190,2|0,0:0|0:0,0:0:0:0:
344,208,148944,2,0,L|348:96,1,95,8|0,0:0|0:0,0:0:0:0:
480,52,149190,1,2,0:0:0:0:
428,180,149313,1,2,0:0:0:0:
264,152,149436,2,0,L|156:160,1,95,8|0,0:0|0:0,0:0:0:0:
56,232,149682,6,0,B|28:268|28:268|72:264|108:280|108:280|184:272,1,190,0|8,0:0|0:0,0:0:0:0:
344,208,150050,1,0,0:0:0:0:
224,344,150173,1,0,0:0:0:0:
264,152,150296,1,0,0:0:0:0:
424,264,150419,1,8,0:0:0:0:
424,264,150481,1,0,0:0:0:0:
424,264,150542,2,0,B|444:216|424:172|424:172|456:104|412:44,1,190
276,32,150911,2,0,L|208:40,2,47.5,8|0|0,0:0|0:0|0:0,0:0:0:0:
354,103,151157,2,0,P|350:134|332:160,1,63.3333333333333,2|2,0:0|0:0,0:0:0:0:
232,276,151321,2,0,P|200:256|180:204,1,63.3333333333333,2|2,0:0|0:0,0:0:0:0:
124,124,151485,2,0,P|160:108|204:124,1,63.3333333333333,2|2,0:0|0:0,0:0:0:0:
332,160,151649,6,0,B|316:216|360:260|360:260|348:356,1,190,4|0,0:0|0:0,0:0:0:0:
232,276,151977,2,0,P|192:272|144:304,1,63.3333333333333,2|2,0:0|0:0,0:0:0:0:
184,168,152141,2,0,B|172:92|172:92|208:52|204:-4,1,142.5,8|0,0:0|2:0,0:0:0:0:
96,144,152387,2,0,B|108:220|108:220|72:260|92:324,1,142.5,2|0,0:0|2:0,0:0:0:0:
136,384,152632,1,4,2:0:0:0:
152,376,153124,2,0,L|340:368,1,142.5
416,344,153493,6,0,B|412:308|380:276|380:276|412:200|384:136,1,213.750008153916,4|8,0:0|0:0,0:0:0:0:
300,80,153985,1,0,0:0:0:0:
232,248,154108,1,8,0:0:0:0:
128,184,154231,2,0,P|76:172|72:76,2,142.500005435944,2|2|2,0:0|0:0|0:0,0:0:0:0:
264,132,154846,1,2,0:0:0:0:
284,127,154907,1,2,0:0:0:0:
306,127,154968,1,2,0:0:0:0:
328,136,155030,1,2,0:0:0:0:
344,148,155091,2,0,B|320:200|364:256|364:256|372:320|288:328|292:256|328:240,1,249.375009512902,8|0,0:0|0:0,0:0:0:0:
256,192,155583,12,4,162469,0:0:0:0:
104,288,163452,6,0,L|88:92,1,190,6|2,0:0|0:0,0:0:0:0:
156,32,163780,2,0,P|192:24|256:56,1,63.3333333333333,2|2,0:0|0:0,0:0:0:0:
408,76,163944,2,0,B|293:87|293:87|269:115|224:116,1,190,8|2,0:0|0:0,0:0:0:0:
124,152,164272,2,0,P|84:144|56:104,1,63.3333333333333,2|2,0:0|0:0,0:0:0:0:
226,115,164436,2,0,L|220:336,1,190,2|2,0:0|0:0,0:0:0:0:
292,364,164764,2,0,P|336:364|368:324,1,63.3333333333333
420,216,164928,2,0,L|428:136,2,63.3333333333333,10|2|2,0:0|0:0|0:0,0:0:0:0:
292,268,165173,2,0,L|284:196,2,63.3333333333333,10|2|2,0:0|0:0|0:0,0:0:0:0:
404,200,165419,6,0,B|416:72|416:72|340:116,1,190,6|2,0:0|0:0,0:0:0:0:
284,204,165747,2,0,P|254:193|223:198,1,63.3333333333333,2|2,0:0|0:0,0:0:0:0:
127,309,165911,2,0,P|213:286|223:198,1,190,8|2,0:0|0:0,0:0:0:0:
168,120,166239,2,0,P|156:84|184:24,1,63.3333333333333,2|2,0:0|0:0,0:0:0:0:
264,16,166403,2,0,B|312:36|352:24|352:24|408:40|408:40|356:56,1,190,2|2,0:0|0:0,0:0:0:0:
232,112,166731,2,0,L|169:119,1,63.3333333333333,2|2,0:0|0:0,0:0:0:0:
85,264,166895,2,0,P|101:291|128:308,1,63.3333333333333,8|0,0:0|0:0,0:0:0:0:
281,265,167059,2,0,P|288:235|284:204,1,63.3333333333333,2|8,0:0|0:0,0:0:0:0:
168,120,167223,2,0,P|136:108|88:124,1,63.3333333333333,2|2,0:0|0:0,0:0:0:0:
85,265,167387,6,0,B|125:281|171:253|171:253|282:266,1,190,6|0,0:0|0:0,0:0:0:0:
344,320,167714,1,2,0:0:0:0:
424,296,167796,1,2,0:0:0:0:
440,212,167878,2,0,B|448:144|448:144|428:108|432:56|432:56|396:96,1,190,10|0,0:0|0:0,0:0:0:0:
328,152,168206,2,0,P|288:168|240:144,1,63.3333333333333,2|2,0:0|0:0,0:0:0:0:
192,104,168370,2,0,B|164:56|184:8|184:8|76:20,1,190,2|2,0:0|0:0,0:0:0:0:
40,96,168698,1,2,0:0:0:0:
88,176,168780,1,2,0:0:0:0:
84,264,168862,2,0,L|12:272,2,63.3333333333333,10|2|2,0:0|0:0|0:0,0:0:0:0:
200,348,169108,2,0,L|128:336,2,63.3333333333333,10|2|2,0:0|0:0|0:0,0:0:0:0:
288,304,169354,6,0,B|352:280|416:300|416:300|392:260|396:216,1,190,6|2,0:0|0:0,0:0:0:0:
384,164,169682,1,2,0:0:0:0:
408,80,169764,1,2,0:0:0:0:
476,24,169846,2,0,L|284:32,1,190,8|0,0:0|0:0,0:0:0:0:
192,64,170173,2,0,P|164:92|156:136,1,63.3333333333333,2|2,0:0|0:0,0:0:0:0:
160,208,170337,2,0,B|184:248|172:296|172:296|276:272,1,190,2|2,0:0|0:0,0:0:0:0:
376,252,170665,2,0,P|424:256|456:292,1,63.3333333333333,2|2,0:0|0:0,0:0:0:0:
296,200,170829,2,0,P|272:168|280:104,1,63.3333333333333,10|2,0:0|0:0,0:0:0:0:
408,80,170993,2,0,P|452:76|492:108,1,63.3333333333333,2|10,0:0|0:0,0:0:0:0:
376,252,171157,2,0,P|360:288|316:312,1,63.3333333333333,2|2,0:0|0:0,0:0:0:0:
212,348,171321,6,0,B|164:348|128:300|128:300|8:288,1,190,6|10,0:0|0:0,0:0:0:0:
208,255,171649,2,0,P|228:230|236:200,1,63.3333333333333,2|2,0:0|0:0,0:0:0:0:
228,10,171813,2,0,L|235:200,1,190,2|10,0:0|0:0,0:0:0:0:
328,320,172141,2,0,P|364:336|420:320,1,63.3333333333333,2|2,0:0|0:0,0:0:0:0:
468,260,172305,2,0,B|468:204|428:172|428:172|444:120|428:60,1,190
380,16,172632,1,0,0:0:0:0:
300,24,172714,1,0,0:0:0:0:
256,112,172796,2,0,L|264:192,2,63.3333333333333,2|2|2,0:0|0:0|0:0,0:0:0:0:
176,172,173042,2,0,L|168:252,2,63.3333333333333,2|2|2,0:0|0:0|0:0,0:0:0:0:
129,317,173288,6,0,B|177:333|225:309|225:309|316:316,1,190,0|2,0:0|0:0,0:0:0:0:
400,256,173616,2,0,P|420:224|412:176,1,63.3333333333333,2|2,0:0|0:0,0:0:0:0:
305,126,173780,2,0,L|316:316,1,190,2|2,0:0|0:0,0:0:0:0:
224,368,174108,2,0,P|188:352|160:304,1,63.3333333333333,2|2,0:0|0:0,0:0:0:0:
120,212,174272,2,0,B|140:160|140:160|116:116|132:60|132:60|96:100,1,190,2|10,0:0|0:0,0:0:0:0:
216,100,174600,1,2,0:0:0:0:
256,112,174682,1,2,0:0:0:0:
308,96,174764,2,0,L|336:24|336:24,2,63.3333333333333,0|0|0,0:0|0:0|0:0,0:0:0:0:
296,184,175009,2,0,P|316:224|368:244,1,63.3333333333333,8|2,0:0|0:0,0:0:0:0:
460,284,175173,2,0,P|492:252|496:208,1,63.3333333333333,2|8,0:0|0:0,0:0:0:0:
460,104,175337,6,0,P|424:80|376:84,1,63.3333333333333,2|2,0:0|0:0,0:0:0:0:
216,100,175501,2,0,P|200:144|224:192,1,63.3333333333333,8|2,0:0|0:0,0:0:0:0:
252,232,175665,1,0,0:0:0:0:
332,300,175747,2,0,L|340:104,1,190,10|10,0:0|0:0,0:0:0:0:
264,32,176075,2,0,P|224:16|176:24,1,63.3333333333333,2|2,0:0|0:0,0:0:0:0:
124,108,176239,2,0,L|132:180,3,47.5,8|2|2|2,0:0|0:0|0:0|0:0,0:0:0:0:
128,176,176485,2,0,P|112:204|60:216,1,63.3333333333333,8|2,0:0|0:0,0:0:0:0:
44,88,176649,2,0,P|60:56|96:32,1,63.3333333333333,2|8,0:0|0:0,0:0:0:0:
216,100,176813,2,0,P|236:140|224:188,1,63.3333333333333,2|2,0:0|0:0,0:0:0:0:
196,268,176977,6,0,L|88:276,2,95,2|2|8,0:0|0:0|0:0,0:0:0:0:
332,300,177346,1,2,0:0:0:0:
396,184,177469,2,0,L|388:72,1,95,2|8,0:0|0:0,0:0:0:0:
448,244,177714,1,2,0:0:0:0:
288,188,177837,1,2,0:0:0:0:
196,268,177960,2,0,L|184:336,4,47.5,8|0|0|0|0,0:0|0:0|0:0|0:0|0:0,0:0:0:0:
128,176,178329,1,8,0:0:0:0:
172,72,178452,2,0,L|160:4,4,47.5,0|0|8|0|0,0:0|0:0|0:0|0:0|0:0,0:0:0:0:
272,124,178821,1,2,0:0:0:0:
356,32,178944,1,2,0:0:0:0:
324,196,179067,1,2,0:0:0:0:
488,132,179190,6,0,B|448:132|416:112|416:112|324:124,1,142.5,4|0,0:0|2:0,0:0:0:0:
324,196,179436,2,0,B|368:192|368:192|412:240|384:304,1,142.5,8|0,0:0|2:0,0:0:0:0:
324,336,179682,2,0,B|208:320|208:320|240:364,1,142.5,8|0,0:0|2:0,0:0:0:0:
244,248,179928,2,0,L|256:76,1,142.5,6|0,0:0|2:0,0:0:0:0:
192,56,180173,2,0,B|140:32|104:56|104:56|88:124,1,142.5,8|0,0:0|2:0,0:0:0:0:
48,184,180419,2,0,L|56:296,1,95,8|2,0:0|0:0,0:0:0:0:
56,304,180604,1,2,0:0:0:0:
56,328,180665,2,0,L|40:392,2,47.5,8|2|2,0:0|0:0|0:0,0:0:0:0:
212,248,180911,1,8,0:0:0:0:
136,360,181034,1,2,0:0:0:0:
168,180,181157,6,0,B|200:160|236:172|236:172|272:148|332:164,1,142.5,6|0,0:0|2:0,0:0:0:0:
364,212,181403,2,0,B|360:292|360:292|428:272,1,142.5,8|0,0:0|2:0,0:0:0:0:
424,160,181649,2,0,B|408:140|380:136|380:136|420:80|392:20,1,142.5,8|0,0:0|2:0,0:0:0:0:
328,16,181895,2,0,L|176:32,1,142.5,6|0,0:0|2:0,0:0:0:0:
136,96,182141,2,0,B|164:116|200:112|200:112|224:212,1,142.5,8|0,0:0|2:0,0:0:0:0:
220,276,182387,2,0,B|152:272|152:272|72:320,1,142.5,8|0,0:0|2:0,0:0:0:0:
100,216,182632,2,0,P|128:200|164:200,1,63.3333333333333,8|2,0:0|0:0,0:0:0:0:
300,296,182796,2,0,P|288:328|252:348,1,63.3333333333333,2|8,0:0|0:0,0:0:0:0:
88,310,182960,2,0,P|48:296|24:248,1,63.3333333333333,2|2,0:0|0:0,0:0:0:0:
3,121,183124,6,0,B|40:92|40:92|135:95,1,142.5,6|0,0:0|2:0,0:0:0:0:
203,143,183370,2,0,B|192:184|231:222|231:222|220:276,1,142.5,8|0,0:0|2:0,0:0:0:0:
284,340,183616,2,0,L|320:184,1,142.5,8|0,0:0|2:0,0:0:0:0:
376,136,183862,2,0,B|340:108|296:120|296:120|264:108|264:108|288:100,1,142.5,2|0,0:0|2:0,0:0:0:0:
460,120,184108,2,0,B|464:160|444:192|444:192|456:236|452:276,1,142.5,8|0,0:0|2:0,0:0:0:0:
392,312,184354,2,0,B|344:304|344:304|284:340|240:332,1,142.5,8|0,0:0|2:0,0:0:0:0:
184,292,184600,2,0,B|152:232|176:176|176:176|200:220,1,142.5,6|0,0:0|2:0,0:0:0:0:
264,216,184846,2,0,B|332:224|332:224|316:120,1,142.5,8|0,0:0|2:0,0:0:0:0:
336,64,185091,6,0,B|300:52|264:68|264:68|220:64|220:64|268:48,1,142.5,8|0,0:0|2:0,0:0:0:0:
424,69,185337,2,0,B|428:112|392:136|392:136|402:200,1,142.5,6|0,0:0|2:0,0:0:0:0:
392,312,185583,2,0,B|376:296|376:272|376:272|328:300|256:264,1,142.5,8|0,0:0|2:0,0:0:0:0:
220,204,185829,2,0,L|228:44,1,142.5,8|0,0:0|2:0,0:0:0:0:
144,96,186075,2,0,L|128:192,2,63.3333333333333,8|8|8,0:0|0:0|0:0,0:0:0:0:
40,160,186321,2,0,L|52:256,2,63.3333333333333,8|8|8,0:0|0:0|0:0,0:0:0:0:
136,256,186567,2,0,L|216:264,2,63.3333333333333,8|8|8,0:0|0:0|0:0,0:0:0:0:
68,320,186813,2,0,L|132:352,2,63.3333333333333,8|8|8,0:0|0:0|0:0,0:0:0:0:
48,224,187059,6,0,B|40:161|40:161|72:101|48:29,1,190
184,16,187428,1,2,2:0:0:0:
164,148,187550,6,0,P|184:204|160:264,1,106.875004076958
180,324,187796,2,0,P|160:283|176:235,1,71.2500027179719
128,72,188042,6,0,B|176:56|216:84|216:84|336:64,1,190,4|0,0:0|2:0,0:0:0:0:
368,244,188411,2,0,B|382:148|382:148|272:168,1,190,0|0,0:0|2:0,0:0:0:0:
212,280,188780,2,0,B|222:309|222:309|238:225|238:225|206:201|210:157,1,190,0|0,0:0|2:0,0:0:0:0:
312,67,189149,2,0,B|364:44|416:72|416:72|424:160,1,190,0|0,0:0|0:0,0:0:0:0:
423,153,189456,1,2,0:0:0:0:
423,153,189518,1,8,0:0:0:0:
496,312,189641,1,0,0:0:0:0:
368,244,189764,2,0,L|272:240,1,95,0|0,0:0|0:0,0:0:0:0:
184,360,190009,6,0,B|160:312|200:276|200:276|184:236|200:204|200:204|168:232,1,190,4|0,0:0|2:0,0:0:0:0:
8,180,190378,2,0,B|60:160|108:192|108:192|180:116,1,190,0|0,0:0|2:0,0:0:0:0:
282,50,190747,2,0,L|266:278,1,190,0|0,0:0|2:0,0:0:0:0:
352,328,191116,1,0,0:0:0:0:
432,212,191239,2,0,L|420:88,1,95
282,50,191485,2,0,P|244:40|200:60,1,63.3333333333333,2|2,0:0|0:0,0:0:0:0:
128,136,191649,2,0,P|124:176|152:220,1,63.3333333333333,2|2,0:0|0:0,0:0:0:0:
252,260,191813,2,0,P|292:244|312:188,1,63.3333333333333,2|2,0:0|0:0,0:0:0:0:
296,36,191977,6,0,B|240:16|200:40|200:40|96:28,1,190,6|0,0:0|2:0,0:0:0:0:
128,136,192346,2,0,B|224:148|224:148|184:200|212:252,1,190,0|0,0:0|2:0,0:0:0:0:
389,280,192714,2,0,B|408:232|368:180|368:180|288:204,1,190,0|0,0:0|2:0,0:0:0:0:
132,272,193083,2,0,L|12:260,1,95
128,136,193329,1,0,0:0:0:0:
216,292,193452,2,0,L|228:384,1,63.3333333333333,10|2,0:0|0:0,0:0:0:0:
304,320,193616,2,0,L|295:257,1,63.3333333333333,2|2,0:0|0:0,0:0:0:0:
379,217,193780,2,0,L|388:280,1,63.3333333333333,2|2,0:0|0:0,0:0:0:0:
216,292,193944,6,0,B|208:212|208:212|240:168|228:100,1,190,4|0,0:0|0:0,0:0:0:0:
184,8,194313,2,0,L|408:16,1,190,0|2,0:0|0:0,0:0:0:0:
373,14,194620,1,2,0:0:0:0:
373,14,194682,1,8,0:0:0:0:
464,88,194805,1,0,0:0:0:0:
380,216,194928,2,0,L|372:104,1,95,0|0,0:0|0:0,0:0:0:0:
428,296,195173,2,0,B|380:316|336:296|336:296|272:316,1,142.5,0|0,0:0|2:0,0:0:0:0:
216,336,195419,1,8,0:0:0:0:
296,208,195542,1,2,0:0:0:0:
132,272,195665,1,8,0:0:0:0:
304,320,195788,1,2,0:0:0:0:
172,184,195911,6,0,B|184:144|168:112|168:112|188:76|168:12,1,142.500005435944,4|0,0:0|0:0,0:0:0:0:
84,8,196280,1,0,0:0:0:0:
25,153,196403,2,0,L|96:160,1,71.2500027179719,8|0,0:0|0:0,0:0:0:0:
398,97,196649,2,0,L|256:108,2,142.500005435944,0|0|2,0:0|0:0|0:0,0:0:0:0:
398,97,197202,1,2,0:0:0:0:
398,97,197264,2,0,L|408:40,2,35.625001358986,2|2|8,0:0|0:0|0:0,0:0:0:0:
440,184,197509,1,0,0:0:0:0:
364,240,197632,2,0,L|268:248,1,71.2500027179719
216,284,197878,6,0,B|196:252|212:212|212:212|164:232|128:208|116:176|132:140,1,213.750008153916,4|2,0:0|0:0,0:0:0:0:
136,132,198309,1,2,0:0:0:0:
144,120,198370,2,0,L|236:112,1,71.2500027179719,8|0,0:0|0:0,0:0:0:0:
344,32,198616,2,0,L|273:38,1,71.2500027179719,2|0,0:0|0:0,0:0:0:0:
136,16,198862,1,2,0:0:0:0:
214,113,198985,1,0,0:0:0:0:
76,176,199108,2,0,L|72:264,1,71.2500027179719,0|2,0:0|0:0,0:0:0:0:
72,247,199292,1,2,0:0:0:0:
72,247,199354,1,8,0:0:0:0:
132,304,199477,1,2,0:0:0:0:
216,284,199600,1,0,0:0:0:0:
296,324,199723,1,2,0:0:0:0:
340,248,199846,5,4,0:0:0:0:
132,304,199969,1,2,0:0:0:0:
384,160,200583,5,4,0:0:0:0:
376,356,200706,1,2,0:0:0:0:
420,96,201321,5,4,0:0:0:0:
336,104,201567,1,4,0:0:0:0:
264,64,201813,1,2,0:0:0:0:
268,80,202182,1,2,0:0:0:0:
272,96,202550,1,2,0:0:0:0:
280,112,203042,5,2,0:0:0:0:
136,192,203288,1,2,0:0:0:0:
208,152,203534,1,2,0:0:0:0:
64,232,203780,5,4,0:0:0:0:
68,216,204149,1,0,0:0:0:0:
72,200,204518,1,0,0:0:0:0:
76,184,204887,1,0,0:0:0:0:
80,168,205255,6,0,L|192:160,1,95,6|2,0:0|0:0,0:0:0:0:
380,220,205747,5,6,0:0:0:0:
392,216,206116,1,0,0:0:0:0:
404,212,206485,1,0,0:0:0:0:
416,208,206854,1,0,0:0:0:0:
428,204,207223,6,0,P|444:152|420:104,1,95,6|2,0:0|0:0,0:0:0:0:
272,32,207714,5,4,0:0:0:0:
268,44,208083,1,0,0:0:0:0:
264,56,208452,1,0,0:0:0:0:
260,68,208821,1,0,0:0:0:0:
256,80,209190,2,0,L|120:88,1,118.75
120,100,209559,6,0,L|344:104,1,190,6|2,0:0|0:0,0:0:0:0:
309,103,209866,1,2,0:0:0:0:
309,103,209928,1,8,0:0:0:0:
440,24,210050,1,2,0:0:0:0:
480,208,210173,1,8,0:0:0:0:
280,184,210296,2,0,L|220:192,1,47.5,2|2,0:0|0:0,0:0:0:0:
168,224,210419,2,0,P|156:284|184:336,1,95,8|0,0:0|0:0,0:0:0:0:
304,360,210665,2,0,P|348:360|384:328,1,63.3333333333333,0|2,0:0|0:0,0:0:0:0:
464,236,210829,2,0,P|440:204|388:192,1,63.3333333333333,2|2,0:0|0:0,0:0:0:0:
280,184,210993,2,0,P|264:220|276:272,1,63.3333333333333,2|2,0:0|0:0,0:0:0:0:
304,360,211157,2,0,L|312:140,1,190,0|0,0:0|0:0,0:0:0:0:
424,24,211526,1,2,0:0:0:0:
220,48,211649,6,0,B|256:64|256:64|204:76|204:76|160:64|128:80|128:80|80:72,1,190,6|8,0:0|0:0,0:0:0:0:
20,140,212018,1,0,0:0:0:0:
132,256,212141,1,2,0:0:0:0:
132,256,212264,2,0,B|220:239|220:239|172:151,2,190,2|8|2,0:0|0:0|0:0,0:0:0:0:
132,256,212817,1,2,0:0:0:0:
132,256,212878,1,8,0:0:0:0:
248,336,213001,2,0,L|360:344,1,95,2|2,0:0|0:0,0:0:0:0:
428,200,213247,2,0,L|452:132,2,47.5,2|2|8,0:0|0:0|0:0,0:0:0:0:
448,376,213493,1,0,0:0:0:0:
344,228,213616,6,0,B|336:176|360:144|360:144|349:42,1,190,6|8,0:0|0:0,0:0:0:0:
428,200,213985,1,2,0:0:0:0:
280,120,214108,2,0,L|172:112,1,95,2|2,0:0|0:0,0:0:0:0:
168,100,214477,2,0,B|184:196|184:196|128:284,1,190,8|2,0:0|0:0,0:0:0:0:
134,274,214784,1,0,0:0:0:0:
134,274,214846,1,8,0:0:0:0:
16,148,214969,1,2,0:0:0:0:
152,24,215091,2,0,P|192:24|236:64,1,63.3333333333333,2|2,0:0|0:0,0:0:0:0:
280,120,215255,2,0,P|280:164|240:204,1,63.3333333333333,2|2,0:0|0:0,0:0:0:0:
196,261,215419,2,0,P|167:273|132:272,1,63.3333333333333,0|0,0:0|0:0,0:0:0:0:
16,148,215583,6,0,L|224:140,1,190,6|8,0:0|0:0,0:0:0:0:
360,96,215952,1,2,0:0:0:0:
428,200,216075,2,0,L|420:300,1,95,2|2,0:0|0:0,0:0:0:0:
404,312,216444,2,0,L|408:388,2,47.5,8|2|2,0:0|0:0|0:0,0:0:0:0:
304,244,216690,1,2,0:0:0:0:
196,260,216813,1,8,0:0:0:0:
178,237,216874,1,2,0:0:0:0:
168,210,216935,1,2,0:0:0:0:
168,182,216997,1,2,0:0:0:0:
180,156,217059,2,0,P|224:160|256:192,1,63.3333333333333,2|2,0:0|0:0,0:0:0:0:
244,324,217223,2,0,P|224:336|156:320,1,63.3333333333333,0|2,0:0|0:0,0:0:0:0:
64,268,217387,2,0,P|56:240|80:184,1,63.3333333333333,2|2,0:0|0:0,0:0:0:0:
176,120,217550,6,0,B|228:112|268:144|268:144|288:84|368:88,1,190,6|10,0:0|0:0,0:0:0:0:
484,136,217919,1,2,0:0:0:0:
350,258,218042,2,0,L|340:164,1,95,2|2,0:0|0:0,0:0:0:0:
392,24,218288,1,8,0:0:0:0:
476,152,218411,1,2,0:0:0:0:
452,164,218473,1,2,0:0:0:0:
434,167,218534,2,0,L|340:164,1,95,2|0,0:0|0:0,0:0:0:0:
244,52,218780,1,8,0:0:0:0:
152,192,218903,1,2,0:0:0:0:
152,192,218964,1,2,0:0:0:0:
152,192,219026,2,0,P|200:192|232:168,1,63.3333333333333,0|2,0:0|0:0,0:0:0:0:
120,60,219190,2,0,P|95:100|96:132,1,63.3333333333333
252,100,219354,2,0,P|240:68|200:44,1,63.3333333333333
112,48,219518,6,0,L|120:268,1,190,6|8,0:0|0:0,0:0:0:0:
292,256,219887,2,0,B|208:284|208:284|204:180,1,190,2|2,0:0|0:0,0:0:0:0:
204,182,220194,1,2,0:0:0:0:
204,182,220255,1,8,0:0:0:0:
360,80,220378,2,0,B|352:188|352:188|392:232|376:288,1,190,0|2,0:0|0:0,0:0:0:0:
372,296,220686,1,2,0:0:0:0:
356,320,220747,2,0,L|260:356,1,95,8|0,0:0|0:0,0:0:0:0:
132,240,220993,1,2,0:0:0:0:
292,256,221116,1,2,0:0:0:0:
168,344,221239,2,0,L|160:236,1,95,8|0,0:0|0:0,0:0:0:0:
164,72,221485,6,0,B|128:100|128:100|176:92|212:112|212:112|308:100,1,190,6|8,0:0|0:0,0:0:0:0:
448,191,221854,2,0,B|396:192|360:168|360:168|264:184,1,190,2|2,0:0|0:0,0:0:0:0:
264,183,222161,1,2,0:0:0:0:
264,183,222223,1,8,0:0:0:0:
372,296,222346,1,2,0:0:0:0:
428,104,222469,2,0,L|440:48,4,47.5,2|2|2|2|8,0:0|0:0|0:0|0:0|0:0,0:0:0:0:
312,68,222837,1,2,0:0:0:0:
184,88,222960,2,0,L|128:76,2,47.5,2|2|2,0:0|0:0|0:0,0:0:0:0:
264,183,223206,2,0,L|152:196,1,95,8|0,0:0|0:0,0:0:0:0:
186,328,223452,2,0,B|167:351|167:351|175:295|159:247|159:247|169:194,1,190,6|8,0:0|0:0,0:0:0:0:
264,184,223821,6,0,B|316:180|316:180|392:212|392:212|460:208,1,190,2|2,0:0|0:0,0:0:0:0:
464,228,224128,1,2,0:0:0:0:
464,228,224190,2,0,L|536:243,2,47.5,8|0|0,0:0|0:0|0:0,0:0:0:0:
408,80,224436,2,0,L|300:68,1,95,2|2,0:0|0:0,0:0:0:0:
313,69,224620,1,2,0:0:0:0:
313,69,224682,1,8,0:0:0:0:
264,184,224805,1,2,0:0:0:0:
364,284,224928,1,2,0:0:0:0:
340,148,225050,1,2,0:0:0:0:
268,340,225173,1,8,0:0:0:0:
192,224,225296,6,0,B|172:180|200:136|200:136|68:148,1,190,6|2,0:0|0:0,0:0:0:0:
102,144,225604,1,2,0:0:0:0:
102,144,225665,2,8,L|112:32,1,95,8|2,0:0|0:0,0:0:0:0:
148,32,225850,2,0,L|208:40,1,47.5,2|8,0:0|0:0,0:0:0:0:
340,148,226034,1,2,0:0:0:0:
192,224,226157,2,0,L|200:148,2,47.5,8|2|2,0:0|0:0|0:0,0:0:0:0:
268,340,226403,2,0,P|296:308|296:260,1,63.3333333333333,2|2,0:0|0:0,0:0:0:0:
224,104,226567,2,0,P|168:104|128:140,1,63.3333333333333,2|2,0:0|0:0,0:0:0:0:
64,232,226731,2,0,P|60:264|88:308,1,63.3333333333333,2|2,0:0|0:0,0:0:0:0:
252,328,226895,2,0,B|380:312|380:312|460:336,1,190,2|8,0:0|0:0,0:0:0:0:
438,329,227264,1,8,0:0:0:0:
424,232,227387,6,0,B|376:216|376:216|408:184|396:136|396:136|404:64,1,190,6|8,0:0|0:0,0:0:0:0:
320,160,227755,1,2,0:0:0:0:
320,160,227817,1,2,0:0:0:0:
320,160,227878,1,8,0:0:0:0:
224,104,228001,1,2,0:0:0:0:
192,224,228124,2,0,L|200:288,2,47.5,8|2|2,0:0|0:0|0:0,0:0:0:0:
56,56,228370,2,0,L|184:64,1,95,8|2,0:0|0:0,0:0:0:0:
320,160,228616,2,0,L|312:228,2,47.5,8|2|2,0:0|0:0|0:0,0:0:0:0:
368,40,228862,2,0,P|404:32|464:56,1,63.3333333333333,2|2,0:0|0:0,0:0:0:0:
500,216,229026,2,0,P|492:260|444:288,1,63.3333333333333,2|2,0:0|0:0,0:0:0:0:
276,272,229190,2,0,P|248:244|244:196,1,63.3333333333333,2|2,0:0|0:0,0:0:0:0:
265,82,229354,6,0,L|276:272,1,190,6|8,0:0|0:0,0:0:0:0:
188,348,229723,1,2,0:0:0:0:
188,348,229784,1,2,0:0:0:0:
188,348,229846,2,0,L|72:340,1,95,8|2,0:0|0:0,0:0:0:0:
36,220,230091,1,8,0:0:0:0:
28,200,230153,1,2,0:0:0:0:
32,180,230214,1,2,0:0:0:0:
160,148,230337,2,0,P|176:188|144:256,1,95,8|2,0:0|0:0,0:0:0:0:
96,60,230583,2,0,L|184:48,2,47.5,8|2|2,0:0|0:0|0:0,0:0:0:0:
163,236,230829,2,0,P|188:268|240:276,1,63.3333333333333,2|2,0:0|0:0,0:0:0:0:
320,304,230993,2,0,P|360:300|400:252,1,63.3333333333333,2|2,0:0|0:0,0:0:0:0:
468,236,231157,2,0,P|476:192|456:148,1,63.3333333333333,2|2,0:0|0:0,0:0:0:0:
404,88,231321,6,0,B|360:80|320:100|320:100|240:76|200:88,1,190,6|8,0:0|0:0,0:0:0:0:
104,144,231690,1,2,0:0:0:0:
104,144,231751,1,2,0:0:0:0:
104,144,231813,1,8,0:0:0:0:
164,236,231936,1,2,0:0:0:0:
48,264,232059,1,8,0:0:0:0:
48,264,232120,1,2,0:0:0:0:
48,264,232182,1,2,0:0:0:0:
172,320,232305,2,0,L|280:328,1,95,8|2,0:0|0:0,0:0:0:0:
384,272,232550,1,8,0:0:0:0:
396,256,232612,1,2,0:0:0:0:
396,232,232673,2,0,P|392:204|360:176,1,47.5,2|0,0:0|2:0,0:0:0:0:
272,104,232796,2,0,L|264:216,1,95,2|2,0:0|0:0,0:0:0:0:
265,198,232981,1,2,0:0:0:0:
265,198,233042,1,8,0:0:0:0:
172,320,233165,1,0,0:0:0:0:
104,144,233288,6,0,B|92:48|92:48|144:68|200:32,1,190,4|8,0:0|0:0,0:0:0:0:
352,32,233657,1,2,0:0:0:0:
264,198,233780,2,0,L|272:104,1,95
424,176,234026,2,0,L|432:304,1,95,8|0,0:0|0:0,0:0:0:0:
316,356,234272,1,2,0:0:0:0:
172,320,234395,1,2,0:0:0:0:
172,320,234456,1,2,0:0:0:0:
172,320,234518,2,0,L|184:204,1,95,8|0,0:0|0:0,0:0:0:0:
164,56,234764,2,0,B|152:148|152:148|204:132|248:172,1,190,0|0,0:0|0:0,0:0:0:0:
304,264,235132,1,0,0:0:0:0:
400,328,235255,6,0,L|388:100,2,190,6|8|2,0:0|0:0|0:0,0:0:0:0:
304,264,235870,1,2,0:0:0:0:
480,176,235993,1,8,0:0:0:0:
376,60,236116,2,0,B|332:68|312:112|312:112|180:92,1,190,2|0,0:0|0:0,0:0:0:0:
88,160,236485,1,8,0:0:0:0:
168,20,236608,1,2,0:0:0:0:
172,212,236731,2,0,L|168:328,1,95,0|0,0:0|2:0,0:0:0:0:
148,332,237223,6,0,L|300:316,1,142.500005435944,6|2,0:0|0:0,0:0:0:0:
392,340,237591,1,2,0:0:0:0:
424,240,237714,2,0,B|444:200|432:156|432:156|448:116|440:80,1,142.500005435944,8|0,0:0|0:0,0:0:0:0:
352,8,238083,1,10,0:0:0:0:
344,188,238206,2,0,L|252:184,2,71.2500027179719,8|0|8,0:0|0:0|0:0,0:0:0:0:
212,64,238575,1,2,0:0:0:0:
212,64,238637,1,2,0:0:0:0:
212,64,238698,2,0,L|184:148|184:148,1,47.5000018119813,2|2,0:0|0:0,0:0:0:0:
168,204,238862,2,0,L|176:256,1,47.5000018119813,2|2,0:0|0:0,0:0:0:0:
261,304,239026,2,0,L|264:352,1,47.5000018119813,2|2,0:0|0:0,0:0:0:0:
288,232,239190,6,0,B|284:184|284:184|320:136|296:72,1,142.5,6|0,0:0|2:0,0:0:0:0:
208,24,239436,2,0,P|172:24|128:56,1,63.3333333333333,2|2,0:0|0:0,0:0:0:0:
120,124,239600,1,2,0:0:0:0:
153,215,239682,2,0,B|189:219|217:243|217:243|288:232,1,142.5,8|0,0:0|2:0,0:0:0:0:
408,328,239928,2,0,B|372:324|344:300|344:300|273:311,1,142.5,2|0,0:0|2:0,0:0:0:0:
152,304,240173,1,4,2:0:0:0:
152,304,240665,1,0,0:0:0:0:
152,304,241649,6,0,B|164:240|144:196|144:196|176:156|160:108,1,190,0|2,0:0|2:0,0:0:0:0:
160,96,242632,2,0,P|192:84|248:96,1,63.3333333333333,8|2,0:0|0:0,0:0:0:0:
324,172,242796,2,0,P|332:208|308:264,1,63.3333333333333,2|2,0:0|0:0,0:0:0:0:
212,312,242960,2,0,P|180:315|151:303,1,63.3333333333333,2|2,0:0|0:0,0:0:0:0:
80,200,243124,2,0,L|72:108,1,69.6666687927247,8|2,0:0|0:0,0:0:0:0:
228,80,243288,2,0,L|234:149,1,69.6666687927247,2|2,0:0|0:0,0:0:0:0:
384,96,243452,2,0,L|377:26,1,69.6666687927247,2|2,0:0|0:0,0:0:0:0:
272,20,243616,2,0,P|240:8|172:36,1,75.9999976806641,8|2,0:0|0:0,0:0:0:0:
80,200,243780,2,0,P|80:256|104:288,1,75.9999976806641,2|2,0:0|0:0,0:0:0:0:
344,292,243944,2,0,P|368:264|368:208,1,75.9999976806641,2|2,0:0|0:0,0:0:0:0:
304,88,244108,2,0,B|280:76|248:96|248:96|208:76|208:76|180:92|180:92|148:44|72:40|60:120|140:112,1,308.749985866547,4|0,0:0|0:0,0:0:0:0:
134,112,244477,6,0,L|124:284,1,142.500005435944,4|0,0:0|0:0,0:0:0:0:
204,336,244846,2,0,L|300:328,1,71.2500027179719
340,188,245091,1,8,0:0:0:0:
220,152,245214,2,0,L|224:248,1,71.2500027179719
440,264,245460,2,0,L|456:124,1,106.875004076958
472,120,245706,2,0,P|440:92|384:88,1,71.2500027179719
304,32,245952,2,0,P|264:48|244:88,1,71.2500027179719,0|8,0:0|0:0,0:0:0:0:
136,116,246198,2,0,P|128:160|144:200,1,71.2500027179719
129,327,246444,6,0,L|134:184,1,142.500005435944
212,80,246813,2,0,L|312:64,1,71.2500027179719
420,104,247059,1,8,0:0:0:0:
332,188,247182,2,0,L|344:272,1,71.2500027179719,0|8,0:0|0:0,0:0:0:0:
223,309,247428,2,0,P|172:300|128:328,1,106.875004076958,8|0,0:0|0:0,0:0:0:0:
96,340,247673,2,0,L|88:256,1,71.2500027179719
216,184,247919,2,0,L|208:100,1,71.2500027179719
64,108,248165,2,0,L|56:24,1,71.2500027179719
208,112,248411,6,0,B|282:118|282:118|322:150|366:142,1,142.500005435944,4|0,0:0|0:0,0:0:0:0:
440,96,248780,2,0,L|456:8,1,71.2500027179719
352,64,249026,1,8,0:0:0:0:
316,228,249149,2,0,L|328:320,1,71.2500027179719
192,336,249395,2,0,L|208:196,1,106.875004076958
216,192,249641,2,0,P|184:172|132:176,1,71.2500027179719
36,264,249887,2,0,P|68:284|120:280,1,71.2500027179719,0|8,0:0|0:0,0:0:0:0:
300,128,250132,2,0,P|268:108|216:112,1,71.2500027179719
192,336,250378,6,0,L|312:332,1,95,8|2,0:0|0:0,0:0:0:0:
328,308,250563,1,2,0:0:0:0:
328,308,250624,2,0,L|404:316,2,47.5,8|2|8,0:0|0:0|0:0,0:0:0:0:
216,192,250870,1,2,0:0:0:0:
216,192,250932,1,2,0:0:0:0:
216,192,250993,2,0,P|200:132|224:88,1,95,4|0,0:2|2:0,0:0:0:0:
344,52,251239,1,8,0:0:0:0:
432,160,251362,2,0,L|440:292,1,106.875004076958,2|0,0:0|0:0,0:0:0:0:
428,300,251608,2,0,L|352:288,1,71.2500027179719
192,336,251854,2,0,L|116:324,1,71.2500027179719
52,228,252100,1,0,0:0:0:0:
216,192,252223,1,0,0:0:0:0:
32,88,252346,6,0,B|76:84|104:104|104:104|148:92|196:96,1,142.500005435944,4|0,0:0|0:0,0:0:0:0:
308,164,252714,2,0,L|304:248,1,71.2500027179719,8|0,0:0|0:0,0:0:0:0:
192,336,252960,1,2,0:0:0:0:
52,228,253083,2,0,L|136:216,1,71.2500027179719,2|8,0:0|0:0,0:0:0:0:
308,164,253329,2,0,L|444:176,1,106.875004076958
448,184,253575,2,0,P|464:136|444:88,1,71.2500027179719,0|8,0:0|0:0,0:0:0:0:
304,16,253821,2,0,P|264:28|240:76,1,71.2500027179719
228,216,254067,2,0,P|260:252|296:256,1,71.2500027179719,0|8,0:0|0:0,0:0:0:0:
448,184,254313,6,0,P|468:100|432:28,1,142.500005435944,4|0,0:0|0:0,0:0:0:0:
304,16,254682,2,0,L|204:24,1,71.2500027179719,8|0,0:0|0:0,0:0:0:0:
136,108,254928,1,0,0:0:0:0:
228,216,255050,2,8,L|224:288,1,71.2500027179719,0|8,0:0|0:0,0:0:0:0:
88,328,255296,2,0,L|100:156,1,142.500005435944,0|2,0:0|0:0,0:0:0:0:
97,185,255604,1,2,0:0:0:0:
97,185,255665,1,8,0:0:0:0:
168,80,255788,2,0,L|156:24,2,47.5,2|2|8,0:0|0:0|0:0,0:0:0:0:
228,216,256034,1,2,0:0:0:0:
228,216,256096,1,2,0:0:0:0:
228,216,256157,2,0,L|280:220,1,47.5,8|0,0:0|2:0,0:0:0:0:
352,192,256280,6,0,L|500:184,1,142.500005435944,4|0,0:0|0:0,0:0:0:0:
416,80,256649,2,0,L|328:72,1,71.2500027179719,8|0,0:0|0:0,0:0:0:0:
232,108,256895,1,2,0:0:0:0:
352,192,257018,2,0,L|360:296,1,71.2500027179719,0|8,0:0|0:0,0:0:0:0:
208,352,257264,2,0,L|204:224,1,106.875004076958
188,212,257509,2,0,P|152:184|108:192,1,71.2500027179719,0|8,0:0|0:0,0:0:0:0:
28,252,257755,2,0,P|20:296|48:340,1,71.2500027179719
143,373,258001,2,0,P|178:371|208:352,1,71.2500027179719,0|8,0:0|0:0,0:0:0:0:
272,240,258247,6,0,B|280:168|280:168|192:184,1,142.500005435944,4|0,0:0|0:0,0:0:0:0:
104,200,258616,2,0,L|112:116,1,71.2500027179719,8|0,0:0|0:0,0:0:0:0:
208,44,258862,1,8,0:0:0:0:
328,84,258985,2,0,L|424:92,1,71.2500027179719,0|8,0:0|0:0,0:0:0:0:
468,204,259231,2,0,L|372:212,1,71.2500027179719,2|8,0:0|0:0,0:0:0:0:
272,240,259477,5,2,0:0:0:0:
232,152,259600,1,8,0:0:0:0:
172,224,259723,1,2,0:0:0:0:
304,320,259846,5,8,0:0:0:0:
280,80,259969,1,2,0:0:0:0:
88,208,260091,1,8,0:0:0:0:
232,323,260214,6,0,L|304:320,1,71.2500027179719,0|0,0:0|2:0,0:0:0:0:
