osu file format v14

[General]
AudioFilename: Hanatan - Kagerou Variation.mp3
AudioLeadIn: 0
PreviewTime: 20900
Countdown: 0
SampleSet: Normal
StackLeniency: 0.7
Mode: 1
LetterboxInBreaks: 0
WidescreenStoryboard: 0

[Editor]
DistanceSpacing: 1.7
BeatDivisor: 4
GridSize: 32
TimelineZoom: 1

[Metadata]
Title:Kagerou - Variation
TitleUnicode:影炎≒Variation
Artist:Hanatan
ArtistUnicode:Hanatan
Creator:bananannian
Version:Ura Oni
Source:
Tags:vocaloid IA
BeatmapID:611573
BeatmapSetID:268607

[Difficulty]
HPDrainRate:5
CircleSize:5
OverallDifficulty:7
ApproachRate:5
SliderMultiplier:1.4
SliderTickRate:1

[Events]
//Background and Video events
Video,0,"Hanatan - Kagerou Variation.avi"
0,0,"maxresdefault.jpg",0,0
//Break Periods
//Storyboard Layer 0 (Background)
//Storyboard Layer 1 (Fail)
//Storyboard Layer 2 (Pass)
//Storyboard Layer 3 (Foreground)
//Storyboard Sound Samples

[TimingPoints]
8114,491.803278688525,4,1,0,100,1,0
10081,-68.9655172413793,4,1,0,100,0,0
61228,-50,4,1,0,100,0,1
84835,-51.8134715025907,4,1,0,100,0,0
85081,-54.054054054054,4,1,0,100,0,0
85326,-56.4971751412429,4,1,0,100,0,0
85572,-58.8235294117647,4,1,0,100,0,0
85818,-61.3496932515337,4,1,0,100,0,0
86064,-64.5161290322581,4,1,0,100,0,0
86310,-66.6666666666667,4,1,0,100,0,0
86556,-68.9655172413793,4,1,0,100,0,0
132048,-50,4,1,0,100,0,1
155654,-200,4,2,0,50,0,0
163523,-50,4,1,0,100,0,0
183195,-40,4,1,0,100,0,0
188113,491.803278688525,4,1,0,100,1,0
188113,-68.9655172413793,4,1,0,100,0,0
203850,-50,4,1,0,100,0,0
205326,-50,4,1,0,100,0,1
205817,-50,4,1,0,100,0,0
207293,-50,4,1,0,100,0,1
207785,-50,4,1,0,100,0,0
209506,-50,4,1,0,100,0,1
244670,245.901639344262,4,1,0,100,1,0

[HitObjects]
256,192,10081,5,4,0:0:0:0:
256,192,10326,1,0,0:0:0:0:
256,192,10408,1,0,0:0:0:0:
256,192,10490,1,0,0:0:0:0:
256,192,10572,1,8,0:0:0:0:
256,192,10818,1,4,0:0:0:0:
256,192,11064,1,4,0:0:0:0:
256,192,11556,1,12,0:0:0:0:
256,192,11925,1,4,0:0:0:0:
256,192,12171,1,0,0:0:0:0:
256,192,12294,1,0,0:0:0:0:
256,192,12540,1,8,0:0:0:0:
256,192,12662,1,0,0:0:0:0:
256,192,12785,1,0,0:0:0:0:
256,192,12867,5,0,0:0:0:0:
256,192,12949,5,0,0:0:0:0:
256,192,13031,1,0,0:0:0:0:
256,192,13277,1,0,0:0:0:0:
256,192,13359,1,0,0:0:0:0:
256,192,13441,1,0,0:0:0:0:
256,192,13523,1,8,0:0:0:0:
256,192,13892,1,4,0:0:0:0:
256,192,14138,1,8,0:0:0:0:
256,192,14261,1,0,0:0:0:0:
256,192,14384,1,0,0:0:0:0:
256,192,14507,1,8,0:0:0:0:
256,192,14630,1,0,0:0:0:0:
256,192,14876,1,0,0:0:0:0:
256,192,15121,1,0,0:0:0:0:
256,192,15367,1,0,0:0:0:0:
256,192,15490,1,8,0:0:0:0:
256,192,15613,1,0,0:0:0:0:
256,192,15859,1,4,0:0:0:0:
256,192,16105,1,8,0:0:0:0:
256,192,16228,1,0,0:0:0:0:
256,192,16351,1,0,0:0:0:0:
256,192,16474,1,8,0:0:0:0:
256,192,16597,1,0,0:0:0:0:
256,192,16720,1,8,0:0:0:0:
256,192,16843,1,8,0:0:0:0:
256,192,16966,1,0,0:0:0:0:
256,192,17089,1,0,0:0:0:0:
256,192,17335,1,0,0:0:0:0:
256,192,17458,1,8,0:0:0:0:
256,192,17581,1,0,0:0:0:0:
256,192,17826,1,4,0:0:0:0:
256,192,18072,1,8,0:0:0:0:
256,192,18195,1,0,0:0:0:0:
256,192,18318,1,0,0:0:0:0:
256,192,18441,1,8,0:0:0:0:
256,192,18564,1,0,0:0:0:0:
256,192,18810,1,0,0:0:0:0:
256,192,19056,1,0,0:0:0:0:
256,192,19302,1,0,0:0:0:0:
256,192,19425,1,8,0:0:0:0:
256,192,19548,1,0,0:0:0:0:
256,192,19794,1,8,0:0:0:0:
256,192,19917,1,0,0:0:0:0:
256,192,19978,1,0,0:0:0:0:
256,192,20040,1,8,0:0:0:0:
256,192,20162,1,8,0:0:0:0:
256,192,20285,1,0,0:0:0:0:
256,192,20347,1,0,0:0:0:0:
256,192,20408,1,8,0:0:0:0:
256,192,20654,1,8,0:0:0:0:
256,192,20777,1,0,0:0:0:0:
256,192,21023,1,0,0:0:0:0:
256,192,21146,1,0,0:0:0:0:
256,192,21269,1,0,0:0:0:0:
256,192,21331,1,0,0:0:0:0:
256,192,21392,1,8,0:0:0:0:
256,192,21638,1,8,0:0:0:0:
256,192,21761,1,4,0:0:0:0:
256,192,22007,1,0,0:0:0:0:
256,192,22130,1,8,0:0:0:0:
256,192,22253,1,0,0:0:0:0:
256,192,22376,1,0,0:0:0:0:
256,192,22499,1,0,0:0:0:0:
256,192,22621,1,8,0:0:0:0:
256,192,22744,1,0,0:0:0:0:
256,192,22990,1,0,0:0:0:0:
256,192,23113,1,8,0:0:0:0:
256,192,23236,1,0,0:0:0:0:
256,192,23359,1,0,0:0:0:0:
256,192,23482,1,0,0:0:0:0:
256,192,23605,1,8,0:0:0:0:
256,192,23728,1,0,0:0:0:0:
256,192,23974,1,0,0:0:0:0:
256,192,24097,1,8,0:0:0:0:
256,192,24220,1,0,0:0:0:0:
256,192,24343,1,0,0:0:0:0:
256,192,24466,1,0,0:0:0:0:
256,192,24589,1,8,0:0:0:0:
256,192,24712,1,0,0:0:0:0:
256,192,24958,1,0,0:0:0:0:
256,192,25019,1,0,0:0:0:0:
256,192,25081,1,8,0:0:0:0:
256,192,25203,1,0,0:0:0:0:
256,192,25326,1,8,0:0:0:0:
256,192,25449,1,0,0:0:0:0:
256,192,25511,1,0,0:0:0:0:
256,192,25572,1,8,0:0:0:0:
256,192,25695,1,4,0:0:0:0:
256,192,25941,1,0,0:0:0:0:
256,192,26064,1,8,0:0:0:0:
256,192,26187,1,0,0:0:0:0:
256,192,26433,1,0,0:0:0:0:
256,192,26556,1,8,0:0:0:0:
256,192,26679,1,0,0:0:0:0:
256,192,26925,1,8,0:0:0:0:
256,192,27048,1,0,0:0:0:0:
256,192,27171,1,8,0:0:0:0:
256,192,27417,1,8,0:0:0:0:
256,192,27540,1,0,0:0:0:0:
256,192,27662,1,0,0:0:0:0:
256,192,27908,1,0,0:0:0:0:
256,192,28031,1,8,0:0:0:0:
256,192,28154,1,0,0:0:0:0:
256,192,28400,1,0,0:0:0:0:
256,192,28523,1,8,0:0:0:0:
256,192,28646,1,0,0:0:0:0:
256,192,28892,1,0,0:0:0:0:
256,192,29015,1,8,0:0:0:0:
256,192,29138,1,0,0:0:0:0:
256,192,29261,1,12,0:0:0:0:
256,192,29630,1,4,0:0:0:0:
256,192,29999,1,0,0:0:0:0:
256,192,30244,1,8,0:0:0:0:
256,192,30490,1,0,0:0:0:0:
256,192,30613,1,0,0:0:0:0:
256,192,30982,1,0,0:0:0:0:
256,192,31228,1,8,0:0:0:0:
256,192,31597,1,4,0:0:0:0:
256,192,31843,1,0,0:0:0:0:
256,192,31966,1,0,0:0:0:0:
256,192,32212,1,8,0:0:0:0:
256,192,32458,1,0,0:0:0:0:
256,192,32581,1,0,0:0:0:0:
256,192,32826,1,0,0:0:0:0:
256,192,33072,1,0,0:0:0:0:
256,192,33195,1,8,0:0:0:0:
256,192,33318,1,0,0:0:0:0:
256,192,33564,1,4,0:0:0:0:
256,192,33810,1,0,0:0:0:0:
256,192,33933,1,0,0:0:0:0:
256,192,34179,1,8,0:0:0:0:
256,192,34425,1,0,0:0:0:0:
256,192,34917,1,0,0:0:0:0:
256,192,35162,1,8,0:0:0:0:
256,192,35408,1,8,0:0:0:0:
256,192,35531,1,8,0:0:0:0:
256,192,35654,1,0,0:0:0:0:
256,192,35777,1,8,0:0:0:0:
256,192,35900,1,8,0:0:0:0:
256,192,36023,1,0,0:0:0:0:
256,192,36085,1,0,0:0:0:0:
256,192,36146,1,8,0:0:0:0:
256,192,36269,1,0,0:0:0:0:
256,192,36331,1,0,0:0:0:0:
256,192,36392,1,8,0:0:0:0:
256,192,36515,1,8,0:0:0:0:
256,192,36761,1,0,0:0:0:0:
256,192,36884,1,0,0:0:0:0:
256,192,37007,1,0,0:0:0:0:
256,192,37130,1,8,0:0:0:0:
256,192,37253,1,8,0:0:0:0:
256,192,37376,1,8,0:0:0:0:
256,192,37499,1,4,0:0:0:0:
256,192,37867,1,0,0:0:0:0:
256,192,38113,1,8,0:0:0:0:
256,192,38359,1,0,0:0:0:0:
256,192,38851,1,0,0:0:0:0:
256,192,39097,1,8,0:0:0:0:
256,192,39466,1,4,0:0:0:0:
256,192,39835,1,0,0:0:0:0:
256,192,40081,1,8,0:0:0:0:
256,192,40326,1,0,0:0:0:0:
256,192,40449,1,0,0:0:0:0:
256,192,40695,1,0,0:0:0:0:
256,192,40818,1,0,0:0:0:0:
256,192,41064,1,8,0:0:0:0:
256,192,41187,1,0,0:0:0:0:
256,192,41433,1,4,0:0:0:0:
256,192,41802,1,0,0:0:0:0:
256,192,42048,1,8,0:0:0:0:
256,192,42417,1,0,0:0:0:0:
256,192,42662,1,0,0:0:0:0:
256,192,42785,1,8,0:0:0:0:
256,192,43031,1,8,0:0:0:0:
256,192,43154,1,0,0:0:0:0:
256,192,43400,1,4,0:0:0:0:
256,192,43769,1,0,0:0:0:0:
256,192,44015,1,8,0:0:0:0:
256,192,44261,1,0,0:0:0:0:
256,192,44507,1,8,0:0:0:0:
256,192,44568,1,8,0:0:0:0:
256,192,44630,1,8,0:0:0:0:
256,192,44691,1,8,0:0:0:0:
256,192,44753,1,0,0:0:0:0:
256,192,44814,1,0,0:0:0:0:
256,192,44876,1,0,0:0:0:0:
256,192,44937,1,0,0:0:0:0:
256,192,44999,1,8,0:0:0:0:
256,192,45490,1,4,0:0:0:0:
256,192,45859,1,4,0:0:0:0:
256,192,46228,1,12,0:0:0:0:
256,192,46597,1,12,0:0:0:0:
256,192,46843,1,0,0:0:0:0:
256,192,46966,1,0,0:0:0:0:
256,192,47089,1,0,0:0:0:0:
256,192,47212,1,8,0:0:0:0:
256,192,47335,1,8,0:0:0:0:
256,192,47458,1,4,0:0:0:0:
256,192,47826,1,4,0:0:0:0:
256,192,48195,1,12,0:0:0:0:
256,192,48564,1,4,0:0:0:0:
256,192,48810,1,0,0:0:0:0:
256,192,48933,1,8,0:0:0:0:
256,192,49056,1,8,0:0:0:0:
256,192,49179,1,8,0:0:0:0:
256,192,49302,1,8,0:0:0:0:
256,192,49425,1,4,0:0:0:0:
256,192,49794,1,4,0:0:0:0:
256,192,50162,1,12,0:0:0:0:
256,192,50531,1,12,0:0:0:0:
256,192,50654,1,12,0:0:0:0:
256,192,50900,1,0,0:0:0:0:
256,192,51023,1,0,0:0:0:0:
256,192,51146,1,8,0:0:0:0:
256,192,51269,1,8,0:0:0:0:
256,192,51392,1,4,0:0:0:0:
256,192,51761,1,4,0:0:0:0:
256,192,52007,1,0,0:0:0:0:
256,192,52068,1,0,0:0:0:0:
256,192,52130,1,8,0:0:0:0:
256,192,52253,1,0,0:0:0:0:
256,192,52376,1,0,0:0:0:0:
256,192,52499,1,8,0:0:0:0:
256,192,52621,1,0,0:0:0:0:
256,192,52744,1,0,0:0:0:0:
256,192,52867,1,8,0:0:0:0:
256,192,52990,1,8,0:0:0:0:
256,192,53113,1,8,0:0:0:0:
256,192,53236,1,8,0:0:0:0:
256,192,53359,1,4,0:0:0:0:
256,192,53728,1,0,0:0:0:0:
256,192,53851,1,8,0:0:0:0:
256,192,54097,1,0,0:0:0:0:
256,192,54466,1,0,0:0:0:0:
256,192,54712,1,0,0:0:0:0:
256,192,54835,1,8,0:0:0:0:
256,192,54958,1,8,0:0:0:0:
256,192,55203,1,8,0:0:0:0:
256,192,55326,1,0,0:0:0:0:
256,192,55695,1,0,0:0:0:0:
256,192,55818,1,8,0:0:0:0:
256,192,56064,1,0,0:0:0:0:
256,192,56433,1,0,0:0:0:0:
256,192,56679,1,0,0:0:0:0:
256,192,56740,1,0,0:0:0:0:
256,192,56802,1,8,0:0:0:0:
256,192,56925,1,8,0:0:0:0:
256,192,57048,1,8,0:0:0:0:
256,192,57171,1,8,0:0:0:0:
256,192,57294,1,0,0:0:0:0:
256,192,57417,1,0,0:0:0:0:
256,192,58031,1,0,0:0:0:0:
256,192,58154,1,0,0:0:0:0:
256,192,58769,1,4,0:0:0:0:
256,192,59015,1,4,0:0:0:0:
256,192,59261,1,4,0:0:0:0:
256,192,59753,1,8,0:0:0:0:
256,192,60121,1,8,0:0:0:0:
256,192,60367,12,0,61105,0:0:0:0:
256,192,61228,5,0,0:0:0:0:
256,192,61474,1,8,0:0:0:0:
256,192,61597,1,0,0:0:0:0:
256,192,61843,1,0,0:0:0:0:
256,192,61904,1,0,0:0:0:0:
256,192,61966,1,8,0:0:0:0:
256,192,62335,1,0,0:0:0:0:
256,192,62396,1,0,0:0:0:0:
256,192,62458,1,8,0:0:0:0:
256,192,62703,1,0,0:0:0:0:
256,192,62826,1,0,0:0:0:0:
256,192,62949,1,8,0:0:0:0:
256,192,63195,1,0,0:0:0:0:
256,192,63441,1,8,0:0:0:0:
256,192,63810,1,0,0:0:0:0:
256,192,63933,1,8,0:0:0:0:
256,192,64179,1,0,0:0:0:0:
256,192,64261,1,0,0:0:0:0:
256,192,64343,1,0,0:0:0:0:
256,192,64425,1,8,0:0:0:0:
256,192,64671,1,0,0:0:0:0:
256,192,64753,1,0,0:0:0:0:
256,192,64835,1,0,0:0:0:0:
256,192,64917,1,8,0:0:0:0:
256,192,65162,1,0,0:0:0:0:
256,192,65408,1,8,0:0:0:0:
256,192,65531,1,0,0:0:0:0:
256,192,65777,1,0,0:0:0:0:
256,192,65839,1,0,0:0:0:0:
256,192,65900,1,8,0:0:0:0:
256,192,66269,1,0,0:0:0:0:
256,192,66331,1,0,0:0:0:0:
256,192,66392,1,8,0:0:0:0:
256,192,66515,1,0,0:0:0:0:
256,192,66638,1,0,0:0:0:0:
256,192,66761,1,0,0:0:0:0:
256,192,66884,1,8,0:0:0:0:
256,192,67007,1,8,0:0:0:0:
256,192,67253,1,0,0:0:0:0:
256,192,67314,1,0,0:0:0:0:
256,192,67376,1,8,0:0:0:0:
256,192,67499,1,0,0:0:0:0:
256,192,67560,1,0,0:0:0:0:
256,192,67621,1,8,0:0:0:0:
256,192,67744,1,0,0:0:0:0:
256,192,67806,1,0,0:0:0:0:
256,192,67867,1,8,0:0:0:0:
256,192,67990,1,0,0:0:0:0:
256,192,68052,1,0,0:0:0:0:
256,192,68113,1,8,0:0:0:0:
256,192,68195,1,0,0:0:0:0:
256,192,68277,1,0,0:0:0:0:
256,192,68359,1,8,0:0:0:0:
256,192,68441,1,0,0:0:0:0:
256,192,68523,1,0,0:0:0:0:
256,192,68605,1,8,0:0:0:0:
256,192,68851,1,8,0:0:0:0:
256,192,69097,1,0,0:0:0:0:
256,192,69343,1,8,0:0:0:0:
256,192,69589,1,0,0:0:0:0:
256,192,69712,1,0,0:0:0:0:
256,192,69958,1,8,0:0:0:0:
256,192,70203,1,0,0:0:0:0:
256,192,70265,1,0,0:0:0:0:
256,192,70326,1,8,0:0:0:0:
256,192,70449,1,0,0:0:0:0:
256,192,70572,1,8,0:0:0:0:
256,192,70695,1,0,0:0:0:0:
256,192,70757,1,0,0:0:0:0:
256,192,70818,1,8,0:0:0:0:
256,192,70941,1,8,0:0:0:0:
256,192,71064,1,0,0:0:0:0:
256,192,71310,1,8,0:0:0:0:
256,192,71556,1,0,0:0:0:0:
256,192,71679,1,0,0:0:0:0:
256,192,71925,1,8,0:0:0:0:
256,192,72171,1,8,0:0:0:0:
256,192,72294,1,8,0:0:0:0:
256,192,72417,1,0,0:0:0:0:
256,192,72540,1,8,0:0:0:0:
256,192,72621,1,0,0:0:0:0:
256,192,72703,1,8,0:0:0:0:
256,192,72785,1,0,0:0:0:0:
256,192,72867,1,8,0:0:0:0:
256,192,72949,1,0,0:0:0:0:
256,192,73031,1,0,0:0:0:0:
256,192,73277,1,8,0:0:0:0:
256,192,73523,1,0,0:0:0:0:
256,192,73646,1,0,0:0:0:0:
256,192,73892,1,8,0:0:0:0:
256,192,74015,1,0,0:0:0:0:
256,192,74138,1,0,0:0:0:0:
256,192,74261,1,8,0:0:0:0:
256,192,74384,1,0,0:0:0:0:
256,192,74507,1,8,0:0:0:0:
256,192,74589,1,0,0:0:0:0:
256,192,74671,1,0,0:0:0:0:
256,192,74753,1,8,0:0:0:0:
256,192,74835,1,0,0:0:0:0:
256,192,74917,1,0,0:0:0:0:
256,192,74999,1,0,0:0:0:0:
256,192,75244,1,8,0:0:0:0:
256,192,75367,1,8,0:0:0:0:
256,192,75490,1,0,0:0:0:0:
256,192,75613,1,0,0:0:0:0:
256,192,75736,1,8,0:0:0:0:
256,192,75859,1,8,0:0:0:0:
256,192,75982,1,0,0:0:0:0:
256,192,76105,1,0,0:0:0:0:
256,192,76228,1,8,0:0:0:0:
256,192,76351,1,8,0:0:0:0:
256,192,76474,1,8,0:0:0:0:
256,192,76556,1,0,0:0:0:0:
256,192,76638,1,8,0:0:0:0:
256,192,76720,1,0,0:0:0:0:
256,192,76802,1,8,0:0:0:0:
256,192,76884,1,0,0:0:0:0:
256,192,76966,1,0,0:0:0:0:
256,192,77212,1,8,0:0:0:0:
256,192,77458,1,0,0:0:0:0:
256,192,77581,1,0,0:0:0:0:
256,192,77703,1,8,0:0:0:0:
256,192,77826,1,0,0:0:0:0:
256,192,78072,1,0,0:0:0:0:
256,192,78195,1,8,0:0:0:0:
256,192,78318,1,0,0:0:0:0:
256,192,78441,1,0,0:0:0:0:
256,192,78564,1,0,0:0:0:0:
256,192,78687,1,8,0:0:0:0:
256,192,78810,1,0,0:0:0:0:
256,192,78933,1,0,0:0:0:0:
256,192,79179,1,8,0:0:0:0:
256,192,79425,1,0,0:0:0:0:
256,192,79548,1,0,0:0:0:0:
256,192,79671,1,8,0:0:0:0:
256,192,79794,1,0,0:0:0:0:
256,192,80040,1,0,0:0:0:0:
256,192,80162,1,8,0:0:0:0:
256,192,80285,1,0,0:0:0:0:
256,192,80408,1,0,0:0:0:0:
256,192,80531,1,0,0:0:0:0:
256,192,80654,1,8,0:0:0:0:
256,192,80777,1,0,0:0:0:0:
256,192,80900,1,0,0:0:0:0:
256,192,81146,1,0,0:0:0:0:
256,192,81228,1,0,0:0:0:0:
256,192,81310,1,0,0:0:0:0:
256,192,81392,1,8,0:0:0:0:
256,192,81638,1,8,0:0:0:0:
256,192,81884,1,8,0:0:0:0:
256,192,82376,1,4,0:0:0:0:
256,192,82744,1,4,0:0:0:0:
256,192,82990,1,0,0:0:0:0:
256,192,83052,1,0,0:0:0:0:
256,192,83113,1,8,0:0:0:0:
256,192,83359,1,8,0:0:0:0:
256,192,83482,1,0,0:0:0:0:
256,192,83728,1,0,0:0:0:0:
256,192,84097,1,0,0:0:0:0:
256,192,84158,1,0,0:0:0:0:
256,192,84220,1,0,0:0:0:0:
256,192,84281,1,0,0:0:0:0:
256,192,84343,1,8,0:0:0:0:
256,192,84712,1,4,0:0:0:0:
256,192,84958,1,8,0:0:0:0:
256,192,85081,1,0,0:0:0:0:
256,192,85204,1,0,0:0:0:0:
256,192,85327,1,8,0:0:0:0:
256,192,85450,1,0,0:0:0:0:
256,192,85696,1,0,0:0:0:0:
256,192,85941,1,0,0:0:0:0:
256,192,86187,1,0,0:0:0:0:
256,192,86310,1,8,0:0:0:0:
256,192,86433,1,0,0:0:0:0:
256,192,86679,1,0,0:0:0:0:
256,192,86925,1,8,0:0:0:0:
256,192,87048,1,0,0:0:0:0:
256,192,87171,1,0,0:0:0:0:
256,192,87294,1,8,0:0:0:0:
256,192,87417,1,0,0:0:0:0:
256,192,87540,1,8,0:0:0:0:
256,192,87663,1,8,0:0:0:0:
256,192,87786,1,0,0:0:0:0:
256,192,87909,1,0,0:0:0:0:
256,192,88155,1,0,0:0:0:0:
256,192,88278,1,8,0:0:0:0:
256,192,88401,1,0,0:0:0:0:
256,192,88646,1,4,0:0:0:0:
256,192,88892,1,8,0:0:0:0:
256,192,89015,1,0,0:0:0:0:
256,192,89138,1,0,0:0:0:0:
256,192,89261,1,8,0:0:0:0:
256,192,89384,1,0,0:0:0:0:
256,192,89630,1,0,0:0:0:0:
256,192,89876,1,0,0:0:0:0:
256,192,90122,1,0,0:0:0:0:
256,192,90245,1,8,0:0:0:0:
256,192,90368,1,0,0:0:0:0:
256,192,90614,1,8,0:0:0:0:
256,192,90737,1,0,0:0:0:0:
256,192,90798,1,0,0:0:0:0:
256,192,90860,1,8,0:0:0:0:
256,192,90982,1,8,0:0:0:0:
256,192,91105,1,0,0:0:0:0:
256,192,91167,1,0,0:0:0:0:
256,192,91228,1,8,0:0:0:0:
256,192,91474,1,8,0:0:0:0:
256,192,91597,1,0,0:0:0:0:
256,192,91843,1,0,0:0:0:0:
256,192,91966,1,0,0:0:0:0:
256,192,92089,1,0,0:0:0:0:
256,192,92151,1,0,0:0:0:0:
256,192,92212,1,8,0:0:0:0:
256,192,92458,1,8,0:0:0:0:
256,192,92581,1,4,0:0:0:0:
256,192,92827,1,0,0:0:0:0:
256,192,92950,1,8,0:0:0:0:
256,192,93073,1,0,0:0:0:0:
256,192,93196,1,0,0:0:0:0:
256,192,93319,1,0,0:0:0:0:
256,192,93441,1,8,0:0:0:0:
256,192,93564,1,0,0:0:0:0:
256,192,93810,1,0,0:0:0:0:
256,192,93933,1,8,0:0:0:0:
256,192,94056,1,0,0:0:0:0:
256,192,94179,1,0,0:0:0:0:
256,192,94302,1,0,0:0:0:0:
256,192,94425,1,8,0:0:0:0:
256,192,94548,1,0,0:0:0:0:
256,192,94794,1,0,0:0:0:0:
256,192,94917,1,8,0:0:0:0:
256,192,95040,1,0,0:0:0:0:
256,192,95163,1,0,0:0:0:0:
256,192,95286,1,0,0:0:0:0:
256,192,95409,1,8,0:0:0:0:
256,192,95532,1,0,0:0:0:0:
256,192,95778,1,0,0:0:0:0:
256,192,95839,1,0,0:0:0:0:
256,192,95901,1,8,0:0:0:0:
256,192,96023,1,0,0:0:0:0:
256,192,96146,1,8,0:0:0:0:
256,192,96269,1,0,0:0:0:0:
256,192,96331,1,0,0:0:0:0:
256,192,96392,1,8,0:0:0:0:
256,192,96515,1,4,0:0:0:0:
256,192,96761,1,0,0:0:0:0:
256,192,96884,1,8,0:0:0:0:
256,192,97007,1,0,0:0:0:0:
256,192,97253,1,0,0:0:0:0:
256,192,97376,1,8,0:0:0:0:
256,192,97499,1,0,0:0:0:0:
256,192,97745,1,8,0:0:0:0:
256,192,97868,1,0,0:0:0:0:
256,192,97991,1,8,0:0:0:0:
256,192,98237,1,8,0:0:0:0:
256,192,98360,1,0,0:0:0:0:
256,192,98482,1,0,0:0:0:0:
256,192,98728,1,0,0:0:0:0:
256,192,98851,1,8,0:0:0:0:
256,192,98974,1,0,0:0:0:0:
256,192,99220,1,0,0:0:0:0:
256,192,99343,1,8,0:0:0:0:
256,192,99466,1,0,0:0:0:0:
256,192,99712,1,0,0:0:0:0:
256,192,99835,1,8,0:0:0:0:
256,192,99958,1,0,0:0:0:0:
256,192,100081,1,12,0:0:0:0:
256,192,100449,1,4,0:0:0:0:
256,192,100695,1,0,0:0:0:0:
256,192,100818,1,8,0:0:0:0:
256,192,100941,1,0,0:0:0:0:
256,192,101064,1,8,0:0:0:0:
256,192,101187,1,0,0:0:0:0:
256,192,101310,1,8,0:0:0:0:
256,192,101433,1,8,0:0:0:0:
256,192,101802,1,0,0:0:0:0:
256,192,102048,1,8,0:0:0:0:
256,192,102294,1,8,0:0:0:0:
256,192,102417,1,4,0:0:0:0:
256,192,102662,1,0,0:0:0:0:
256,192,102785,1,8,0:0:0:0:
256,192,102908,1,0,0:0:0:0:
256,192,103031,1,8,0:0:0:0:
256,192,103154,1,8,0:0:0:0:
256,192,103277,1,0,0:0:0:0:
256,192,103400,1,8,0:0:0:0:
256,192,103523,1,0,0:0:0:0:
256,192,103646,1,8,0:0:0:0:
256,192,103769,1,0,0:0:0:0:
256,192,103892,1,8,0:0:0:0:
256,192,104015,1,0,0:0:0:0:
256,192,104138,1,8,0:0:0:0:
256,192,104261,1,0,0:0:0:0:
256,192,104384,1,0,0:0:0:0:
256,192,104630,1,0,0:0:0:0:
256,192,104753,1,8,0:0:0:0:
256,192,104876,1,0,0:0:0:0:
256,192,104999,1,8,0:0:0:0:
256,192,105121,1,8,0:0:0:0:
256,192,105244,1,0,0:0:0:0:
256,192,105367,1,8,0:0:0:0:
256,192,105736,1,0,0:0:0:0:
256,192,105982,1,8,0:0:0:0:
256,192,106228,1,4,0:0:0:0:
256,192,106351,1,12,0:0:0:0:
256,192,106597,1,0,0:0:0:0:
256,192,106720,1,8,0:0:0:0:
256,192,106843,1,0,0:0:0:0:
256,192,106904,1,0,0:0:0:0:
256,192,106966,1,8,0:0:0:0:
256,192,107089,1,0,0:0:0:0:
256,192,107150,1,0,0:0:0:0:
256,192,107212,1,8,0:0:0:0:
256,192,107335,1,0,0:0:0:0:
256,192,107458,1,8,0:0:0:0:
256,192,107581,1,0,0:0:0:0:
256,192,107703,1,8,0:0:0:0:
256,192,107826,1,0,0:0:0:0:
256,192,107949,1,8,0:0:0:0:
256,192,108195,1,8,0:0:0:0:
256,192,108318,1,4,0:0:0:0:
256,192,108687,1,0,0:0:0:0:
256,192,108933,1,8,0:0:0:0:
256,192,109179,1,0,0:0:0:0:
256,192,109671,1,0,0:0:0:0:
256,192,109917,1,8,0:0:0:0:
256,192,110285,1,4,0:0:0:0:
256,192,110654,1,0,0:0:0:0:
256,192,110900,1,8,0:0:0:0:
256,192,111146,1,0,0:0:0:0:
256,192,111269,1,8,0:0:0:0:
256,192,111515,1,0,0:0:0:0:
256,192,111638,1,0,0:0:0:0:
256,192,111761,1,8,0:0:0:0:
256,192,111884,1,8,0:0:0:0:
256,192,112007,1,0,0:0:0:0:
256,192,112253,1,4,0:0:0:0:
256,192,112621,1,0,0:0:0:0:
256,192,112867,1,8,0:0:0:0:
256,192,113236,1,0,0:0:0:0:
256,192,113605,1,0,0:0:0:0:
256,192,113851,1,8,0:0:0:0:
256,192,113974,1,0,0:0:0:0:
256,192,114220,1,0,0:0:0:0:
256,192,114343,1,12,0:0:0:0:
256,192,114589,1,4,0:0:0:0:
256,192,114835,1,12,0:0:0:0:
256,192,115081,1,8,0:0:0:0:
256,192,115203,1,8,0:0:0:0:
256,192,115326,1,0,0:0:0:0:
256,192,115388,1,0,0:0:0:0:
256,192,115449,1,0,0:0:0:0:
256,192,115511,1,0,0:0:0:0:
256,192,115572,1,8,0:0:0:0:
256,192,115634,1,8,0:0:0:0:
256,192,115695,1,8,0:0:0:0:
256,192,115757,1,8,0:0:0:0:
256,192,115818,1,0,0:0:0:0:
256,192,116310,1,4,0:0:0:0:
256,192,116679,1,4,0:0:0:0:
256,192,117048,1,12,0:0:0:0:
256,192,117294,1,0,0:0:0:0:
256,192,117355,1,0,0:0:0:0:
256,192,117417,1,8,0:0:0:0:
256,192,117540,1,8,0:0:0:0:
256,192,117662,1,0,0:0:0:0:
256,192,117724,1,0,0:0:0:0:
256,192,117785,1,8,0:0:0:0:
256,192,117908,1,8,0:0:0:0:
256,192,118031,1,8,0:0:0:0:
256,192,118277,1,4,0:0:0:0:
256,192,118646,1,4,0:0:0:0:
256,192,119015,1,12,0:0:0:0:
256,192,119261,1,0,0:0:0:0:
256,192,119384,1,12,0:0:0:0:
256,192,119630,1,0,0:0:0:0:
256,192,119691,1,0,0:0:0:0:
256,192,119753,1,8,0:0:0:0:
256,192,119876,1,0,0:0:0:0:
256,192,119999,1,8,0:0:0:0:
256,192,120244,1,4,0:0:0:0:
256,192,120613,1,4,0:0:0:0:
256,192,120982,1,4,0:0:0:0:
256,192,121228,1,0,0:0:0:0:
256,192,121351,1,8,0:0:0:0:
256,192,121474,1,0,0:0:0:0:
256,192,121597,1,0,0:0:0:0:
256,192,121658,1,0,0:0:0:0:
256,192,121720,1,8,0:0:0:0:
256,192,121802,1,8,0:0:0:0:
256,192,121884,1,8,0:0:0:0:
256,192,121966,1,8,0:0:0:0:
256,192,122048,1,8,0:0:0:0:
256,192,122130,1,8,0:0:0:0:
256,192,122212,1,0,0:0:0:0:
256,192,122581,1,0,0:0:0:0:
256,192,122826,1,0,0:0:0:0:
256,192,122888,1,0,0:0:0:0:
256,192,122949,1,8,0:0:0:0:
256,192,123072,1,0,0:0:0:0:
256,192,123195,1,0,0:0:0:0:
256,192,123318,1,8,0:0:0:0:
256,192,123441,1,0,0:0:0:0:
256,192,123564,1,0,0:0:0:0:
256,192,123687,1,8,0:0:0:0:
256,192,123810,1,8,0:0:0:0:
256,192,123933,1,8,0:0:0:0:
256,192,124056,1,8,0:0:0:0:
256,192,124179,1,4,0:0:0:0:
256,192,124425,1,0,0:0:0:0:
256,192,124548,1,0,0:0:0:0:
256,192,124671,1,8,0:0:0:0:
256,192,124794,1,0,0:0:0:0:
256,192,124917,1,8,0:0:0:0:
256,192,125162,1,8,0:0:0:0:
256,192,125285,1,0,0:0:0:0:
256,192,125531,1,0,0:0:0:0:
256,192,125593,1,0,0:0:0:0:
256,192,125654,1,8,0:0:0:0:
256,192,125777,1,0,0:0:0:0:
256,192,126023,1,0,0:0:0:0:
256,192,126146,1,0,0:0:0:0:
256,192,126515,1,0,0:0:0:0:
256,192,126576,1,0,0:0:0:0:
256,192,126638,1,8,0:0:0:0:
256,192,126884,1,0,0:0:0:0:
256,192,127253,1,0,0:0:0:0:
256,192,127499,1,0,0:0:0:0:
256,192,127560,1,0,0:0:0:0:
256,192,127621,1,8,0:0:0:0:
256,192,127744,1,0,0:0:0:0:
256,192,127867,1,0,0:0:0:0:
256,192,127990,1,0,0:0:0:0:
256,192,128113,1,8,0:0:0:0:
256,192,128236,1,8,0:0:0:0:
256,192,128359,1,0,0:0:0:0:
256,192,128482,1,0,0:0:0:0:
256,192,128605,1,0,0:0:0:0:
256,192,128728,1,0,0:0:0:0:
256,192,128851,1,8,0:0:0:0:
256,192,128974,1,8,0:0:0:0:
256,192,129097,1,0,0:0:0:0:
256,192,129220,1,0,0:0:0:0:
256,192,129343,1,0,0:0:0:0:
256,192,129466,1,0,0:0:0:0:
256,192,129589,1,8,0:0:0:0:
256,192,129835,1,8,0:0:0:0:
256,192,130081,1,8,0:0:0:0:
256,192,130162,1,8,0:0:0:0:
256,192,130244,1,0,0:0:0:0:
256,192,130326,1,0,0:0:0:0:
256,192,130408,1,0,0:0:0:0:
256,192,130490,1,0,0:0:0:0:
256,192,130572,1,8,0:0:0:0:
256,192,130654,1,8,0:0:0:0:
256,192,130736,1,0,0:0:0:0:
256,192,130818,1,0,0:0:0:0:
256,192,130900,1,0,0:0:0:0:
256,192,130982,1,0,0:0:0:0:
256,192,131064,1,8,0:0:0:0:
256,192,131146,1,8,0:0:0:0:
256,192,131228,1,0,0:0:0:0:
256,192,131310,1,0,0:0:0:0:
256,192,131392,1,0,0:0:0:0:
256,192,131474,1,0,0:0:0:0:
256,192,131556,1,8,0:0:0:0:
256,192,132048,5,4,0:0:0:0:
256,192,132294,1,8,0:0:0:0:
256,192,132417,1,0,0:0:0:0:
256,192,132662,1,0,0:0:0:0:
256,192,132724,1,0,0:0:0:0:
256,192,132785,1,8,0:0:0:0:
256,192,133154,1,0,0:0:0:0:
256,192,133216,1,0,0:0:0:0:
256,192,133277,1,8,0:0:0:0:
256,192,133523,1,0,0:0:0:0:
256,192,133646,1,0,0:0:0:0:
256,192,133769,1,8,0:0:0:0:
256,192,134015,1,0,0:0:0:0:
256,192,134261,1,8,0:0:0:0:
256,192,134384,1,0,0:0:0:0:
256,192,134589,1,0,0:0:0:0:
256,192,134712,1,8,0:0:0:0:
256,192,134958,1,0,0:0:0:0:
256,192,135040,1,0,0:0:0:0:
256,192,135121,1,0,0:0:0:0:
256,192,135203,1,8,0:0:0:0:
256,192,135449,1,0,0:0:0:0:
256,192,135531,1,0,0:0:0:0:
256,192,135613,1,0,0:0:0:0:
256,192,135695,1,8,0:0:0:0:
256,192,135982,1,0,0:0:0:0:
256,192,136228,1,8,0:0:0:0:
256,192,136351,1,0,0:0:0:0:
256,192,136597,1,0,0:0:0:0:
256,192,136658,1,0,0:0:0:0:
256,192,136720,1,8,0:0:0:0:
256,192,137089,1,0,0:0:0:0:
256,192,137150,1,0,0:0:0:0:
256,192,137212,1,8,0:0:0:0:
256,192,137335,1,0,0:0:0:0:
256,192,137458,1,0,0:0:0:0:
256,192,137581,1,0,0:0:0:0:
256,192,137703,1,8,0:0:0:0:
256,192,137826,1,8,0:0:0:0:
256,192,138072,1,0,0:0:0:0:
256,192,138134,1,0,0:0:0:0:
256,192,138195,1,8,0:0:0:0:
256,192,138318,1,0,0:0:0:0:
256,192,138380,1,0,0:0:0:0:
256,192,138441,1,8,0:0:0:0:
256,192,138564,1,0,0:0:0:0:
256,192,138626,1,0,0:0:0:0:
256,192,138687,1,8,0:0:0:0:
256,192,138810,1,0,0:0:0:0:
256,192,138871,1,0,0:0:0:0:
256,192,138933,1,8,0:0:0:0:
256,192,139015,1,8,0:0:0:0:
256,192,139097,1,8,0:0:0:0:
256,192,139179,1,0,0:0:0:0:
256,192,139261,1,0,0:0:0:0:
256,192,139343,1,0,0:0:0:0:
256,192,139425,1,8,0:0:0:0:
256,192,139671,1,8,0:0:0:0:
256,192,139917,1,0,0:0:0:0:
256,192,140162,1,8,0:0:0:0:
256,192,140408,1,0,0:0:0:0:
256,192,140531,1,0,0:0:0:0:
256,192,140777,1,8,0:0:0:0:
256,192,141023,1,0,0:0:0:0:
256,192,141085,1,0,0:0:0:0:
256,192,141146,1,8,0:0:0:0:
256,192,141269,1,0,0:0:0:0:
256,192,141392,1,8,0:0:0:0:
256,192,141515,1,0,0:0:0:0:
256,192,141576,1,0,0:0:0:0:
256,192,141638,1,8,0:0:0:0:
256,192,141761,1,8,0:0:0:0:
256,192,141884,1,0,0:0:0:0:
256,192,142130,1,8,0:0:0:0:
256,192,142376,1,0,0:0:0:0:
256,192,142499,1,0,0:0:0:0:
256,192,142744,1,8,0:0:0:0:
256,192,142990,1,8,0:0:0:0:
256,192,143113,1,8,0:0:0:0:
256,192,143236,1,0,0:0:0:0:
256,192,143359,1,8,0:0:0:0:
256,192,143441,1,0,0:0:0:0:
256,192,143523,1,8,0:0:0:0:
256,192,143605,1,0,0:0:0:0:
256,192,143687,1,8,0:0:0:0:
256,192,143769,1,0,0:0:0:0:
256,192,143851,1,0,0:0:0:0:
256,192,144097,1,8,0:0:0:0:
256,192,144343,1,0,0:0:0:0:
256,192,144466,1,0,0:0:0:0:
256,192,144712,1,8,0:0:0:0:
256,192,144835,1,0,0:0:0:0:
256,192,144958,1,0,0:0:0:0:
256,192,145081,1,8,0:0:0:0:
256,192,145203,1,0,0:0:0:0:
256,192,145326,1,8,0:0:0:0:
256,192,145408,1,0,0:0:0:0:
256,192,145490,1,0,0:0:0:0:
256,192,145572,1,8,0:0:0:0:
256,192,145654,1,0,0:0:0:0:
256,192,145736,1,0,0:0:0:0:
256,192,145818,1,0,0:0:0:0:
256,192,146064,1,8,0:0:0:0:
256,192,146187,1,8,0:0:0:0:
256,192,146310,1,0,0:0:0:0:
256,192,146433,1,0,0:0:0:0:
256,192,146556,1,8,0:0:0:0:
256,192,146679,1,8,0:0:0:0:
256,192,146802,1,0,0:0:0:0:
256,192,146925,1,0,0:0:0:0:
256,192,147048,1,8,0:0:0:0:
256,192,147171,1,8,0:0:0:0:
256,192,147294,1,8,0:0:0:0:
256,192,147376,1,0,0:0:0:0:
256,192,147458,1,8,0:0:0:0:
256,192,147540,1,0,0:0:0:0:
256,192,147621,1,8,0:0:0:0:
256,192,147703,1,0,0:0:0:0:
256,192,147785,1,0,0:0:0:0:
256,192,148031,1,8,0:0:0:0:
256,192,148277,1,0,0:0:0:0:
256,192,148400,1,0,0:0:0:0:
256,192,148523,1,8,0:0:0:0:
256,192,148646,1,0,0:0:0:0:
256,192,148892,1,0,0:0:0:0:
256,192,149015,1,8,0:0:0:0:
256,192,149138,1,0,0:0:0:0:
256,192,149261,1,0,0:0:0:0:
256,192,149384,1,0,0:0:0:0:
256,192,149507,1,8,0:0:0:0:
256,192,149630,1,0,0:0:0:0:
256,192,149753,1,0,0:0:0:0:
256,192,149999,1,8,0:0:0:0:
256,192,150244,1,0,0:0:0:0:
256,192,150367,1,0,0:0:0:0:
256,192,150490,1,8,0:0:0:0:
256,192,150613,1,0,0:0:0:0:
256,192,150859,1,0,0:0:0:0:
256,192,150982,1,8,0:0:0:0:
256,192,151105,1,0,0:0:0:0:
256,192,151228,1,0,0:0:0:0:
256,192,151351,1,0,0:0:0:0:
256,192,151474,1,8,0:0:0:0:
256,192,151597,1,0,0:0:0:0:
256,192,151720,1,0,0:0:0:0:
256,192,151966,1,0,0:0:0:0:
256,192,152048,1,0,0:0:0:0:
256,192,152130,1,0,0:0:0:0:
256,192,152212,1,8,0:0:0:0:
256,192,152458,1,8,0:0:0:0:
256,192,152703,1,8,0:0:0:0:
256,192,153195,1,4,0:0:0:0:
256,192,153564,1,4,0:0:0:0:
256,192,153810,1,0,0:0:0:0:
256,192,153872,1,0,0:0:0:0:
256,192,153933,1,8,0:0:0:0:
256,192,154179,1,8,0:0:0:0:
256,192,154302,1,0,0:0:0:0:
256,192,154548,1,0,0:0:0:0:
256,192,154917,1,0,0:0:0:0:
256,192,154978,1,0,0:0:0:0:
256,192,155040,1,0,0:0:0:0:
256,192,155101,1,0,0:0:0:0:
256,192,155162,1,8,0:0:0:0:
256,192,157376,1,8,0:0:0:0:
256,192,157458,1,8,0:0:0:0:
256,192,157540,1,8,0:0:0:0:
256,192,157622,1,8,0:0:0:0:
256,192,157867,1,8,0:0:0:0:
256,192,157949,1,8,0:0:0:0:
256,192,158031,1,8,0:0:0:0:
256,192,158113,1,8,0:0:0:0:
256,192,158359,1,8,0:0:0:0:
256,192,158441,1,8,0:0:0:0:
256,192,158523,1,8,0:0:0:0:
256,192,158605,1,8,0:0:0:0:
256,192,158851,1,8,0:0:0:0:
256,192,158933,1,8,0:0:0:0:
256,192,159015,1,8,0:0:0:0:
256,192,159097,1,8,0:0:0:0:
256,192,159179,1,8,0:0:0:0:
256,192,159261,1,8,0:0:0:0:
256,192,159343,1,8,0:0:0:0:
256,192,159425,1,8,0:0:0:0:
256,192,159507,1,8,0:0:0:0:
256,192,159589,1,8,0:0:0:0:
256,192,159835,1,8,0:0:0:0:
256,192,159917,1,8,0:0:0:0:
256,192,159999,1,8,0:0:0:0:
256,192,160081,1,8,0:0:0:0:
256,192,160326,1,8,0:0:0:0:
256,192,160408,1,8,0:0:0:0:
256,192,160490,1,8,0:0:0:0:
256,192,160572,1,8,0:0:0:0:
256,192,160818,1,8,0:0:0:0:
256,192,160900,1,8,0:0:0:0:
256,192,160982,1,8,0:0:0:0:
256,192,161064,1,8,0:0:0:0:
256,192,161146,1,8,0:0:0:0:
256,192,161228,1,8,0:0:0:0:
256,192,161310,1,8,0:0:0:0:
256,192,161392,1,8,0:0:0:0:
256,192,161474,1,8,0:0:0:0:
256,192,161556,1,8,0:0:0:0:
256,192,161802,1,8,0:0:0:0:
256,192,161884,1,8,0:0:0:0:
256,192,161966,1,8,0:0:0:0:
256,192,162048,1,8,0:0:0:0:
256,192,162294,1,8,0:0:0:0:
256,192,162376,1,8,0:0:0:0:
256,192,162458,1,8,0:0:0:0:
256,192,162540,1,8,0:0:0:0:
256,192,163523,1,4,0:0:0:0:
256,192,163769,1,0,0:0:0:0:
256,192,163851,1,0,0:0:0:0:
256,192,163933,1,0,0:0:0:0:
256,192,164015,1,8,0:0:0:0:
256,192,164261,1,0,0:0:0:0:
256,192,164343,1,0,0:0:0:0:
256,192,164425,1,0,0:0:0:0:
256,192,164507,1,0,0:0:0:0:
256,192,164753,1,0,0:0:0:0:
256,192,164835,1,0,0:0:0:0:
256,192,164917,1,0,0:0:0:0:
256,192,164999,1,8,0:0:0:0:
256,192,165081,1,0,0:0:0:0:
256,192,165162,1,0,0:0:0:0:
256,192,165244,1,8,0:0:0:0:
256,192,165326,1,8,0:0:0:0:
256,192,165408,1,8,0:0:0:0:
256,192,165490,1,0,0:0:0:0:
256,192,165736,1,0,0:0:0:0:
256,192,165818,1,0,0:0:0:0:
256,192,165900,1,0,0:0:0:0:
256,192,165982,1,8,0:0:0:0:
256,192,166228,1,0,0:0:0:0:
256,192,166310,1,0,0:0:0:0:
256,192,166392,1,0,0:0:0:0:
256,192,166474,1,0,0:0:0:0:
256,192,166720,1,0,0:0:0:0:
256,192,166802,1,0,0:0:0:0:
256,192,166884,1,0,0:0:0:0:
256,192,166966,1,8,0:0:0:0:
256,192,167048,1,0,0:0:0:0:
256,192,167130,1,0,0:0:0:0:
256,192,167212,1,8,0:0:0:0:
256,192,167294,1,8,0:0:0:0:
256,192,167376,1,8,0:0:0:0:
256,192,167458,1,0,0:0:0:0:
256,192,167703,1,0,0:0:0:0:
256,192,167785,1,0,0:0:0:0:
256,192,167867,1,0,0:0:0:0:
256,192,167949,1,8,0:0:0:0:
256,192,168195,1,0,0:0:0:0:
256,192,168277,1,0,0:0:0:0:
256,192,168359,1,0,0:0:0:0:
256,192,168441,1,0,0:0:0:0:
256,192,168687,1,0,0:0:0:0:
256,192,168769,1,0,0:0:0:0:
256,192,168851,1,0,0:0:0:0:
256,192,168933,1,8,0:0:0:0:
256,192,169015,1,0,0:0:0:0:
256,192,169097,1,0,0:0:0:0:
256,192,169179,1,8,0:0:0:0:
256,192,169261,1,8,0:0:0:0:
256,192,169343,1,8,0:0:0:0:
256,192,169425,1,0,0:0:0:0:
256,192,169671,1,0,0:0:0:0:
256,192,169753,1,0,0:0:0:0:
256,192,169835,1,0,0:0:0:0:
256,192,169917,1,8,0:0:0:0:
256,192,170162,1,0,0:0:0:0:
256,192,170244,1,0,0:0:0:0:
256,192,170326,1,0,0:0:0:0:
256,192,170408,1,0,0:0:0:0:
256,192,170654,1,0,0:0:0:0:
256,192,170736,1,0,0:0:0:0:
256,192,170818,1,0,0:0:0:0:
256,192,170900,1,8,0:0:0:0:
256,192,170982,1,0,0:0:0:0:
256,192,171064,1,0,0:0:0:0:
256,192,171146,1,8,0:0:0:0:
256,192,171228,1,8,0:0:0:0:
256,192,171310,1,8,0:0:0:0:
256,192,171392,1,0,0:0:0:0:
256,192,171638,1,0,0:0:0:0:
256,192,171720,1,0,0:0:0:0:
256,192,171802,1,0,0:0:0:0:
256,192,171884,1,0,0:0:0:0:
256,192,172130,1,0,0:0:0:0:
256,192,172212,1,0,0:0:0:0:
256,192,172294,1,0,0:0:0:0:
256,192,172376,1,0,0:0:0:0:
256,192,172622,1,12,0:0:0:0:
256,192,172867,1,12,0:0:0:0:
256,192,173113,1,12,0:0:0:0:
256,192,173359,1,8,0:0:0:0:
256,192,173441,1,8,0:0:0:0:
256,192,173523,1,0,0:0:0:0:
256,192,173605,1,0,0:0:0:0:
256,192,173687,1,8,0:0:0:0:
256,192,173769,1,8,0:0:0:0:
256,192,173851,1,0,0:0:0:0:
256,192,173933,1,0,0:0:0:0:
256,192,174015,1,8,0:0:0:0:
256,192,174097,1,8,0:0:0:0:
256,192,174179,1,0,0:0:0:0:
256,192,174261,1,0,0:0:0:0:
256,192,174343,1,8,0:0:0:0:
256,192,174589,1,8,0:0:0:0:
256,192,174671,1,0,0:0:0:0:
256,192,174753,1,0,0:0:0:0:
256,192,174835,1,0,0:0:0:0:
256,192,175081,1,8,0:0:0:0:
256,192,175162,1,0,0:0:0:0:
256,192,175244,1,0,0:0:0:0:
256,192,175326,1,0,0:0:0:0:
256,192,175408,1,0,0:0:0:0:
256,192,175490,1,0,0:0:0:0:
256,192,175572,1,8,0:0:0:0:
256,192,175654,1,0,0:0:0:0:
256,192,175736,1,0,0:0:0:0:
256,192,175818,1,8,0:0:0:0:
256,192,175900,1,0,0:0:0:0:
256,192,175982,1,0,0:0:0:0:
256,192,176064,1,8,0:0:0:0:
256,192,176146,1,0,0:0:0:0:
256,192,176228,1,0,0:0:0:0:
256,192,176310,1,8,0:0:0:0:
256,192,176392,1,0,0:0:0:0:
256,192,176474,1,0,0:0:0:0:
256,192,176556,1,8,0:0:0:0:
256,192,176638,1,0,0:0:0:0:
256,192,176720,1,0,0:0:0:0:
256,192,176802,1,8,0:0:0:0:
256,192,176884,1,8,0:0:0:0:
256,192,176966,1,8,0:0:0:0:
256,192,177048,1,8,0:0:0:0:
256,192,177130,1,8,0:0:0:0:
256,192,177212,1,8,0:0:0:0:
256,192,177294,1,8,0:0:0:0:
256,192,177417,1,0,0:0:0:0:
256,192,177540,1,0,0:0:0:0:
256,192,177662,1,8,0:0:0:0:
256,192,177785,1,0,0:0:0:0:
256,192,177908,1,0,0:0:0:0:
256,192,178031,1,8,0:0:0:0:
256,192,178154,1,0,0:0:0:0:
256,192,178277,1,0,0:0:0:0:
256,192,178400,1,8,0:0:0:0:
256,192,178523,1,0,0:0:0:0:
256,192,178646,1,0,0:0:0:0:
256,192,178769,1,8,0:0:0:0:
256,192,178892,1,8,0:0:0:0:
256,192,179015,1,8,0:0:0:0:
256,192,179138,1,8,0:0:0:0:
256,192,179261,1,4,0:0:0:0:
256,192,179507,1,8,0:0:0:0:
256,192,179753,1,8,0:0:0:0:
256,192,179999,1,4,0:0:0:0:
256,192,180244,1,8,0:0:0:0:
256,192,180490,1,8,0:0:0:0:
256,192,180613,1,0,0:0:0:0:
256,192,180736,1,8,0:0:0:0:
256,192,180859,1,8,0:0:0:0:
256,192,180982,1,8,0:0:0:0:
256,192,181105,1,8,0:0:0:0:
256,192,181228,1,4,0:0:0:0:
256,192,181474,1,8,0:0:0:0:
256,192,181720,1,8,0:0:0:0:
256,192,181966,1,4,0:0:0:0:
256,192,182212,1,8,0:0:0:0:
256,192,182458,1,8,0:0:0:0:
256,192,182703,1,8,0:0:0:0:
256,192,182785,1,8,0:0:0:0:
256,192,182867,1,8,0:0:0:0:
256,192,182949,1,8,0:0:0:0:
256,192,183031,1,8,0:0:0:0:
256,192,183113,1,8,0:0:0:0:
256,192,183195,1,4,0:0:0:0:
256,192,183441,1,8,0:0:0:0:
256,192,183687,1,8,0:0:0:0:
256,192,183933,1,4,0:0:0:0:
256,192,184179,1,8,0:0:0:0:
256,192,184425,1,8,0:0:0:0:
256,192,184671,1,4,0:0:0:0:
256,192,184917,1,12,0:0:0:0:
256,192,185162,1,12,0:0:0:0:
256,192,185408,1,4,0:0:0:0:
256,192,185654,1,12,0:0:0:0:
256,192,185900,1,12,0:0:0:0:
256,192,186146,1,8,0:0:0:0:
256,192,186228,1,0,0:0:0:0:
256,192,186310,1,0,0:0:0:0:
256,192,186392,1,8,0:0:0:0:
256,192,186474,1,0,0:0:0:0:
256,192,186556,1,0,0:0:0:0:
256,192,186638,1,8,0:0:0:0:
256,192,186720,1,8,0:0:0:0:
256,192,186802,1,0,0:0:0:0:
256,192,186884,1,8,0:0:0:0:
256,192,186966,1,8,0:0:0:0:
256,192,187048,1,0,0:0:0:0:
256,192,187130,1,8,0:0:0:0:
256,192,187212,1,8,0:0:0:0:
256,192,187294,1,8,0:0:0:0:
256,192,187376,1,8,0:0:0:0:
256,192,187458,1,8,0:0:0:0:
256,192,187540,1,8,0:0:0:0:
256,192,187622,1,0,0:0:0:0:
256,192,188113,1,4,0:0:0:0:
256,192,188481,1,4,0:0:0:0:
256,192,188850,1,12,0:0:0:0:
256,192,189096,1,0,0:0:0:0:
256,192,189158,1,0,0:0:0:0:
256,192,189219,1,8,0:0:0:0:
256,192,189342,1,8,0:0:0:0:
256,192,189465,1,0,0:0:0:0:
256,192,189526,1,0,0:0:0:0:
256,192,189588,1,8,0:0:0:0:
256,192,189711,1,8,0:0:0:0:
256,192,189834,1,8,0:0:0:0:
256,192,189957,1,8,0:0:0:0:
256,192,190080,1,4,0:0:0:0:
256,192,190449,1,4,0:0:0:0:
256,192,190817,1,12,0:0:0:0:
256,192,191063,1,0,0:0:0:0:
256,192,191186,1,12,0:0:0:0:
256,192,191432,1,0,0:0:0:0:
256,192,191494,1,0,0:0:0:0:
256,192,191555,1,8,0:0:0:0:
256,192,191678,1,0,0:0:0:0:
256,192,191801,1,8,0:0:0:0:
256,192,192047,1,4,0:0:0:0:
256,192,192416,1,4,0:0:0:0:
256,192,192785,1,4,0:0:0:0:
256,192,193031,1,0,0:0:0:0:
256,192,193153,1,8,0:0:0:0:
256,192,193276,1,0,0:0:0:0:
256,192,193399,1,0,0:0:0:0:
256,192,193461,1,0,0:0:0:0:
256,192,193522,1,8,0:0:0:0:
256,192,193604,1,8,0:0:0:0:
256,192,193686,1,8,0:0:0:0:
256,192,193768,1,8,0:0:0:0:
256,192,193850,1,8,0:0:0:0:
256,192,193932,1,8,0:0:0:0:
256,192,194014,1,0,0:0:0:0:
256,192,194383,1,0,0:0:0:0:
256,192,194629,1,0,0:0:0:0:
256,192,194690,1,0,0:0:0:0:
256,192,194752,1,8,0:0:0:0:
256,192,194875,1,0,0:0:0:0:
256,192,194998,1,0,0:0:0:0:
256,192,195121,1,8,0:0:0:0:
256,192,195244,1,0,0:0:0:0:
256,192,195367,1,0,0:0:0:0:
256,192,195490,1,8,0:0:0:0:
256,192,195613,1,8,0:0:0:0:
256,192,195735,1,8,0:0:0:0:
256,192,195858,1,8,0:0:0:0:
256,192,195981,1,0,0:0:0:0:
256,192,196350,1,0,0:0:0:0:
256,192,196473,1,8,0:0:0:0:
256,192,196719,1,0,0:0:0:0:
256,192,197088,1,0,0:0:0:0:
256,192,197334,1,0,0:0:0:0:
256,192,197395,1,0,0:0:0:0:
256,192,197457,1,8,0:0:0:0:
256,192,197580,1,8,0:0:0:0:
256,192,197703,1,0,0:0:0:0:
256,192,197826,1,0,0:0:0:0:
256,192,197949,1,0,0:0:0:0:
256,192,198317,1,0,0:0:0:0:
256,192,198440,1,8,0:0:0:0:
256,192,198686,1,0,0:0:0:0:
256,192,199055,1,0,0:0:0:0:
256,192,199178,1,0,0:0:0:0:
256,192,199301,1,0,0:0:0:0:
256,192,199363,1,0,0:0:0:0:
256,192,199424,1,8,0:0:0:0:
256,192,199547,1,0,0:0:0:0:
256,192,199670,1,0,0:0:0:0:
256,192,199793,1,0,0:0:0:0:
256,192,199916,1,8,0:0:0:0:
256,192,200039,1,0,0:0:0:0:
256,192,200162,1,8,0:0:0:0:
256,192,200408,1,8,0:0:0:0:
256,192,200653,1,8,0:0:0:0:
256,192,200776,1,0,0:0:0:0:
256,192,200899,1,8,0:0:0:0:
256,192,201145,1,8,0:0:0:0:
256,192,201391,1,8,0:0:0:0:
256,192,201514,1,0,0:0:0:0:
256,192,201637,1,8,0:0:0:0:
256,192,201760,1,8,0:0:0:0:
256,192,201883,1,0,0:0:0:0:
256,192,202252,1,0,0:0:0:0:
256,192,202621,12,0,203727,0:0:0:0:
256,192,203850,5,4,0:0:0:0:
256,192,205326,1,12,0:0:0:0:
256,192,205817,1,4,0:0:0:0:
256,192,207293,1,12,0:0:0:0:
256,192,207785,1,4,0:0:0:0:
256,192,209260,1,0,0:0:0:0:
256,192,209629,1,12,0:0:0:0:
256,192,209875,1,0,0:0:0:0:
256,192,209936,1,0,0:0:0:0:
256,192,209998,1,8,0:0:0:0:
256,192,210121,1,0,0:0:0:0:
256,192,210182,1,0,0:0:0:0:
256,192,210244,1,8,0:0:0:0:
256,192,210367,1,0,0:0:0:0:
256,192,210428,1,0,0:0:0:0:
256,192,210490,1,8,0:0:0:0:
256,192,210613,1,0,0:0:0:0:
256,192,210674,1,0,0:0:0:0:
256,192,210735,1,8,0:0:0:0:
256,192,210817,1,0,0:0:0:0:
256,192,210899,1,0,0:0:0:0:
256,192,210981,1,8,0:0:0:0:
256,192,211063,1,0,0:0:0:0:
256,192,211145,1,0,0:0:0:0:
256,192,211227,1,8,0:0:0:0:
256,192,211309,1,0,0:0:0:0:
256,192,211391,1,0,0:0:0:0:
256,192,211473,1,8,0:0:0:0:
256,192,211555,1,8,0:0:0:0:
256,192,211637,1,8,0:0:0:0:
256,192,211719,1,0,0:0:0:0:
256,192,211965,1,0,0:0:0:0:
256,192,212088,1,8,0:0:0:0:
256,192,212211,1,0,0:0:0:0:
256,192,212334,1,0,0:0:0:0:
256,192,212457,1,8,0:0:0:0:
256,192,212580,1,0,0:0:0:0:
256,192,212826,1,0,0:0:0:0:
256,192,212887,1,0,0:0:0:0:
256,192,212949,1,8,0:0:0:0:
256,192,213072,1,0,0:0:0:0:
256,192,213133,1,0,0:0:0:0:
256,192,213194,1,8,0:0:0:0:
256,192,213317,1,0,0:0:0:0:
256,192,213379,1,0,0:0:0:0:
256,192,213440,1,8,0:0:0:0:
256,192,213563,1,0,0:0:0:0:
256,192,213686,1,0,0:0:0:0:
256,192,213932,1,0,0:0:0:0:
256,192,214055,1,8,0:0:0:0:
256,192,214178,1,0,0:0:0:0:
256,192,214301,1,0,0:0:0:0:
256,192,214424,1,8,0:0:0:0:
256,192,214547,1,0,0:0:0:0:
256,192,214793,1,0,0:0:0:0:
256,192,214854,1,0,0:0:0:0:
256,192,214916,1,8,0:0:0:0:
256,192,215039,1,0,0:0:0:0:
256,192,215100,1,0,0:0:0:0:
256,192,215162,1,8,0:0:0:0:
256,192,215285,1,0,0:0:0:0:
256,192,215346,1,0,0:0:0:0:
256,192,215408,1,8,0:0:0:0:
256,192,215531,1,0,0:0:0:0:
256,192,215653,1,0,0:0:0:0:
256,192,215899,1,0,0:0:0:0:
256,192,216022,1,8,0:0:0:0:
256,192,216145,1,0,0:0:0:0:
256,192,216268,1,0,0:0:0:0:
256,192,216391,1,8,0:0:0:0:
256,192,216514,1,0,0:0:0:0:
256,192,216760,1,0,0:0:0:0:
256,192,216883,1,8,0:0:0:0:
256,192,217006,1,0,0:0:0:0:
256,192,217129,1,8,0:0:0:0:
256,192,217211,1,0,0:0:0:0:
256,192,217293,1,0,0:0:0:0:
256,192,217375,1,8,0:0:0:0:
256,192,217457,1,0,0:0:0:0:
256,192,217539,1,0,0:0:0:0:
256,192,217621,1,0,0:0:0:0:
256,192,217867,1,8,0:0:0:0:
256,192,217990,1,8,0:0:0:0:
256,192,218113,1,0,0:0:0:0:
256,192,218235,1,0,0:0:0:0:
256,192,218358,1,8,0:0:0:0:
256,192,218481,1,8,0:0:0:0:
256,192,218604,1,0,0:0:0:0:
256,192,218727,1,0,0:0:0:0:
256,192,218789,1,0,0:0:0:0:
256,192,218850,1,8,0:0:0:0:
256,192,218973,1,0,0:0:0:0:
256,192,219096,1,8,0:0:0:0:
256,192,219178,1,0,0:0:0:0:
256,192,219260,1,8,0:0:0:0:
256,192,219342,1,0,0:0:0:0:
256,192,219424,1,8,0:0:0:0:
256,192,219506,1,0,0:0:0:0:
256,192,219588,1,0,0:0:0:0:
256,192,219834,1,8,0:0:0:0:
256,192,219957,1,0,0:0:0:0:
256,192,220203,1,0,0:0:0:0:
256,192,220264,1,0,0:0:0:0:
256,192,220326,1,8,0:0:0:0:
256,192,220694,1,0,0:0:0:0:
256,192,220817,1,8,0:0:0:0:
256,192,221063,1,0,0:0:0:0:
256,192,221186,1,0,0:0:0:0:
256,192,221309,1,8,0:0:0:0:
256,192,221555,1,0,0:0:0:0:
256,192,221801,1,8,0:0:0:0:
256,192,221924,1,0,0:0:0:0:
256,192,222170,1,0,0:0:0:0:
256,192,222293,1,8,0:0:0:0:
256,192,222416,1,0,0:0:0:0:
256,192,222539,1,0,0:0:0:0:
256,192,222621,1,0,0:0:0:0:
256,192,222703,1,0,0:0:0:0:
256,192,222785,1,8,0:0:0:0:
256,192,223031,1,0,0:0:0:0:
256,192,223113,1,0,0:0:0:0:
256,192,223194,1,0,0:0:0:0:
256,192,223276,1,8,0:0:0:0:
256,192,223522,1,0,0:0:0:0:
256,192,223768,1,8,0:0:0:0:
256,192,223891,1,0,0:0:0:0:
256,192,224137,1,0,0:0:0:0:
256,192,224199,1,0,0:0:0:0:
256,192,224260,1,8,0:0:0:0:
256,192,224629,1,0,0:0:0:0:
256,192,224690,1,0,0:0:0:0:
256,192,224752,1,8,0:0:0:0:
256,192,224875,1,0,0:0:0:0:
256,192,224998,1,0,0:0:0:0:
256,192,225121,1,8,0:0:0:0:
256,192,225244,1,0,0:0:0:0:
256,192,225367,1,8,0:0:0:0:
256,192,225613,1,0,0:0:0:0:
256,192,225735,1,8,0:0:0:0:
256,192,225858,1,0,0:0:0:0:
256,192,226104,1,0,0:0:0:0:
256,192,226166,1,0,0:0:0:0:
256,192,226227,1,8,0:0:0:0:
256,192,226350,1,0,0:0:0:0:
256,192,226412,1,0,0:0:0:0:
256,192,226473,1,8,0:0:0:0:
256,192,226596,1,0,0:0:0:0:
256,192,226658,1,0,0:0:0:0:
256,192,226719,1,8,0:0:0:0:
256,192,226842,1,0,0:0:0:0:
256,192,226903,1,0,0:0:0:0:
256,192,226965,1,8,0:0:0:0:
256,192,227047,1,0,0:0:0:0:
256,192,227129,1,0,0:0:0:0:
256,192,227211,1,8,0:0:0:0:
256,192,227293,1,0,0:0:0:0:
256,192,227375,1,0,0:0:0:0:
256,192,227457,1,0,0:0:0:0:
256,192,227703,1,8,0:0:0:0:
256,192,227826,1,0,0:0:0:0:
256,192,227887,1,0,0:0:0:0:
256,192,227949,1,8,0:0:0:0:
256,192,228072,1,0,0:0:0:0:
256,192,228194,1,8,0:0:0:0:
256,192,228317,1,0,0:0:0:0:
256,192,228378,1,0,0:0:0:0:
256,192,228440,1,8,0:0:0:0:
256,192,228563,1,0,0:0:0:0:
256,192,228686,1,8,0:0:0:0:
256,192,228809,1,0,0:0:0:0:
256,192,228870,1,0,0:0:0:0:
256,192,228932,1,8,0:0:0:0:
256,192,229055,1,0,0:0:0:0:
256,192,229116,1,0,0:0:0:0:
256,192,229178,1,8,0:0:0:0:
256,192,229301,1,0,0:0:0:0:
256,192,229362,1,0,0:0:0:0:
256,192,229423,1,8,0:0:0:0:
256,192,229546,1,0,0:0:0:0:
256,192,229669,1,8,0:0:0:0:
256,192,229792,1,0,0:0:0:0:
256,192,229854,1,0,0:0:0:0:
256,192,229915,1,8,0:0:0:0:
256,192,230038,1,0,0:0:0:0:
256,192,230161,1,8,0:0:0:0:
256,192,230284,1,0,0:0:0:0:
256,192,230346,1,0,0:0:0:0:
256,192,230407,1,8,0:0:0:0:
256,192,230530,1,0,0:0:0:0:
256,192,230653,1,8,0:0:0:0:
256,192,230776,1,0,0:0:0:0:
256,192,230837,1,0,0:0:0:0:
256,192,230899,1,8,0:0:0:0:
256,192,231022,1,0,0:0:0:0:
256,192,231083,1,0,0:0:0:0:
256,192,231145,1,8,0:0:0:0:
256,192,231268,1,0,0:0:0:0:
256,192,231329,1,0,0:0:0:0:
256,192,231391,1,8,0:0:0:0:
256,192,231514,1,0,0:0:0:0:
256,192,231637,1,8,0:0:0:0:
256,192,231760,1,0,0:0:0:0:
256,192,231821,1,0,0:0:0:0:
256,192,231883,1,8,0:0:0:0:
256,192,232005,1,0,0:0:0:0:
256,192,232128,1,8,0:0:0:0:
256,192,232251,1,0,0:0:0:0:
256,192,232313,1,0,0:0:0:0:
256,192,232374,1,8,0:0:0:0:
256,192,232497,1,0,0:0:0:0:
256,192,232620,1,8,0:0:0:0:
256,192,232743,1,0,0:0:0:0:
256,192,232805,1,0,0:0:0:0:
256,192,232866,1,8,0:0:0:0:
256,192,232989,1,0,0:0:0:0:
256,192,233051,1,0,0:0:0:0:
256,192,233112,1,8,0:0:0:0:
256,192,233235,1,0,0:0:0:0:
256,192,233296,1,0,0:0:0:0:
256,192,233358,1,8,0:0:0:0:
256,192,233481,1,0,0:0:0:0:
256,192,233542,1,0,0:0:0:0:
256,192,233604,1,8,0:0:0:0:
256,192,233665,1,0,0:0:0:0:
256,192,233727,1,0,0:0:0:0:
256,192,233850,1,8,0:0:0:0:
256,192,233911,1,0,0:0:0:0:
256,192,233973,1,0,0:0:0:0:
256,192,234034,1,0,0:0:0:0:
256,192,234096,1,8,0:0:0:0:
256,192,234219,1,0,0:0:0:0:
256,192,234281,1,0,0:0:0:0:
256,192,234342,1,8,0:0:0:0:
256,192,234403,1,0,0:0:0:0:
256,192,234465,1,0,0:0:0:0:
256,192,234588,1,8,0:0:0:0:
256,192,234650,1,0,0:0:0:0:
256,192,234711,1,0,0:0:0:0:
256,192,234834,1,8,0:0:0:0:
256,192,234895,1,0,0:0:0:0:
256,192,234957,1,8,0:0:0:0:
256,192,235080,1,8,0:0:0:0:
256,192,235142,1,0,0:0:0:0:
256,192,235203,1,8,0:0:0:0:
256,192,235326,1,0,0:0:0:0:
256,192,235572,1,8,0:0:0:0:
256,192,235818,1,0,0:0:0:0:
256,192,235941,1,0,0:0:0:0:
256,192,236064,1,8,0:0:0:0:
256,192,236187,1,0,0:0:0:0:
256,192,236433,1,0,0:0:0:0:
256,192,236556,1,8,0:0:0:0:
256,192,236679,1,0,0:0:0:0:
256,192,236802,1,0,0:0:0:0:
256,192,237293,1,4,0:0:0:0:
256,192,237785,1,4,0:0:0:0:
256,192,238153,1,0,0:0:0:0:
256,192,238276,1,8,0:0:0:0:
256,192,238399,1,8,0:0:0:0:
256,192,238522,1,8,0:0:0:0:
256,192,238645,1,0,0:0:0:0:
256,192,238768,1,8,0:0:0:0:
256,192,238850,1,0,0:0:0:0:
256,192,238932,1,8,0:0:0:0:
256,192,239014,1,0,0:0:0:0:
256,192,239096,1,8,0:0:0:0:
256,192,239178,1,0,0:0:0:0:
256,192,239260,1,0,0:0:0:0:
256,192,239506,1,0,0:0:0:0:
256,192,239629,1,0,0:0:0:0:
256,192,239752,1,8,0:0:0:0:
256,192,239998,1,0,0:0:0:0:
256,192,240244,1,0,0:0:0:0:
256,192,240735,1,12,0:0:0:0:
256,192,241719,1,12,0:0:0:0:
256,192,242457,1,0,0:0:0:0:
256,192,242703,1,8,0:0:0:0:
256,192,242785,1,0,0:0:0:0:
256,192,242867,1,0,0:0:0:0:
256,192,242949,1,0,0:0:0:0:
256,192,243031,1,0,0:0:0:0:
256,192,243113,1,0,0:0:0:0:
256,192,243195,1,8,0:0:0:0:
256,192,243277,1,0,0:0:0:0:
256,192,243359,1,0,0:0:0:0:
256,192,243441,1,0,0:0:0:0:
256,192,243523,1,0,0:0:0:0:
256,192,243605,1,0,0:0:0:0:
256,192,243687,1,8,0:0:0:0:
256,192,243769,1,0,0:0:0:0:
256,192,243851,1,0,0:0:0:0:
256,192,243933,1,8,0:0:0:0:
256,192,244015,1,0,0:0:0:0:
256,192,244097,1,0,0:0:0:0:
256,192,244179,1,8,0:0:0:0:
256,192,244547,1,12,0:0:0:0:
256,192,244791,1,8,0:0:0:0:
256,192,244914,1,0,0:0:0:0:
256,192,245038,1,0,0:0:0:0:
256,192,245161,1,8,0:0:0:0:
256,192,245284,1,0,0:0:0:0:
256,192,245530,1,0,0:0:0:0:
256,192,245776,1,0,0:0:0:0:
256,192,246022,1,0,0:0:0:0:
256,192,246145,1,8,0:0:0:0:
256,192,246268,1,0,0:0:0:0:
256,192,246514,1,0,0:0:0:0:
256,192,246760,1,8,0:0:0:0:
256,192,246882,1,0,0:0:0:0:
256,192,247005,1,0,0:0:0:0:
256,192,247128,1,8,0:0:0:0:
256,192,247251,1,0,0:0:0:0:
256,192,247374,1,8,0:0:0:0:
256,192,247497,1,8,0:0:0:0:
256,192,247620,1,0,0:0:0:0:
256,192,247743,1,0,0:0:0:0:
256,192,247989,1,0,0:0:0:0:
256,192,248112,1,8,0:0:0:0:
256,192,248235,1,0,0:0:0:0:
256,192,248481,1,4,0:0:0:0:
256,192,248727,1,8,0:0:0:0:
256,192,248849,1,0,0:0:0:0:
256,192,248973,1,0,0:0:0:0:
256,192,249096,1,8,0:0:0:0:
256,192,249219,1,0,0:0:0:0:
256,192,249464,1,0,0:0:0:0:
256,192,249710,1,0,0:0:0:0:
256,192,249956,1,0,0:0:0:0:
256,192,250079,1,8,0:0:0:0:
256,192,250202,1,0,0:0:0:0:
256,192,250448,1,8,0:0:0:0:
256,192,250571,1,0,0:0:0:0:
256,192,250633,1,0,0:0:0:0:
256,192,250694,1,8,0:0:0:0:
256,192,250817,1,8,0:0:0:0:
256,192,250940,1,0,0:0:0:0:
256,192,251001,1,0,0:0:0:0:
256,192,251063,1,8,0:0:0:0:
256,192,251309,1,8,0:0:0:0:
256,192,251432,1,0,0:0:0:0:
256,192,251678,1,0,0:0:0:0:
256,192,251800,1,0,0:0:0:0:
256,192,251923,1,0,0:0:0:0:
256,192,251985,1,0,0:0:0:0:
256,192,252046,1,8,0:0:0:0:
256,192,252292,1,8,0:0:0:0:
256,192,252415,1,4,0:0:0:0:
256,192,252661,1,0,0:0:0:0:
256,192,252784,1,8,0:0:0:0:
256,192,252907,1,0,0:0:0:0:
256,192,253030,1,0,0:0:0:0:
256,192,253092,1,0,0:0:0:0:
256,192,253153,1,0,0:0:0:0:
256,192,253276,1,8,0:0:0:0:
256,192,253399,1,0,0:0:0:0:
256,192,253645,1,0,0:0:0:0:
256,192,253768,1,8,0:0:0:0:
256,192,253891,1,0,0:0:0:0:
256,192,253952,1,0,0:0:0:0:
256,192,254014,1,0,0:0:0:0:
256,192,254137,1,0,0:0:0:0:
256,192,254260,1,8,0:0:0:0:
256,192,254383,1,0,0:0:0:0:
256,192,254628,1,0,0:0:0:0:
256,192,254751,1,8,0:0:0:0:
256,192,254874,1,0,0:0:0:0:
256,192,254997,1,0,0:0:0:0:
256,192,255059,1,0,0:0:0:0:
256,192,255120,1,0,0:0:0:0:
256,192,255243,1,8,0:0:0:0:
256,192,255366,1,0,0:0:0:0:
256,192,255612,1,0,0:0:0:0:
256,192,255673,1,0,0:0:0:0:
256,192,255735,1,8,0:0:0:0:
256,192,255858,1,0,0:0:0:0:
256,192,255981,1,8,0:0:0:0:
256,192,256104,1,0,0:0:0:0:
256,192,256165,1,0,0:0:0:0:
256,192,256227,1,8,0:0:0:0:
256,192,256350,1,0,0:0:0:0:
256,192,256596,1,0,0:0:0:0:
256,192,256719,1,8,0:0:0:0:
256,192,256780,1,0,0:0:0:0:
256,192,256842,1,0,0:0:0:0:
256,192,257087,1,0,0:0:0:0:
256,192,257149,1,0,0:0:0:0:
256,192,257210,1,8,0:0:0:0:
256,192,257333,1,0,0:0:0:0:
256,192,257579,1,0,0:0:0:0:
256,192,257702,1,8,0:0:0:0:
256,192,257764,1,0,0:0:0:0:
256,192,257825,1,0,0:0:0:0:
256,192,258071,1,0,0:0:0:0:
256,192,258133,1,0,0:0:0:0:
256,192,258194,1,8,0:0:0:0:
256,192,258317,1,0,0:0:0:0:
256,192,258563,1,0,0:0:0:0:
256,192,258686,1,8,0:0:0:0:
256,192,258809,1,0,0:0:0:0:
256,192,259055,1,0,0:0:0:0:
256,192,259178,1,8,0:0:0:0:
256,192,259301,1,0,0:0:0:0:
256,192,259546,1,0,0:0:0:0:
256,192,259669,1,8,0:0:0:0:
256,192,259792,1,0,0:0:0:0:
256,192,259915,1,8,0:0:0:0:
256,192,260038,1,0,0:0:0:0:
256,192,260161,1,8,0:0:0:0:
256,192,260284,1,8,0:0:0:0:
