osu file format v14

[General]
AudioFilename: Hanatan - Kagerou Variation.mp3
AudioLeadIn: 0
PreviewTime: 20900
Countdown: 0
SampleSet: Normal
StackLeniency: 0.7
Mode: 1
LetterboxInBreaks: 0
WidescreenStoryboard: 0

[Editor]
Bookmarks: 195963
DistanceSpacing: 1.7
BeatDivisor: 4
GridSize: 32
TimelineZoom: 1

[Metadata]
Title:Kagerou - Variation
TitleUnicode:影炎≒Variation
Artist:Hanatan
ArtistUnicode:Hanatan
Creator:bananannian
Version:Futsuu
Source:
Tags:vocaloid IA
BeatmapID:617627
BeatmapSetID:268607

[Difficulty]
HPDrainRate:3
CircleSize:5
OverallDifficulty:3
ApproachRate:5
SliderMultiplier:1.4
SliderTickRate:1

[Events]
//Background and Video events
Video,0,"Hanatan - Kagerou Variation.avi"
0,0,"maxresdefault.jpg",0,0
//Break Periods
2,155854,162323
//Storyboard Layer 0 (Background)
//Storyboard Layer 1 (Fail)
//Storyboard Layer 2 (Pass)
//Storyboard Layer 3 (Foreground)
//Storyboard Sound Samples

[TimingPoints]
8114,491.803278688525,4,1,0,100,1,0
61228,-66.6666666666667,4,1,0,100,0,1
84835,-100,4,1,0,100,0,0
132048,-66.6666666666667,4,1,0,100,0,1
155654,-100,4,1,0,100,0,0
163523,-66.6666666666667,4,1,0,100,0,0
188113,491.803278688525,4,1,0,100,1,0
203850,-66.6666666666667,4,1,0,100,0,0
205326,-66.6666666666667,4,1,0,100,0,1
205817,-66.6666666666667,4,1,0,100,0,0
207293,-66.6666666666667,4,1,0,100,0,1
207785,-66.6666666666667,4,1,0,100,0,0
209506,-66.6666666666667,4,1,0,100,0,1
244670,245.901639344262,4,1,0,100,1,0
244731,-133.333333333333,4,1,0,100,0,0

[HitObjects]
256,192,10081,5,4,0:0:0:0:
256,192,10572,1,12,0:0:0:0:
256,192,11064,1,4,0:0:0:0:
256,192,11556,1,4,0:0:0:0:
256,192,11925,1,12,0:0:0:0:
256,192,12540,1,0,0:0:0:0:
256,192,13031,1,0,0:0:0:0:
256,192,13523,1,12,0:0:0:0:
256,192,14015,1,4,0:0:0:0:
256,192,14507,1,8,0:0:0:0:
256,192,15244,1,0,0:0:0:0:
256,192,15490,1,8,0:0:0:0:
256,192,15982,1,0,0:0:0:0:
256,192,16474,1,8,0:0:0:0:
256,192,17212,1,0,0:0:0:0:
256,192,17458,1,8,0:0:0:0:
256,192,17949,1,0,0:0:0:0:
256,192,18441,1,8,0:0:0:0:
256,192,19179,1,0,0:0:0:0:
256,192,19425,1,8,0:0:0:0:
256,192,19917,1,0,0:0:0:0:
256,192,20408,1,8,0:0:0:0:
256,192,20654,1,0,0:0:0:0:
256,192,21146,1,0,0:0:0:0:
256,192,21392,1,8,0:0:0:0:
256,192,21884,1,4,0:0:0:0:
256,192,22376,1,8,0:0:0:0:
256,192,23113,1,0,0:0:0:0:
256,192,23359,1,8,0:0:0:0:
256,192,23851,1,0,0:0:0:0:
256,192,24343,1,8,0:0:0:0:
256,192,25081,1,0,0:0:0:0:
256,192,25326,1,8,0:0:0:0:
256,192,25818,1,0,0:0:0:0:
256,192,26311,1,8,0:0:0:0:
256,192,27048,1,0,0:0:0:0:
256,192,27294,1,8,0:0:0:0:
256,192,27785,1,0,0:0:0:0:
256,192,28277,1,8,0:0:0:0:
256,192,28523,1,0,0:0:0:0:
256,192,29015,1,0,0:0:0:0:
256,192,29261,1,12,0:0:0:0:
256,192,29753,1,4,0:0:0:0:
256,192,30736,1,0,0:0:0:0:
256,192,31228,1,8,0:0:0:0:
256,192,31720,1,0,0:0:0:0:
256,192,32703,1,0,0:0:0:0:
256,192,33195,1,8,0:0:0:0:
256,192,33687,1,0,0:0:0:0:
256,192,34671,1,0,0:0:0:0:
256,192,35162,1,8,0:0:0:0:
256,192,35654,1,8,0:0:0:0:
256,192,35900,1,8,0:0:0:0:
256,192,36146,1,8,0:0:0:0:
256,192,36391,1,8,0:0:0:0:
256,192,36638,1,8,0:0:0:0:
256,192,37130,1,8,0:0:0:0:
256,192,37621,1,4,0:0:0:0:
256,192,38605,1,0,0:0:0:0:
256,192,39097,1,8,0:0:0:0:
256,192,39589,1,0,0:0:0:0:
256,192,40572,1,0,0:0:0:0:
256,192,41064,1,8,0:0:0:0:
256,192,41556,1,0,0:0:0:0:
256,192,42540,1,0,0:0:0:0:
256,192,43032,1,0,0:0:0:0:
256,192,43277,1,0,0:0:0:0:
256,192,43524,1,12,0:0:0:0:
256,192,44015,1,12,0:0:0:0:
256,192,44507,1,12,0:0:0:0:
256,192,45490,1,4,0:0:0:0:
256,192,46965,1,12,0:0:0:0:
256,192,47211,1,12,0:0:0:0:
256,192,47458,1,4,0:0:0:0:
256,192,48933,1,12,0:0:0:0:
256,192,49425,1,4,0:0:0:0:
256,192,50900,1,12,0:0:0:0:
256,192,51146,1,12,0:0:0:0:
256,192,51391,1,4,0:0:0:0:
256,192,52376,1,0,0:0:0:0:
256,192,52868,1,8,0:0:0:0:
256,192,53113,1,8,0:0:0:0:
256,192,53359,1,4,0:0:0:0:
256,192,53851,1,8,0:0:0:0:
256,192,54097,1,0,0:0:0:0:
256,192,54588,1,0,0:0:0:0:
256,192,54834,1,8,0:0:0:0:
256,192,55326,1,0,0:0:0:0:
256,192,55818,1,8,0:0:0:0:
256,192,56063,1,0,0:0:0:0:
256,192,56555,1,0,0:0:0:0:
256,192,56801,1,8,0:0:0:0:
256,192,57047,1,0,0:0:0:0:
256,192,57293,1,0,0:0:0:0:
256,192,58031,1,0,0:0:0:0:
256,192,58770,1,0,0:0:0:0:
256,192,59261,12,0,60736,0:0:0:0:
256,192,61228,5,4,0:0:0:0:
256,192,61720,1,0,0:0:0:0:
256,192,62212,1,0,0:0:0:0:
256,192,62703,1,8,0:0:0:0:
256,192,63195,1,0,0:0:0:0:
256,192,63687,1,0,0:0:0:0:
256,192,64179,1,0,0:0:0:0:
256,192,64671,1,8,0:0:0:0:
256,192,65162,1,0,0:0:0:0:
256,192,65654,1,0,0:0:0:0:
256,192,66146,1,0,0:0:0:0:
256,192,66638,1,0,0:0:0:0:
256,192,67007,1,8,0:0:0:0:
256,192,67376,1,8,0:0:0:0:
256,192,67868,1,8,0:0:0:0:
256,192,68359,1,0,0:0:0:0:
256,192,68605,1,8,0:0:0:0:
256,192,68851,1,8,0:0:0:0:
256,192,69097,1,0,0:0:0:0:
256,192,69589,1,0,0:0:0:0:
256,192,70081,1,0,0:0:0:0:
256,192,70572,1,8,0:0:0:0:
256,192,70818,1,8,0:0:0:0:
256,192,71064,1,0,0:0:0:0:
256,192,71556,1,0,0:0:0:0:
256,192,72048,1,0,0:0:0:0:
256,192,72539,1,8,0:0:0:0:
256,192,72785,1,8,0:0:0:0:
256,192,73031,1,0,0:0:0:0:
256,192,73523,1,0,0:0:0:0:
256,192,74015,1,0,0:0:0:0:
256,192,74508,1,8,0:0:0:0:
256,192,74754,1,8,0:0:0:0:
256,192,74999,1,8,0:0:0:0:
256,192,75490,1,0,0:0:0:0:
256,192,75982,1,8,0:0:0:0:
256,192,76475,1,8,0:0:0:0:
256,192,76967,1,0,0:0:0:0:
256,192,77458,1,8,0:0:0:0:
256,192,77949,1,0,0:0:0:0:
256,192,78442,1,8,0:0:0:0:
256,192,78933,1,0,0:0:0:0:
256,192,79425,1,0,0:0:0:0:
256,192,79794,1,8,0:0:0:0:
256,192,80163,1,8,0:0:0:0:
256,192,80409,1,8,0:0:0:0:
256,192,80654,1,0,0:0:0:0:
256,192,80900,1,0,0:0:0:0:
256,192,81392,1,8,0:0:0:0:
256,192,81884,1,0,0:0:0:0:
256,192,82376,1,12,0:0:0:0:
256,192,82745,1,12,0:0:0:0:
256,192,83113,12,0,84343,0:0:0:0:
256,192,84835,5,4,0:0:0:0:
256,192,85327,1,8,0:0:0:0:
256,192,86064,1,0,0:0:0:0:
256,192,86310,1,8,0:0:0:0:
256,192,86802,1,0,0:0:0:0:
256,192,87294,1,8,0:0:0:0:
256,192,88032,1,0,0:0:0:0:
256,192,88278,1,8,0:0:0:0:
256,192,88769,1,0,0:0:0:0:
256,192,89261,1,8,0:0:0:0:
256,192,89999,1,0,0:0:0:0:
256,192,90245,1,8,0:0:0:0:
256,192,90737,1,0,0:0:0:0:
256,192,91228,1,8,0:0:0:0:
256,192,91474,1,0,0:0:0:0:
256,192,91966,1,0,0:0:0:0:
256,192,92212,1,8,0:0:0:0:
256,192,92704,1,4,0:0:0:0:
256,192,93196,1,8,0:0:0:0:
256,192,93933,1,0,0:0:0:0:
256,192,94179,1,8,0:0:0:0:
256,192,94671,1,0,0:0:0:0:
256,192,95163,1,8,0:0:0:0:
256,192,95901,1,0,0:0:0:0:
256,192,96146,1,8,0:0:0:0:
256,192,96638,1,0,0:0:0:0:
256,192,97131,1,8,0:0:0:0:
256,192,97868,1,0,0:0:0:0:
256,192,98114,1,8,0:0:0:0:
256,192,98605,1,0,0:0:0:0:
256,192,99097,1,8,0:0:0:0:
256,192,99343,1,0,0:0:0:0:
256,192,99835,1,4,0:0:0:0:
256,192,100081,1,12,0:0:0:0:
256,192,100572,1,4,0:0:0:0:
256,192,101064,1,8,0:0:0:0:
256,192,101433,1,8,0:0:0:0:
256,192,101802,1,0,0:0:0:0:
256,192,102048,1,8,0:0:0:0:
256,192,102540,1,0,0:0:0:0:
256,192,103031,1,8,0:0:0:0:
256,192,103523,1,8,0:0:0:0:
256,192,104015,1,8,0:0:0:0:
256,192,104507,1,0,0:0:0:0:
256,192,104999,1,8,0:0:0:0:
256,192,105367,1,8,0:0:0:0:
256,192,105982,1,8,0:0:0:0:
256,192,106351,1,0,0:0:0:0:
256,192,106720,1,0,0:0:0:0:
256,192,106966,1,0,0:0:0:0:
256,192,107458,1,0,0:0:0:0:
256,192,107949,1,0,0:0:0:0:
256,192,108441,1,4,0:0:0:0:
256,192,109425,1,0,0:0:0:0:
256,192,109917,1,8,0:0:0:0:
256,192,110409,1,0,0:0:0:0:
256,192,111392,1,0,0:0:0:0:
256,192,111884,1,8,0:0:0:0:
256,192,112376,1,0,0:0:0:0:
256,192,113360,1,0,0:0:0:0:
256,192,113852,1,0,0:0:0:0:
256,192,114097,1,0,0:0:0:0:
256,192,114344,1,12,0:0:0:0:
256,192,114835,1,12,0:0:0:0:
256,192,115327,1,12,0:0:0:0:
256,192,116310,1,4,0:0:0:0:
256,192,117785,1,12,0:0:0:0:
256,192,118031,1,12,0:0:0:0:
256,192,118278,1,4,0:0:0:0:
256,192,119753,1,12,0:0:0:0:
256,192,120245,1,4,0:0:0:0:
256,192,121720,1,12,0:0:0:0:
256,192,121966,1,12,0:0:0:0:
256,192,122211,1,4,0:0:0:0:
256,192,123196,1,0,0:0:0:0:
256,192,123688,1,8,0:0:0:0:
256,192,123933,1,8,0:0:0:0:
256,192,124179,1,4,0:0:0:0:
256,192,124671,1,8,0:0:0:0:
256,192,124917,1,0,0:0:0:0:
256,192,125408,1,0,0:0:0:0:
256,192,125654,1,8,0:0:0:0:
256,192,126146,1,0,0:0:0:0:
256,192,126638,1,8,0:0:0:0:
256,192,126883,1,0,0:0:0:0:
256,192,127375,1,0,0:0:0:0:
256,192,127621,1,8,0:0:0:0:
256,192,127867,1,8,0:0:0:0:
256,192,128113,1,4,0:0:0:0:
256,192,128605,1,0,0:0:0:0:
256,192,129097,1,4,0:0:0:0:
256,192,129589,1,0,0:0:0:0:
256,192,130081,2,0,L|256:160,18,23.3333333333333
256,192,132048,5,4,0:0:0:0:
256,192,132540,1,0,0:0:0:0:
256,192,133032,1,0,0:0:0:0:
256,192,133523,1,8,0:0:0:0:
256,192,134015,1,0,0:0:0:0:
256,192,134507,1,0,0:0:0:0:
256,192,134999,1,0,0:0:0:0:
256,192,135491,1,8,0:0:0:0:
256,192,135982,1,0,0:0:0:0:
256,192,136474,1,0,0:0:0:0:
256,192,136966,1,0,0:0:0:0:
256,192,137458,1,8,0:0:0:0:
256,192,137704,1,8,0:0:0:0:
256,192,138196,1,8,0:0:0:0:
256,192,138688,1,8,0:0:0:0:
256,192,139179,1,0,0:0:0:0:
256,192,139425,1,8,0:0:0:0:
256,192,139671,1,8,0:0:0:0:
256,192,139917,1,0,0:0:0:0:
256,192,140409,1,0,0:0:0:0:
256,192,140901,1,0,0:0:0:0:
256,192,141392,1,8,0:0:0:0:
256,192,141638,1,8,0:0:0:0:
256,192,141884,1,0,0:0:0:0:
256,192,142376,1,0,0:0:0:0:
256,192,142868,1,0,0:0:0:0:
256,192,143359,1,8,0:0:0:0:
256,192,143605,1,8,0:0:0:0:
256,192,143851,1,0,0:0:0:0:
256,192,144343,1,0,0:0:0:0:
256,192,144835,1,0,0:0:0:0:
256,192,145326,1,8,0:0:0:0:
256,192,145572,1,8,0:0:0:0:
256,192,145818,1,0,0:0:0:0:
256,192,146310,1,8,0:0:0:0:
256,192,146802,1,8,0:0:0:0:
256,192,147295,1,8,0:0:0:0:
256,192,147785,1,0,0:0:0:0:
256,192,148278,1,8,0:0:0:0:
256,192,148769,1,0,0:0:0:0:
256,192,149262,1,8,0:0:0:0:
256,192,149753,1,0,0:0:0:0:
256,192,150245,1,0,0:0:0:0:
256,192,150613,1,8,0:0:0:0:
256,192,150983,1,8,0:0:0:0:
256,192,151229,1,8,0:0:0:0:
256,192,151474,1,0,0:0:0:0:
256,192,151720,1,0,0:0:0:0:
256,192,152212,1,8,0:0:0:0:
256,192,152704,1,0,0:0:0:0:
256,192,153196,1,12,0:0:0:0:
256,192,153564,1,12,0:0:0:0:
256,192,154179,12,0,155654,0:0:0:0:
256,192,163523,5,0,0:0:0:0:
256,192,164015,1,8,0:0:0:0:
256,192,164507,1,0,0:0:0:0:
256,192,164999,1,8,0:0:0:0:
256,192,165244,1,8,0:0:0:0:
256,192,165490,1,0,0:0:0:0:
256,192,165982,1,8,0:0:0:0:
256,192,166474,1,0,0:0:0:0:
256,192,166966,1,8,0:0:0:0:
256,192,167212,1,8,0:0:0:0:
256,192,167458,1,0,0:0:0:0:
256,192,167949,1,8,0:0:0:0:
256,192,168441,1,0,0:0:0:0:
256,192,168933,1,8,0:0:0:0:
256,192,169179,1,8,0:0:0:0:
256,192,169425,1,0,0:0:0:0:
256,192,169917,1,8,0:0:0:0:
256,192,170408,1,0,0:0:0:0:
256,192,170900,1,8,0:0:0:0:
256,192,171146,1,8,0:0:0:0:
256,192,171392,1,0,0:0:0:0:
256,192,171638,1,0,0:0:0:0:
256,192,172130,1,0,0:0:0:0:
256,192,172621,1,8,0:0:0:0:
256,192,172867,1,8,0:0:0:0:
256,192,173113,1,8,0:0:0:0:
256,192,173359,1,0,0:0:0:0:
256,192,173851,1,0,0:0:0:0:
256,192,174343,1,0,0:0:0:0:
256,192,174589,1,8,0:0:0:0:
256,192,174835,1,8,0:0:0:0:
256,192,175081,1,8,0:0:0:0:
256,192,175326,1,0,0:0:0:0:
256,192,175572,1,0,0:0:0:0:
256,192,176064,1,0,0:0:0:0:
256,192,176556,1,0,0:0:0:0:
256,192,177048,1,0,0:0:0:0:
256,192,177294,1,0,0:0:0:0:
256,192,177662,1,0,0:0:0:0:
256,192,178031,1,0,0:0:0:0:
256,192,178400,1,0,0:0:0:0:
256,192,178769,1,12,0:0:0:0:
256,192,179261,1,0,0:0:0:0:
256,192,179999,1,0,0:0:0:0:
256,192,180736,1,8,0:0:0:0:
256,192,181228,1,0,0:0:0:0:
256,192,181966,1,0,0:0:0:0:
256,192,182703,1,8,0:0:0:0:
256,192,183195,1,0,0:0:0:0:
256,192,183933,1,0,0:0:0:0:
256,192,184671,1,0,0:0:0:0:
256,192,185408,1,0,0:0:0:0:
256,192,186146,2,0,L|256:96,9,70
256,192,188113,1,4,0:0:0:0:
256,192,189588,1,12,0:0:0:0:
256,192,189834,1,12,0:0:0:0:
256,192,190081,1,4,0:0:0:0:
256,192,191556,1,12,0:0:0:0:
256,192,192048,1,4,0:0:0:0:
256,192,193523,1,12,0:0:0:0:
256,192,193769,1,12,0:0:0:0:
256,192,194014,1,4,0:0:0:0:
256,192,194999,1,0,0:0:0:0:
256,192,195491,1,8,0:0:0:0:
256,192,195736,1,8,0:0:0:0:
256,192,195982,1,4,0:0:0:0:
256,192,196474,1,8,0:0:0:0:
256,192,196720,1,0,0:0:0:0:
256,192,197211,1,0,0:0:0:0:
256,192,197457,1,8,0:0:0:0:
256,192,197949,1,0,0:0:0:0:
256,192,198441,1,8,0:0:0:0:
256,192,198686,1,0,0:0:0:0:
256,192,199178,1,0,0:0:0:0:
256,192,199424,1,8,0:0:0:0:
256,192,199670,1,0,0:0:0:0:
256,192,199916,1,0,0:0:0:0:
256,192,200654,1,0,0:0:0:0:
256,192,201391,1,0,0:0:0:0:
256,192,201884,12,0,203359,0:0:0:0:
256,192,203850,5,0,0:0:0:0:
256,192,205326,1,12,0:0:0:0:
256,192,205817,1,0,0:0:0:0:
256,192,207293,1,12,0:0:0:0:
256,192,207785,1,0,0:0:0:0:
256,192,209260,1,0,0:0:0:0:
256,192,209629,1,12,0:0:0:0:
256,192,209998,1,0,0:0:0:0:
256,192,210244,1,8,0:0:0:0:
256,192,210490,1,0,0:0:0:0:
256,192,210735,1,8,0:0:0:0:
256,192,210981,1,0,0:0:0:0:
256,192,211227,1,8,0:0:0:0:
256,192,211719,1,0,0:0:0:0:
256,192,212211,1,0,0:0:0:0:
256,192,212703,1,0,0:0:0:0:
256,192,213194,1,8,0:0:0:0:
256,192,213440,1,8,0:0:0:0:
256,192,213686,1,0,0:0:0:0:
256,192,214178,1,0,0:0:0:0:
256,192,214670,1,0,0:0:0:0:
256,192,215162,1,8,0:0:0:0:
256,192,215408,1,8,0:0:0:0:
256,192,215653,1,0,0:0:0:0:
256,192,216145,1,0,0:0:0:0:
256,192,216637,1,0,0:0:0:0:
256,192,217129,1,0,0:0:0:0:
256,192,217375,1,8,0:0:0:0:
256,192,217621,1,8,0:0:0:0:
256,192,218113,1,8,0:0:0:0:
256,192,218604,1,0,0:0:0:0:
256,192,219096,1,8,0:0:0:0:
256,192,219588,5,4,0:0:0:0:
256,192,220080,1,0,0:0:0:0:
256,192,220572,1,0,0:0:0:0:
256,192,221063,1,8,0:0:0:0:
256,192,221309,1,8,0:0:0:0:
256,192,221555,1,0,0:0:0:0:
256,192,222047,1,0,0:0:0:0:
256,192,222539,1,0,0:0:0:0:
256,192,223031,1,8,0:0:0:0:
256,192,223276,1,8,0:0:0:0:
256,192,223522,1,0,0:0:0:0:
256,192,224014,1,0,0:0:0:0:
256,192,224506,1,0,0:0:0:0:
256,192,224998,1,0,0:0:0:0:
256,192,225367,1,8,0:0:0:0:
256,192,225736,1,8,0:0:0:0:
256,192,226228,1,8,0:0:0:0:
256,192,226719,1,0,0:0:0:0:
256,192,226965,1,8,0:0:0:0:
256,192,227211,1,8,0:0:0:0:
256,192,227457,1,0,0:0:0:0:
256,192,227949,1,8,0:0:0:0:
256,192,228194,1,0,0:0:0:0:
256,192,228686,1,0,0:0:0:0:
256,192,228932,1,8,0:0:0:0:
256,192,229178,1,8,0:0:0:0:
256,192,229424,1,0,0:0:0:0:
256,192,229916,1,8,0:0:0:0:
256,192,230162,1,0,0:0:0:0:
256,192,230653,1,0,0:0:0:0:
256,192,230899,1,8,0:0:0:0:
256,192,231145,1,8,0:0:0:0:
256,192,231391,1,0,0:0:0:0:
256,192,231883,1,8,0:0:0:0:
256,192,232129,1,0,0:0:0:0:
256,192,232621,1,0,0:0:0:0:
256,192,232868,1,8,0:0:0:0:
256,192,233114,1,8,0:0:0:0:
256,192,233359,1,8,0:0:0:0:
256,192,233850,1,0,0:0:0:0:
256,192,234096,1,0,0:0:0:0:
256,192,234342,1,8,0:0:0:0:
256,192,234588,1,0,0:0:0:0:
256,192,234835,1,8,0:0:0:0:
256,192,235326,1,0,0:0:0:0:
256,192,235817,1,8,0:0:0:0:
256,192,236310,1,0,0:0:0:0:
256,192,236801,1,8,0:0:0:0:
256,192,237294,1,4,0:0:0:0:
256,192,237786,1,4,0:0:0:0:
256,192,238153,1,12,0:0:0:0:
256,192,238522,1,8,0:0:0:0:
256,192,238768,1,8,0:0:0:0:
256,192,239015,1,0,0:0:0:0:
256,192,239261,1,0,0:0:0:0:
256,192,239753,1,8,0:0:0:0:
256,192,240245,1,0,0:0:0:0:
256,192,240735,1,12,0:0:0:0:
256,192,241719,1,12,0:0:0:0:
256,192,242703,1,12,0:0:0:0:
256,192,243194,1,12,0:0:0:0:
256,192,243686,1,12,0:0:0:0:
256,192,244178,1,12,0:0:0:0:
256,192,244547,1,12,0:0:0:0:
256,192,245162,1,0,0:0:0:0:
256,192,245899,1,0,0:0:0:0:
256,192,246145,1,8,0:0:0:0:
256,192,246637,1,0,0:0:0:0:
256,192,247129,1,8,0:0:0:0:
256,192,247867,1,0,0:0:0:0:
256,192,248113,1,8,0:0:0:0:
256,192,248604,1,0,0:0:0:0:
256,192,249096,1,8,0:0:0:0:
256,192,249834,1,0,0:0:0:0:
256,192,250080,1,8,0:0:0:0:
256,192,250572,1,0,0:0:0:0:
256,192,251063,1,8,0:0:0:0:
256,192,251309,1,0,0:0:0:0:
256,192,251801,1,0,0:0:0:0:
256,192,252047,1,8,0:0:0:0:
256,192,252415,1,12,0:0:0:0:
256,192,253031,1,0,0:0:0:0:
256,192,253768,1,0,0:0:0:0:
256,192,254014,1,8,0:0:0:0:
256,192,254506,1,0,0:0:0:0:
256,192,254998,1,8,0:0:0:0:
256,192,255736,1,0,0:0:0:0:
256,192,255981,1,8,0:0:0:0:
256,192,256473,1,0,0:0:0:0:
256,192,256966,1,8,0:0:0:0:
256,192,257703,1,0,0:0:0:0:
256,192,257949,1,8,0:0:0:0:
256,192,258440,1,0,0:0:0:0:
256,192,258932,1,8,0:0:0:0:
256,192,259178,1,0,0:0:0:0:
256,192,259670,1,0,0:0:0:0:
256,192,259916,1,8,0:0:0:0:
256,192,260284,1,12,0:0:0:0:
