osu file format v14

[General]
AudioFilename: kagaribi.mp3
AudioLeadIn: 0
PreviewTime: -1
Countdown: 0
SampleSet: Soft
StackLeniency: 0.7
Mode: 0
LetterboxInBreaks: 1
WidescreenStoryboard: 1

[Editor]
DistanceSpacing: 1.5
BeatDivisor: 8
GridSize: 4
TimelineZoom: 2.399999

[Metadata]
Title:Kagaribi
TitleUnicode:篝火
Artist:Hanatan
ArtistUnicode:✿放たん
Creator:Airachi
Version:Kagaribi
Source:
Tags:japanese hanatan rock metal relaxing
BeatmapID:737773
BeatmapSetID:316636

[Difficulty]
HPDrainRate:6
CircleSize:4
OverallDifficulty:8
ApproachRate:9.2
SliderMultiplier:1.7
SliderTickRate:2

[Events]
//Background and Video events
0,0,"Madoka-Homura-Wings.jpg",0,0
//Break Periods
//Storyboard Layer 0 (Background)
//Storyboard Layer 1 (Fail)
//Storyboard Layer 2 (Pass)
//Storyboard Layer 3 (Foreground)
//Storyboard Sound Samples

[TimingPoints]
4444,550.45871559633,4,2,0,20,1,0
29765,-66.6666666666667,4,2,0,20,0,0
30865,-50,4,1,0,70,0,1
48479,550.45871559633,4,2,0,30,1,0
48479,-100,4,2,0,20,0,0
56735,-100,4,2,0,20,0,0
59488,-100,4,2,0,20,0,0
92515,-66.6666666666667,4,2,0,70,0,0
101323,550.45871559633,4,1,0,70,1,0
104900,-100,4,1,0,70,0,0
106552,-125,4,1,0,70,0,0
107928,-100,4,1,0,70,0,0
110130,-100,4,1,0,70,0,1
145359,-100,4,1,0,70,0,0
153203,-100,4,1,0,70,0,1
209212,550.45871559633,4,2,0,20,1,0
241689,550.45871559633,4,1,0,70,1,1
242239,550.45871559633,4,1,0,70,1,1
246642,-100,4,1,0,70,0,0
249394,-100,4,1,0,70,0,1
292881,-100,4,1,0,70,0,0
301688,-200,4,2,0,15,0,0
311596,-200,4,2,0,15,0,0

[HitObjects]
168,152,4444,5,0,0:0:0:0:
92,188,4719,1,0,0:0:0:0:
160,240,4994,1,0,0:0:0:0:
256,204,5269,1,0,0:0:0:0:
192,104,5544,1,0,0:0:0:0:
64,148,5820,1,0,0:0:0:0:
216,156,6095,1,0,0:0:0:0:
332,60,6370,1,0,0:0:0:0:
348,212,6645,5,0,0:0:0:0:
492,160,6921,1,0,0:0:0:0:
428,300,7196,1,0,0:0:0:0:
408,148,7471,2,0,P|416:96|456:56,1,85
316,68,8021,1,0,0:0:0:0:
332,152,8297,2,0,P|316:208|288:228,1,85
252,152,8847,5,0,0:0:0:0:
204,80,9122,1,0,0:0:0:0:
288,80,9398,1,0,0:0:0:0:
192,40,9673,1,0,0:0:0:0:
292,108,9948,1,0,0:0:0:0:
160,80,10223,1,0,0:0:0:0:
304,28,10499,1,0,0:0:0:0:
408,140,10774,1,0,0:0:0:0:
492,12,11049,5,0,0:0:0:0:
356,80,11324,1,0,0:0:0:0:
204,84,11599,1,0,0:0:0:0:
96,196,11875,1,0,0:0:0:0:
32,40,12150,1,0,0:0:0:0:
216,192,12425,1,0,0:0:0:0:
60,124,12700,1,0,0:0:0:0:
300,156,12976,1,0,0:0:0:0:
300,156,13251,6,0,P|284:240|204:304,1,170
180,176,14077,1,0,0:0:0:0:
96,80,14352,2,0,P|48:136|72:256,1,170
212,168,15177,1,0,0:0:0:0:
304,312,15453,6,0,P|352:316|420:284,1,85
256,200,16003,1,0,0:0:0:0:
432,196,16278,2,0,P|368:244|336:252,1,85
280,224,16829,1,0,0:0:0:0:
232,128,17104,2,0,B|213:108|213:108|152:144|80:96,1,127.5
35,105,17655,6,0,P|79:38|160:47,1,170
128,144,18480,1,0,0:0:0:0:
132,244,18755,1,0,0:0:0:0:
244,284,19031,1,0,0:0:0:0:
204,156,19306,1,0,0:0:0:0:
244,304,19581,1,0,0:0:0:0:
316,152,19856,5,0,0:0:0:0:
440,32,20132,1,0,0:0:0:0:
492,192,20407,1,0,0:0:0:0:
400,336,20682,1,0,0:0:0:0:
400,136,20957,1,0,0:0:0:0:
352,328,21232,1,0,0:0:0:0:
360,92,21508,1,0,0:0:0:0:
272,336,21783,1,0,0:0:0:0:
272,336,22058,6,0,P|224:352|168:320,1,85
116,304,22471,1,0,0:0:0:0:
116,304,22609,1,0,0:0:0:0:
232,248,22884,1,0,0:0:0:0:
40,260,23159,2,0,P|108:232|136:176,1,127.5
168,132,23710,1,0,0:0:0:0:
72,48,23985,1,0,0:0:0:0:
232,112,24260,5,0,0:0:0:0:
232,112,24398,1,0,0:0:0:0:
232,112,24535,1,0,0:0:0:0:
396,64,24810,1,0,0:0:0:0:
228,28,25086,1,0,0:0:0:0:
228,28,25223,1,0,0:0:0:0:
228,28,25361,2,0,P|272:84|300:108,1,85
396,220,25911,2,0,P|356:240|292:240,1,85
324,92,26462,6,0,P|434:76|506:124,1,170
256,192,27150,12,0,29214,0:0:0:0:
256,272,29489,5,0,0:0:0:0:
416,104,29765,1,0,0:0:0:0:
416,104,29833,1,0,0:0:0:0:
416,104,29902,2,0,P|376:136|352:144,1,63.7500024318696
80,172,30315,1,0,0:0:0:0:
80,172,30384,1,0,0:0:0:0:
80,172,30453,2,0,P|124:212|192:216,1,127.500004863739
164,124,30866,6,0,P|136:72|104:36,2,85
128,236,31278,1,0,0:0:0:0:
220,304,31416,2,0,P|276:312|328:300,2,85
128,180,31829,1,0,0:0:0:0:
232,96,31966,2,0,P|280:80|324:96,2,85
136,48,32379,1,0,0:0:0:0:
296,156,32517,2,0,P|296:208|284:244,1,85
196,128,32792,1,0,0:0:0:0:
212,112,32861,1,0,0:0:0:0:
228,100,32930,1,0,0:0:0:0:
248,88,32999,1,0,0:0:0:0:
284,68,33067,6,0,B|312:64|312:64|344:80|384:56,2,85
192,32,33480,1,0,0:0:0:0:
100,124,33618,1,0,0:0:0:0:
152,240,33755,1,0,0:0:0:0:
272,280,33893,2,0,P|316:300|372:304,2,85
392,236,34306,1,0,0:0:0:0:
476,140,34443,2,0,P|420:144|364:112,1,85
296,52,34719,2,0,P|352:36|392:48,2,85
268,76,35063,1,0,0:0:0:0:
232,84,35132,1,0,0:0:0:0:
196,76,35200,1,0,0:0:0:0:
164,56,35269,6,0,P|121:56|81:70,2,85
280,112,35682,1,0,0:0:0:0:
156,144,35820,1,0,0:0:0:0:
268,200,35957,1,0,0:0:0:0:
168,284,36095,2,0,P|108:300|68:300,2,85
288,244,36508,1,0,0:0:0:0:
408,296,36645,1,0,0:0:0:0:
296,180,36783,1,0,0:0:0:0:
468,296,36921,1,0,0:0:0:0:
268,344,37058,1,0,0:0:0:0:
412,184,37196,2,0,P|440:144|440:92,1,85
324,72,37471,6,0,P|288:36|252:24,1,85
184,164,37746,2,0,P|128:160|88:180,1,85
232,268,38021,2,0,P|272:280|320:264,1,85
244,96,38297,2,0,L|216:52,3,42.5
140,40,38572,2,0,L|72:64,3,42.5
120,140,38847,2,0,L|196:164|196:164,3,42.5
204,160,39122,1,0,0:0:0:0:
244,152,39191,1,0,0:0:0:0:
280,132,39260,1,0,0:0:0:0:
308,100,39329,1,0,0:0:0:0:
344,76,39398,1,0,0:0:0:0:
384,76,39466,1,0,0:0:0:0:
420,100,39535,1,0,0:0:0:0:
432,140,39604,1,0,0:0:0:0:
444,180,39673,6,0,P|400:204|368:244,1,85
264,168,39948,2,0,P|224:128|216:96,1,85
24,192,40223,2,0,L|116:192,1,85
200,284,40499,2,0,L|104:284,2,85
296,200,40911,1,0,0:0:0:0:
224,96,41049,2,0,P|179:88|124:96,1,85
188,208,41324,2,0,P|236:216|292:200,1,85
444,48,41599,1,0,0:0:0:0:
412,52,41668,1,0,0:0:0:0:
388,76,41737,1,0,0:0:0:0:
392,108,41806,1,0,0:0:0:0:
400,140,41875,6,0,P|392:184|360:204,1,85
248,140,42150,2,0,P|296:116|332:116,1,85
320,244,42425,2,0,P|248:276|220:264,1,85
128,144,42700,2,0,P|88:112|32:112,2,85
56,248,43113,1,0,0:0:0:0:
56,248,43251,2,0,P|104:280|140:280,1,85
312,172,43526,2,0,L|208:208,1,85
440,32,43801,2,0,L|340:68,1,85
200,128,44077,5,0,0:0:0:0:
336,28,44214,1,0,0:0:0:0:
164,24,44352,1,0,0:0:0:0:
316,96,44489,1,0,0:0:0:0:
192,212,44627,2,0,P|128:204|96:176,1,85
228,68,44902,2,0,P|280:72|312:96,2,85
68,124,45315,1,0,0:0:0:0:
68,124,45453,2,0,P|88:176|120:204,1,85
312,224,45728,2,0,P|295:184|248:144,1,85
444,28,46003,2,0,P|429:67|426:110,1,85
304,332,46278,6,0,P|336:312|360:244,1,85
260,36,46554,2,0,P|192:56|168:96,1,85
64,288,46829,2,0,P|92:304|160:292,1,85
336,132,47104,2,0,P|296:108|224:112,1,85
52,68,47379,2,0,P|56:120|76:136,3,42.5
64,148,47655,1,0,0:0:0:0:
92,180,47723,1,0,0:0:0:0:
132,196,47792,1,0,0:0:0:0:
176,192,47861,1,0,0:0:0:0:
208,220,47930,1,0,0:0:0:0:
252,224,47999,1,0,0:0:0:0:
292,216,48067,1,0,0:0:0:0:
324,188,48136,1,0,0:0:0:0:
348,152,48205,6,0,B|375:203|424:236|424:236|440:240|443:173|443:173|436:180,1,170
