osu file format v14

[General]
AudioFilename: hana.mp3
AudioLeadIn: 0
PreviewTime: 56307
Countdown: 0
SampleSet: Normal
StackLeniency: 0.7
Mode: 0
LetterboxInBreaks: 0
WidescreenStoryboard: 0

[Editor]
Bookmarks: 8807,12807,16807,20807,24640,40807,69807,88807
DistanceSpacing: 1
BeatDivisor: 3
GridSize: 4
TimelineZoom: 1

[Metadata]
Title:Jishou Mushoku
TitleUnicode:自傷無色
Artist:Hanatan
ArtistUnicode:花たん
Creator:Moo-Chan
Version:Easy
Source:
Tags:nekobolo hatsune miku utaite vocaloid achromatic nicovideo self inflicted yurica ユリカ pishifat rakuen smug- vhy cut
BeatmapID:569231
BeatmapSetID:239627

[Difficulty]
HPDrainRate:2
CircleSize:3
OverallDifficulty:1.5
ApproachRate:2.5
SliderMultiplier:1.1
SliderTickRate:1

[Events]
//Background and Video events
0,0,"bg.jpg",0,0
//Break Periods
//Storyboard Layer 0 (Background)
//Storyboard Layer 1 (Fail)
//Storyboard Layer 2 (Pass)
//Storyboard Layer 3 (Foreground)
//Storyboard Sound Samples

[TimingPoints]
807,500,4,1,1,80,1,0
12807,-100,4,1,1,55,0,0
16807,-100,4,1,1,70,0,0
21307,-100,4,1,1,55,0,0
23807,-100,4,1,1,60,0,0
24307,-100,4,1,1,65,0,0
54807,-100,4,1,1,70,0,0
56807,-90.9090909090909,4,2,1,80,0,1
56907,-90.9090909090909,4,1,1,80,0,1
70807,-90.9090909090909,4,1,1,80,0,1
71807,-90.9090909090909,4,1,1,80,0,0
72807,-90.9090909090909,4,2,1,80,0,1
73307,-90.9090909090909,4,1,1,80,0,1
88307,-90.9090909090909,4,1,1,80,0,0
88807,-90.9090909090909,4,2,1,80,0,1
88973,-90.9090909090909,4,1,1,80,0,0

[Colours]
Combo1 : 250,187,255
Combo2 : 185,242,255
Combo3 : 210,174,162
Combo4 : 128,255,128

[HitObjects]
280,124,8807,6,0,P|220:136|176:192,1,110,6|2,0:0|0:0,0:0:0:0:
272,238,9807,2,0,P|363:202|378:67,1,220,8|2,0:0|0:0,0:0:0:0:
308,16,11307,1,2,0:0:0:0:
201,41,11807,2,0,P|129:73|105:121,1,110,8|2,0:0|0:0,0:0:0:0:
93,205,12807,5,2,0:0:0:0:
195,245,13307,1,2,0:0:0:0:
286,184,13807,2,0,L|346:72,1,110,8|2,0:0|0:0,0:0:0:0:
442,121,14807,2,0,L|390:217,1,110,2|2,0:0|0:0,0:0:0:0:
331,311,15807,1,8,0:0:0:0:
221,302,16307,1,2,0:0:0:0:
284,212,16807,6,0,P|260:164|272:100,1,110,2|2,0:0|0:0,0:0:0:0:
352,40,17807,1,8,0:0:0:0:
247,7,18307,1,2,0:0:0:0:
180,94,18807,2,0,P|128:106|64:74,2,110,2|2|8,0:0|0:0|0:0,0:0:0:0:
289,85,20307,2,0,P|345:78|400:117,1,110,2|2,0:0|0:0,0:0:0:0:
434,204,21307,5,2,0:0:0:0:
362,287,21807,2,0,P|318:335|266:343,1,110,8|2,0:0|0:0,0:0:0:0:
170,313,22807,2,0,P|193:267|250:237,1,110,2|2,0:0|0:0,0:0:0:0:
343,194,23807,1,8,0:0:0:0:
439,141,24307,1,2,0:0:0:0:
339,94,24807,6,0,P|283:111|248:155,1,110,6|2,0:0|0:0,0:0:0:0:
143,125,25807,2,0,P|171:69|235:39,1,110,8|2,0:0|0:0,0:0:0:0:
316,17,26807,2,0,P|376:23|417:83,2,110,2|2|8,0:0|0:0|0:0,0:0:0:0:
123,123,28807,6,0,L|151:251,1,110,2|2,0:0|0:0,0:0:0:0:
207,322,29807,2,0,P|263:334|319:302,1,110,8|2,0:0|0:0,0:0:0:0:
294,203,30807,2,0,P|351:208|397:243,2,110,2|2|0,0:0|0:0|0:0,0:0:0:0:
134,51,32807,6,0,P|86:123|118:267,1,220,2|8,0:0|0:0,0:0:0:0:
192,316,34307,2,0,P|216:268|204:208,1,110,2|2,0:0|0:0,0:0:0:0:
190,105,35307,2,0,P|246:108|302:155,2,110,2|8|2,0:0|0:0|0:0,0:0:0:0:
93,158,36807,6,0,L|93:282,2,110,2|2|8,0:0|0:0|0:0,0:0:0:0:
145,61,38307,2,0,P|201:41|269:57,2,110,2|2|2,0:0|0:0|0:0,0:0:0:0:
41,98,39807,2,0,P|73:147|143:172,1,110,8|2,0:0|0:0,0:0:0:0:
228,172,40807,5,6,0:0:0:0:
278,74,41307,1,2,0:0:0:0:
382,110,41807,1,8,0:0:0:0:
362,218,42307,1,2,0:0:0:0:
267,274,42807,2,0,L|159:353,2,110,0|0|8,0:0|0:0|0:0,0:0:0:0:
362,218,44307,1,0,0:0:0:0:
273,153,44807,6,0,P|321:113|390:116,2,110
168,186,46307,1,0,0:0:0:0:
169,76,46807,2,0,P|45:80|33:172,1,220,2|8,0:0|0:0,0:0:0:0:
98,239,48307,1,2,0:0:0:0:
204,267,48807,6,0,L|332:283,1,110,2|2,0:0|0:0,0:0:0:0:
417,246,49807,1,8,0:0:0:0:
454,142,50307,1,2,0:0:0:0:
377,63,50807,2,0,P|329:31|257:47,1,110,2|2,0:0|0:0,0:0:0:0:
201,113,51807,2,0,P|254:143|321:136,1,110,8|2,0:0|0:0,0:0:0:0:
377,63,52807,5,2,0:0:0:0:
441,152,53307,1,2,0:0:0:0:
379,243,53807,2,0,P|335:271|259:251,1,110,8|10,0:0|0:0,0:0:0:0:
193,197,54807,2,0,P|241:161|319:168,1,110,10|8,0:0|0:0,0:0:0:0:
371,231,55807,1,12,0:0:0:0:
219,52,56807,6,0,P|96:80|36:204,2,242.000007385254,6|8|2,0:0|0:0|0:0,0:0:0:0:
338,71,59307,1,2,0:0:0:0:
407,170,59807,2,0,P|334:191|275:175,1,121.000003692627,8|2,0:0|0:0,0:0:0:0:
240,72,60807,6,0,P|192:108|168:192,2,121.000003692627,2|2|8,0:0|0:0|0:0,0:0:0:0:
352,117,62307,2,0,L|376:269,1,121.000003692627,2|2,0:0|0:0,0:0:0:0:
297,333,63307,2,0,P|213:353|165:337,2,121.000003692627,2|8|2,0:0|0:0|0:0,0:0:0:0:
229,233,64806,6,0,P|169:225|101:249,1,121.000003692627,2|2,0:0|0:0,0:0:0:0:
33,335,65807,1,8,0:0:0:0:
14,215,66307,1,2,0:0:0:0:
65,105,66807,2,0,L|168:-13,2,121.000003692627,2|2|8,0:0|0:0|0:0,0:0:0:0:
14,215,68307,2,0,P|78:225|153:188,1,121.000003692627,2|2,0:0|0:0,0:0:0:0:
226,133,69307,5,2,0:0:0:0:
322,206,69807,1,8,0:0:0:0:
295,324,70307,1,2,0:0:0:0:
176,300,70807,2,0,P|120:264|108:204,1,121.000003692627,2|2,0:0|0:0,0:0:0:0:
28,122,71807,2,0,P|159:105|228:201,1,242.000007385254,8|4,0:0|0:0,0:0:0:0:
284,285,73307,6,0,P|214:299|148:275,1,121.000003692627,2|8,0:0|0:0,0:0:0:0:
97,187,74307,1,0,0:0:0:0:
24,90,74807,1,0,0:0:0:0:
0,209,75307,2,0,P|34:265|109:284,1,121.000003692627,0|8,0:0|0:0,0:0:0:0:
201,313,76307,1,0,0:0:0:0:
291,232,76807,5,0,0:0:0:0:
222,132,77307,2,0,P|182:176|179:270,2,121.000003692627,2|8|2,0:0|0:0|0:0,0:0:0:0:
343,132,78807,2,0,L|397:262,1,121.000003692627,2|2,0:0|0:0,0:0:0:0:
418,361,79807,1,8,0:0:0:0:
297,366,80307,1,2,0:0:0:0:
239,259,80807,6,0,P|213:192|163:170,1,121.000003692627,2|2,0:0|0:0,0:0:0:0:
52,190,81807,2,0,P|73:245|126:286,1,121.000003692627,8|2,0:0|0:0,0:0:0:0:
239,259,82807,1,2,0:0:0:0:
319,168,83307,1,2,0:0:0:0:
260,61,83807,2,0,P|190:29|132:47,1,121.000003692627,8|2,0:0|0:0,0:0:0:0:
61,121,84807,6,0,L|82:263,1,121.000003692627,2|10,0:0|0:0,0:0:0:0:
193,280,85807,2,0,L|171:137,1,121.000003692627,8|10,0:0|0:0,0:0:0:0:
211,44,86807,6,0,P|267:78|297:141,1,121.000003692627,10|10,0:0|0:0,0:0:0:0:
380,210,87807,2,0,P|328:240|252:236,1,121.000003692627,8|2,0:0|0:0,0:0:0:0:
176,163,88807,5,4,0:0:0:0:
