osu file format v14

[General]
AudioFilename: Hanatan - If.MP3
AudioLeadIn: 0
PreviewTime: 229958
Countdown: 0
SampleSet: Soft
StackLeniency: 0.7
Mode: 0
LetterboxInBreaks: 0
WidescreenStoryboard: 0

[Editor]
DistanceSpacing: 1.4
BeatDivisor: 4
GridSize: 4
TimelineZoom: 2.599999

[Metadata]
Title:If
TitleUnicode:If
Artist:Hanatan
ArtistUnicode:花たん
Creator:Rakuen
Version:wkyik's Insane
Source:
Tags:Flower ユリカ YURiCa Yurika 無力P MuryokuP Vocaloid Megurine Luka Kawaiwkyik kakifly Xinely
BeatmapID:587577
BeatmapSetID:230050

[Difficulty]
HPDrainRate:7
CircleSize:4
OverallDifficulty:7
ApproachRate:9
SliderMultiplier:1.60000000596046
SliderTickRate:1

[Events]
//Background and Video events
0,0,"8eba70d737.jpg",0,0
Video,-10,"If [Hanatan].avi"
//Break Periods
2,128388,134511
2,163004,165521
2,197400,202147
//Storyboard Layer 0 (Background)
//Storyboard Layer 1 (Fail)
//Storyboard Layer 2 (Pass)
//Storyboard Layer 3 (Foreground)
//Storyboard Sound Samples

[TimingPoints]
13958,288.461538461538,3,2,1,60,1,0
20015,-200,3,2,1,60,0,0
20881,-100,3,2,1,60,0,1
34438,-200,3,2,1,60,0,1
34727,-100,3,2,1,60,0,1
45111,-100,3,2,1,60,0,0
45977,-133.333333333333,3,2,1,60,0,0
46842,-100,3,2,1,60,0,0
47707,-133.333333333333,3,2,1,60,0,0
48140,-100,3,2,1,60,0,0
52900,-133.333333333333,3,2,1,60,0,0
53765,-100,3,2,1,60,0,0
54631,-133.333333333333,3,2,1,60,0,0
55063,-100,3,2,1,60,0,0
103957,-100,3,2,1,60,0,1
128188,-100,3,2,1,60,0,0
142034,-100,3,2,1,60,0,1
162804,-100,3,2,1,60,0,0
183555,275.229357798165,4,2,1,60,1,0
184655,303.030303030303,4,2,1,40,1,0
185867,309.278350515464,4,2,1,20,1,0
186485,333.333333333333,4,2,1,20,1,8
187151,359.281437125748,4,2,1,20,1,8
187510,355.029585798817,4,2,1,20,1,0
187510,-133.333333333333,4,2,1,20,0,0
188532,340.909090909091,4,2,1,20,1,8
188872,337.078651685393,4,2,1,20,1,0
189209,-133.333333333333,4,2,1,20,0,0
191231,428.571428571429,3,2,1,20,1,0
191231,-133.333333333333,3,2,1,20,0,0
191659,410.958904109589,3,2,1,20,1,8
191659,-133.333333333333,3,2,1,20,0,0
192069,526.315789473684,3,2,1,20,1,8
192797,359.281437125748,3,2,1,20,1,0
192797,-133.333333333333,3,2,1,20,0,0
193515,487.80487804878,3,2,1,20,1,0
194978,740.740740740741,3,2,1,20,1,0
197200,824.515597086712,3,2,1,20,1,0
202147,319.148936170213,3,2,1,20,1,0
202785,306.122448979592,3,2,1,20,1,0
202785,-200,3,2,1,20,0,0
228516,288.461538461538,3,2,1,60,1,0
230246,-100,3,2,1,70,0,1
271785,-100,3,2,1,70,0,0
275246,-100,3,2,1,70,0,1
282169,-100,3,2,1,70,0,0
282241,-100,3,2,1,10,0,0

[Colours]
Combo1 : 128,64,0
Combo2 : 157,255,255
Combo3 : 255,243,179
Combo4 : 170,0,0

[HitObjects]
88,60,13813,5,0,0:0:0:0:
88,60,13885,1,0,0:0:0:0:
88,60,13958,2,0,P|108:112|120:248,1,160.000000596046,4|0,0:0|0:0,0:0:0:0:
122,214,14390,1,0,0:0:0:0:
232,332,14534,2,0,P|224:280|220:240,1,80.000000298023,8|0,0:0|0:0,0:0:0:0:
348,244,14823,2,0,P|331:194|320:155,1,80.000000298023,8|0,0:0|0:0,0:0:0:0:
448,140,15111,2,0,P|422:93|405:57,1,80.000000298023,8|0,0:0|0:0,0:0:0:0:
224,112,15400,2,0,L|184:114|144:116,1,80.000000298023,8|0,0:0|0:0,0:0:0:0:
96,324,15688,6,0,P|156:296|272:304,1,160.000000596046,4|0,0:0|0:0,0:0:0:0:
248,296,16121,1,0,0:0:0:0:
224,112,16265,2,0,P|208:164|208:216,1,80.000000298023,8|0,0:0|0:0,0:0:0:0:
288,272,16554,2,0,P|304:220|304:168,1,80.000000298023,8|0,0:0|0:0,0:0:0:0:
200,28,16842,2,0,P|160:65|134:110,1,80.000000298023,8|0,0:0|0:0,0:0:0:0:
312,356,17131,2,0,P|351:318|377:273,1,80.000000298023,8|0,0:0|0:0,0:0:0:0:
383,115,17419,6,0,B|335:95|279:131|224:112,1,160.000000596046,4|0,0:0|0:0,0:0:0:0:
224,112,17852,1,0,0:0:0:0:
436,192,17996,2,0,P|472:144|472:92,1,80.000000298023,8|0,0:0|0:0,0:0:0:0:
424,24,18284,2,0,P|364:16|319:42,1,80.000000298023,8|0,0:0|0:0,0:0:0:0:
280,120,18573,2,0,P|303:175|348:201,1,80.000000298023,8|0,0:0|0:0,0:0:0:0:
288,336,18861,2,0,P|240:328|188:328,1,80.000000298023,8|0,0:0|0:0,0:0:0:0:
64,216,19150,6,0,P|136:220|256:232,1,160.000000596046,4|0,0:0|0:0,0:0:0:0:
288,336,19582,1,0,0:0:0:0:
280,120,19727,2,0,P|256:180|248:216,1,80.000000298023,8|0,0:0|0:0,0:0:0:0:
384,372,20015,6,2,B|404:316|404:316|360:224,1,160.000000596046,2|0,0:0|0:0,0:0:0:0:
360,225,20881,6,0,B|360:176|392:120|392:120|432:172,1,160.000000596046,4|0,0:0|0:0,0:0:0:0:
404,332,21313,2,0,P|348:340|260:280,1,160.000000596046
187,303,21746,2,0,P|227:302|263:286,1,80.000000298023,8|0,0:0|0:0,0:0:0:0:
352,212,22034,2,0,P|370:176|375:137,1,80.000000298023,0|0,0:0|0:0,0:0:0:0:
236,60,22323,2,0,P|241:99|259:134,1,80.000000298023,8|0,0:0|0:0,0:0:0:0:
420,296,22611,6,0,P|456:256|472:128,1,160.000000596046,4|0,0:0|0:0,0:0:0:0:
352,212,23044,2,0,P|320:256|200:260,1,160.000000596046
272,88,23477,2,0,L|256:184,1,80.000000298023,8|0,0:0|0:0,0:0:0:0:
308,360,23765,2,0,L|294:281,1,80.000000298023
434,217,24054,2,0,L|418:313,1,80.000000298023,8|0,0:0|0:0,0:0:0:0:
168,336,24342,6,0,B|120:324|120:324|248:300,1,160.000000596046,4|0,0:0|0:0,0:0:0:0:
428,308,24775,2,0,B|460:320|460:320|328:348,1,160.000000596046,0|0,0:0|0:0,0:0:0:0:
360,164,25207,2,0,P|348:204|360:268,1,80.000000298023,8|0,0:0|0:0,0:0:0:0:
448,44,25496,2,0,P|450:83|438:121,1,80.000000298023,0|0,0:0|0:0,0:0:0:0:
296,100,25784,1,8,0:0:0:0:
360,164,25929,1,0,0:0:0:0:
216,148,26073,6,0,P|200:96|272:12,1,160.000000596046,4|0,0:0|0:0,0:0:0:0:
268,240,26506,2,0,L|100:232,1,160.000000596046
344,284,26938,2,0,P|356:246|347:207,1,80.000000298023,8|0,0:0|0:0,0:0:0:0:
188,192,27227,2,0,P|175:229|184:268,1,80.000000298023,8|0,0:0|0:0,0:0:0:0:
292,376,27515,1,0,0:0:0:0:
412,360,27659,1,0,0:0:0:0:
448,244,27804,6,0,L|464:52,1,160.000000596046,4|0,0:0|0:0,0:0:0:0:
312,196,28236,2,0,L|325:355,1,160.000000596046
194,113,28669,2,0,L|187:192,1,80.000000298023,8|0,0:0|0:0,0:0:0:0:
194,271,28957,2,0,L|187:191,1,80.000000298023,0|0,0:0|0:0,0:0:0:0:
168,32,29246,1,8,0:0:0:0:
104,116,29390,1,0,0:0:0:0:
284,104,29534,6,0,L|464:88,1,160.000000596046,4|0,0:0|0:0,0:0:0:0:
512,176,29967,2,0,L|332:192,1,160.000000596046,0|0,0:0|0:0,0:0:0:0:
304,328,30400,2,0,P|352:340|416:320,1,80.000000298023,8|0,0:0|0:0,0:0:0:0:
268,140,30688,2,0,P|256:188|276:252,1,80.000000298023,0|0,0:0|0:0,0:0:0:0:
428,240,30977,2,0,P|440:192|420:128,1,80.000000298023,8|0,0:0|0:0,0:0:0:0:
384,72,31265,5,4,0:0:0:0:
284,44,31409,1,0,0:0:0:0:
152,164,31554,2,0,L|268:156,1,80.000000298023
428,240,31842,1,0,0:0:0:0:
328,212,31986,1,0,0:0:0:0:
196,332,32131,6,0,L|312:324,1,80.000000298023,8|0,0:0|0:0,0:0:0:0:
120,256,32419,2,0,L|68:360,1,80.000000298023
224,228,32707,2,0,L|159:131,1,80.000000298023,8|0,0:0|0:0,0:0:0:0:
76,104,32996,5,4,0:0:0:0:
76,104,33140,1,8,0:0:0:0:
436,280,33429,1,4,0:0:0:0:
436,280,33573,1,8,0:0:0:0:
204,48,33861,5,12,0:0:0:0:
180,124,34006,1,8,0:3:0:0:
332,124,34150,1,8,0:0:0:0:
308,48,34294,1,4,0:0:0:0:
256,200,34438,6,2,L|256:264,1,60.0000002235172,2|0,0:0|0:0,0:0:0:0:
256,300,34727,6,0,P|224:336|124:304,1,160.000000596046,4|0,0:0|0:0,0:0:0:0:
288,208,35159,2,0,L|456:224,1,160.000000596046
400,60,35592,2,0,L|372:156,1,80.000000298023,8|0,0:0|0:0,0:0:0:0:
384,308,35881,2,0,L|304:300,1,80.000000298023
177,192,36169,2,0,L|256:199,1,80.000000298023,8|0,0:0|0:0,0:0:0:0:
136,344,36457,6,0,P|84:356|-4:272,1,160.000000596046,4|0,0:0|0:0,0:0:0:0:
105,107,36890,2,0,P|115:185|88:260,1,160.000000596046
52,40,37323,6,0,P|88:24|140:32,1,80.000000298023,8|0,0:0|0:0,0:0:0:0:
216,108,37611,2,0,P|252:124|291:121,1,80.000000298023,0|0,0:0|0:0,0:0:0:0:
396,60,37900,2,0,P|412:96|409:135,1,80.000000298023,8|0,0:0|0:0,0:0:0:0:
312,352,38188,6,0,L|332:180,1,160.000000596046,4|0,0:0|0:0,0:0:0:0:
216,108,38621,2,0,L|234:266,1,160.000000596046,0|0,0:0|0:0,0:0:0:0:
120,164,39054,6,0,L|129:243,1,80.000000298023,8|0,0:0|0:0,0:0:0:0:
288,136,39342,2,0,L|278:215,1,80.000000298023,0|0,0:0|0:0,0:0:0:0:
436,88,39631,2,0,L|445:167,1,80.000000298023,8|0,0:0|0:0,0:0:0:0:
284,56,39919,6,0,B|312:40|312:40|368:72|456:40,1,160.000000596046,4|0,0:0|0:0,0:0:0:0:
376,180,40352,2,0,B|348:196|348:196|292:164|204:196,1,160.000000596046
148,284,40784,5,8,0:0:0:0:
148,284,40929,1,0,0:0:0:0:
320,336,41073,2,0,P|304:284|272:256,1,80.000000298023,8|0,0:0|0:0,0:0:0:0:
140,192,41361,2,0,P|156:244|188:272,1,80.000000298023,8|0,0:0|0:0,0:0:0:0:
328,120,41650,6,0,P|304:88|180:88,1,160.000000596046,4|0,0:0|0:0,0:0:0:0:
308,236,42082,2,0,L|476:220,1,160.000000596046
380,52,42515,6,0,L|364:160,1,80.000000298023,8|0,0:0|0:0,0:0:0:0:
308,236,42804,1,0,0:0:0:0:
256,144,42948,1,0,0:0:0:0:
204,344,43092,2,0,L|283:332,1,80.000000298023,8|0,0:0|0:0,0:0:0:0:
467,260,43381,6,0,L|291:233,1,160.000000596046,4|0,0:0|0:0,0:0:0:0:
256,144,43813,2,0,P|220:184|204:228,1,80.000000298023
204,344,44102,1,0,0:0:0:0:
96,208,44246,6,0,P|116:264|116:320,1,80.000000298023,8|0,0:0|0:0,0:0:0:0:
256,144,44534,2,0,P|210:182|182:230,1,80.000000298023
64,88,44823,2,0,P|122:98|170:126,1,80.000000298023,8|0,0:0|0:0,0:0:0:0:
204,344,45111,5,4,0:0:0:0:
204,344,45256,2,0,P|176:312|192:204,1,160.000000596046,4|0,0:0|0:0,0:0:0:0:
284,156,45688,1,0,0:0:0:0:
412,164,45832,1,0,0:0:0:0:
408,256,45977,6,0,B|376:228|344:276|344:276|320:228|320:228|220:296|164:204,1,300.000012561679,8|0,0:0|0:0,0:0:0:0:
196,120,46842,5,0,0:0:0:0:
196,120,46986,2,0,P|176:212|152:280,1,160.000000596046,4|0,0:0|0:0,0:0:0:0:
36,332,47419,2,0,P|28:284|28:236,1,80.000000298023
36,60,47707,6,0,B|48:88|48:88|44:140|44:140|72:176,1,120.000005024671,8|0,0:0|0:0,0:0:0:0:
140,132,48140,5,0,0:0:0:0:
166,114,48212,1,0,0:0:0:0:
197,107,48284,1,8,0:0:0:0:
229,110,48357,1,8,0:0:0:0:
257,125,48429,1,0,0:0:0:0:
279,147,48501,1,0,0:0:0:0:
293,176,48573,6,0,P|292:240|264:272,2,80.000000298023,4|0|0,0:0|0:0|0:0,0:0:0:0:
204,200,49006,1,0,0:0:0:0:
320,328,49150,1,0,0:0:0:0:
352,108,49294,1,0,0:0:0:0:
292,176,49438,5,8,0:0:0:0:
452,192,49582,1,0,0:0:0:0:
388,44,49727,1,0,0:0:0:0:
388,44,49799,1,0,0:0:0:0:
388,44,49871,1,0,0:0:0:0:
388,44,49943,1,0,0:0:0:0:
388,44,50015,2,0,L|380:116,1,40.0000001490115,8|8,0:0|0:0,0:0:0:0:
292,176,50159,2,0,L|300:104,1,40.0000001490115
192,24,50304,5,0,0:0:0:0:
192,24,50448,2,0,P|204:92|220:220,1,160.000000596046,4|0,0:0|0:0,0:0:0:0:
240,336,50881,2,0,P|244:296|256:248,1,80.000000298023,4|0,0:0|0:0,0:0:0:0:
292,176,51169,5,12,0:0:0:0:
436,144,51313,1,8,0:0:0:0:
392,296,51457,1,8,0:0:0:0:
320,204,51602,1,8,0:0:0:0:
472,228,51746,1,8,0:0:0:0:
324,344,51890,1,8,0:0:0:0:
176,208,52034,5,4,0:0:0:0:
176,208,52179,2,0,B|148:192|136:188|136:188|196:180|284:152,1,160.000000596046
264,328,52611,2,0,L|172:320,1,80.000000298023
112,188,52900,6,0,B|144:160|176:208|176:208|200:160|200:160|300:228|356:136,1,300.000012561679,8|0,0:0|0:0,0:0:0:0:
428,88,53765,5,4,0:0:0:0:
428,88,53909,2,0,P|384:56|276:76,1,160.000000596046
192,132,54342,2,0,L|204:240,1,80.000000298023
336,360,54631,6,0,P|372:356|380:268,1,120.000005024671,8|0,0:0|0:0,0:0:0:0:
252,340,55063,5,0,0:0:0:0:
225,358,55135,1,0,0:0:0:0:
194,365,55207,1,8,0:0:0:0:
163,362,55280,1,8,0:0:0:0:
134,349,55352,1,0,0:0:0:0:
112,326,55424,1,0,0:0:0:0:
98,297,55496,6,0,P|92:248|96:208,1,80.000000298023,4|0,0:0|0:0,0:0:0:0:
120,136,55784,1,0,0:0:0:0:
208,88,55929,2,0,P|214:137|210:177,1,80.000000298023
188,256,56217,1,0,0:0:0:0:
316,296,56361,6,0,L|296:204,1,80.000000298023,8|0,0:0|0:0,0:0:0:0:
124,80,56650,1,0,0:0:0:0:
135,50,56722,1,0,0:0:0:0:
157,27,56794,1,0,0:0:0:0:
185,13,56866,1,0,0:0:0:0:
217,11,56938,1,8,0:0:0:0:
248,20,57010,1,8,0:0:0:0:
272,40,57082,1,0,0:0:0:0:
288,68,57155,1,0,0:0:0:0:
293,99,57227,5,0,0:0:0:0:
197,251,57371,2,0,P|186:172|208:96,1,160.000000596046,12|0,0:0|0:0,0:0:0:0:
360,32,57804,2,0,P|372:96|364:144,1,80.000000298023,12|0,0:0|0:0,0:0:0:0:
352,196,58092,5,12,0:0:0:0:
284,252,58236,1,8,0:0:0:0:
196,252,58381,1,8,0:0:0:0:
96,172,58525,5,8,0:0:0:0:
60,328,58669,1,8,0:0:0:0:
220,352,58813,1,8,0:0:0:0:
192,100,58957,5,8,0:3:0:0:
256,192,59102,12,4,62419,0:0:0:0:
116,136,62563,5,0,0:0:0:0:
116,136,62707,2,0,L|204:124,1,80.000000298023
248,260,62996,2,0,L|168:270,1,80.000000298023
44,196,63284,2,0,P|24:144|76:52,1,160.000000596046,8|0,0:0|0:0,0:0:0:0:
116,136,63717,1,0,0:0:0:0:
116,136,63861,2,0,L|200:128,1,80.000000298023
288,160,64150,5,0,0:0:0:0:
320,72,64294,1,0,0:0:0:0:
192,24,64438,1,0,0:0:0:0:
192,216,64582,2,0,L|376:198,1,160.000000596046
424,252,65015,2,0,P|440:196|428:156,1,80.000000298023,8|0,0:0|0:0,0:0:0:0:
356,108,65304,2,0,P|299:122|270:152,1,80.000000298023
264,248,65592,2,0,P|304:289|345:299,1,80.000000298023,8|0,0:0|0:0,0:0:0:0:
351,200,65881,5,0,0:0:0:0:
351,200,66025,2,0,L|176:188,1,160.000000596046
137,321,66457,2,0,P|131:282|119:244,1,80.000000298023
96,76,66746,2,0,P|102:115|113:153,1,80.000000298023,8|0,0:0|0:0,0:0:0:0:
264,248,67034,2,0,P|204:216|112:252,1,160.000000596046,0|8,0:0|0:0,0:0:0:0:
120,242,67467,1,0,0:0:0:0:
236,360,67611,5,0,0:0:0:0:
236,360,67756,2,0,B|284:368|284:368|400:352,1,160.000000596046,8|0,0:0|0:0,0:0:0:0:
368,184,68188,2,0,L|356:272,1,80.000000298023,8|0,0:0|0:0,0:0:0:0:
456,248,68477,2,0,L|477:89,1,160.000000596046,2|0,0:0|0:0,0:0:0:0:
477,89,68909,1,0,0:0:0:0:
304,32,69054,1,8,0:0:0:0:
304,32,69198,1,8,0:0:0:0:
368,184,69342,6,0,L|378:104,1,80.000000298023,4|0,0:0|0:0,0:0:0:0:
292,128,69631,2,0,L|281:207,1,80.000000298023,0|0,0:0|0:0,0:0:0:0:
432,300,69919,2,0,L|442:220,1,80.000000298023,0|0,0:0|0:0,0:0:0:0:
272,308,70207,2,0,P|312:332|360:328,1,80.000000298023,8|0,0:0|0:0,0:0:0:0:
236,220,70496,2,0,P|192:260|196:364,1,160.000000596046
190,355,70929,1,0,0:0:0:0:
320,176,71073,5,0,0:0:0:0:
320,176,71217,2,0,B|272:168|272:168|216:180|216:180|152:168,1,160.000000596046
132,76,71650,2,0,L|210:89,1,80.000000298023
356,268,71938,2,0,L|277:254,1,80.000000298023,8|0,0:0|0:0,0:0:0:0:
196,284,72227,2,0,P|180:328|188:372,1,80.000000298023,2|0,0:0|0:0,0:0:0:0:
212,192,72515,2,0,P|214:152|199:115,1,80.000000298023,8|0,0:0|0:0,0:0:0:0:
199,115,72804,5,4,0:0:0:0:
284,252,72948,2,0,P|304:192|316:88,1,160.000000596046
292,20,73381,1,0,0:0:0:0:
292,20,73525,1,0,0:0:0:0:
360,304,73669,2,0,P|388:264|404:216,1,80.000000298023,8|0,0:0|0:0,0:0:0:0:
468,108,73957,2,0,P|423:128|385:162,1,80.000000298023
236,160,74246,2,0,P|276:188|324:203,1,80.000000298023,8|0,0:0|0:0,0:0:0:0:
480,216,74534,5,0,0:0:0:0:
480,216,74679,1,8,0:0:0:0:
344,268,74823,1,0,0:0:0:0:
344,268,74967,1,0,0:0:0:0:
304,108,75111,1,8,0:0:0:0:
304,108,75256,1,0,0:0:0:0:
424,272,75400,2,0,L|416:364,1,80.000000298023
384,200,75688,2,0,L|392:108,1,80.000000298023
464,68,75977,1,8,0:0:0:0:
308,196,76121,1,8,0:0:0:0:
444,308,76265,6,0,B|384:300|384:300|336:312|336:312|256:300,1,160.000000596046,4|0,0:0|0:0,0:0:0:0:
286,304,76698,1,0,0:0:0:0:
212,348,76842,2,0,P|200:304|216:256,1,80.000000298023
308,196,77131,1,8,0:0:0:0:
286,304,77275,1,0,0:0:0:0:
216,176,77419,2,0,L|400:144,1,160.000000596046
440,204,77852,1,0,0:0:0:0:
404,312,77996,5,0,0:0:0:0:
373,148,78140,1,0,0:0:0:0:
492,272,78284,1,0,0:0:0:0:
288,272,78429,2,0,L|456:252,1,160.000000596046
272,80,78861,2,0,L|264:180,1,80.000000298023,8|0,0:0|0:0,0:0:0:0:
404,120,79150,2,0,L|404:40,1,80.000000298023
208,4,79438,2,0,P|176:32|148:68,1,80.000000298023,12|0,0:0|0:0,0:0:0:0:
184,244,79727,5,0,0:0:0:0:
184,244,79871,2,0,P|200:196|144:92,1,160.000000596046
152,352,80304,2,0,L|240:344,1,80.000000298023
356,384,80592,2,0,P|364:332|344:284,1,80.000000298023,8|0,0:0|0:0,0:0:0:0:
184,244,80881,2,0,L|272:236,1,80.000000298023
424,288,81169,2,0,L|336:296,1,80.000000298023,8|0,0:0|0:0,0:0:0:0:
288,144,81457,5,0,0:0:0:0:
288,144,81602,2,0,P|304:96|420:80,1,160.000000596046,8|0,0:0|0:0,0:0:0:0:
440,244,82034,2,0,L|320:240,1,120.000000447034,8|0,0:0|0:0,0:0:0:0:
320,240,82323,2,0,P|324:300|324:336,1,80.000000298023,2|0,0:0|0:0,0:0:0:0:
180,180,82611,2,0,P|165:238|159:273,1,80.000000298023,2|0,0:0|0:0,0:0:0:0:
352,80,82900,2,0,P|376:135|388:168,1,80.000000298023,8|8,0:0|0:0,0:0:0:0:
236,292,83188,5,4,0:0:0:0:
236,292,83332,1,0,0:0:0:0:
160,352,83477,2,0,L|52:336,1,80.000000298023
24,232,83765,2,0,L|132:248,1,80.000000298023
180,180,84054,1,8,0:0:0:0:
136,88,84198,1,0,0:0:0:0:
40,204,84342,2,0,P|48:328|48:372,1,160.000000596046
48,363,84775,1,0,0:0:0:0:
160,352,84919,5,0,0:0:0:0:
240,260,85063,1,0,0:0:0:0:
104,172,85207,1,0,0:0:0:0:
168,360,85352,2,0,P|176:308|180:184,1,160.000000596046
228,64,85784,2,0,P|243:100|249:140,1,80.000000298023,8|0,0:0|0:0,0:0:0:0:
308,320,86073,2,0,P|323:283|329:243,1,80.000000298023,0|0,0:0|0:0,0:0:0:0:
380,120,86361,2,0,P|424:104|456:88,1,80.000000298023,12|0,0:0|0:0,0:0:0:0:
364,208,86650,5,0,0:0:0:0:
364,208,86794,2,0,P|308:172|312:64,2,160.000000596046,0|0|0,0:0|0:0|0:0,0:0:0:0:
456,268,87515,2,0,P|468:220|468:168,1,80.000000298023,8|0,0:0|0:0,0:0:0:0:
395,41,87804,2,0,P|383:89|383:141,1,80.000000298023
368,300,88092,2,0,L|280:292,1,80.000000298023,8|0,0:0|0:0,0:0:0:0:
116,360,88381,5,0,0:0:0:0:
116,360,88453,1,0,0:0:0:0:
116,360,88525,2,0,L|195:352,1,80.000000298023,8|0,0:0|0:0,0:0:0:0:
231,152,88813,2,0,P|216:188|221:227,1,80.000000298023,0|8,0:0|0:0,0:0:0:0:
328,204,89102,1,0,0:0:0:0:
288,72,89246,2,0,L|200:64,1,80.000000298023,2|0,0:0|0:0,0:0:0:0:
336,180,89534,2,0,L|424:188,1,80.000000298023
500,140,89823,1,8,0:0:0:0:
368,52,89967,1,8,0:0:0:0:
308,288,90111,6,0,L|316:376,1,80.000000298023,4|0,0:0|0:0,0:0:0:0:
228,344,90400,1,0,0:0:0:0:
156,292,90544,2,0,P|164:240|200:128,1,160.000000596046
272,24,90977,2,0,P|279:63|281:103,1,80.000000298023,8|0,0:0|0:0,0:0:0:0:
320,204,91265,1,0,0:0:0:0:
344,200,91337,1,0,0:0:0:0:
368,196,91409,1,0,0:0:0:0:
392,192,91482,1,0,0:0:0:0:
416,188,91554,2,0,P|452:188|512:164,1,80.000000298023
432,28,91842,6,0,P|394:67|289:49,1,160.000000596046
200,64,92275,2,0,P|125:44|64:91,1,160.000000596046
60,189,92707,2,0,P|61:229|80:264,1,80.000000298023,8|0,0:0|0:0,0:0:0:0:
148,148,92996,2,0,L|240:132,1,80.000000298023
364,236,93284,2,0,L|272:252,1,80.000000298023,8|0,0:0|0:0,0:0:0:0:
140,368,93573,6,0,P|184:384|280:332,1,160.000000596046,4|0,0:0|0:0,0:0:0:0:
360,368,94006,2,0,B|468:340|468:340|520:376|520:376,1,160.000000596046
472,252,94438,2,0,P|456:196|496:104,1,160.000000596046,8|0,0:0|0:0,0:0:0:0:
494,105,94799,1,0,0:0:0:0:
494,105,94871,1,0,0:0:0:0:
494,105,94943,1,0,0:0:0:0:
494,105,95015,1,0,0:0:0:0:
184,52,95304,6,0,L|104:56,1,80.000000298023
104,55,95520,1,0,0:0:0:0:
104,55,95592,1,0,0:0:0:0:
68,148,95736,2,0,L|148:144,1,80.000000298023
260,140,96025,1,0,0:0:0:0:
264,288,96169,2,0,P|320:304|392:208,1,160.000000596046,8|0,0:0|0:0,0:0:0:0:
312,220,96602,1,0,0:0:0:0:
408,364,96746,1,0,0:0:0:0:
484,264,96890,1,0,0:0:0:0:
276,336,97034,6,0,L|192:328,1,80.000000298023
196,328,97251,1,0,0:0:0:0:
196,328,97323,1,0,0:0:0:0:
100,168,97467,2,0,P|148:136|236:180,1,160.000000596046
332,120,97900,2,0,L|436:112,1,80.000000298023,8|0,0:0|0:0,0:0:0:0:
456,240,98188,1,0,0:0:0:0:
432,236,98260,1,0,0:0:0:0:
408,240,98332,1,0,0:0:0:0:
388,252,98405,1,0,0:0:0:0:
372,268,98477,2,0,P|356:304|360:344,1,80.000000298023
272,288,98765,5,0,0:0:0:0:
432,320,98909,1,0,0:0:0:0:
344,168,99054,1,0,0:0:0:0:
356,364,99198,2,0,P|368:304|376:204,1,160.000000596046
260,124,99631,2,0,P|256:192|256:228,1,80.000000298023,8|0,0:0|0:0,0:0:0:0:
308,40,99919,2,0,P|252:32|200:36,1,80.000000298023
344,168,100207,2,0,P|400:176|452:172,1,80.000000298023,8|0,0:0|0:0,0:0:0:0:
160,96,100496,5,6,0:0:0:0:
124,108,102227,6,0,L|108:212,1,80.000000298023,4|8,0:0|0:0,0:0:0:0:
388,276,102515,2,0,L|404:172,1,80.000000298023
176,260,102804,1,8,0:0:0:0:
336,124,102948,1,0,0:0:0:0:
208,144,103092,5,8,0:0:0:0:
208,144,103164,1,0,0:0:0:0:
208,144,103236,1,0,0:0:0:0:
304,240,103381,1,8,0:0:0:0:
304,240,103453,1,0,0:0:0:0:
304,240,103525,1,0,0:0:0:0:
76,324,103669,2,2,P|68:260|64:208,1,80.000000298023,2|0,0:0|0:0,0:0:0:0:
252,60,103957,6,0,P|284:92|276:212,1,160.000000596046,4|0,0:0|0:0,0:0:0:0:
184,312,104390,2,0,B|232:304|232:304|288:328|288:328|368:320,1,160.000000596046
384,232,104823,2,0,L|297:241,1,80.000000298023,8|0,0:0|0:0,0:0:0:0:
184,120,105111,2,0,P|172:172|184:224,1,80.000000298023,0|0,0:0|0:0,0:0:0:0:
336,88,105400,2,0,P|338:48|326:10,1,80.000000298023,8|0,0:0|0:0,0:0:0:0:
272,168,105688,6,0,P|324:192|412:152,1,160.000000596046,4|0,0:0|0:0,0:0:0:0:
488,284,106121,2,0,P|436:260|348:300,1,160.000000596046
236,356,106554,2,0,P|228:292|220:248,1,80.000000298023,8|0,0:0|0:0,0:0:0:0:
184,120,106842,2,0,P|177:159|173:199,1,80.000000298023
112,296,107131,2,0,P|76:288|32:284,1,80.000000298023,8|0,0:0|0:0,0:0:0:0:
329,302,107419,6,0,B|436:296|436:296|488:284,1,160.000000596046,4|0,0:0|0:0,0:0:0:0:
404,60,107852,2,0,P|376:128|436:220,1,160.000000596046
320,352,108284,2,0,P|328:292|332:248,1,80.000000298023,8|0,0:0|0:0,0:0:0:0:
432,212,108573,2,0,P|440:272|444:316,1,80.000000298023
324,168,108861,1,8,0:0:0:0:
464,128,109006,1,0,0:0:0:0:
240,112,109150,6,0,P|232:168|232:224,2,80.000000298023,4|0|0,0:0|0:0|0:0,0:0:0:0:
168,44,109582,2,0,P|128:32|40:108,1,160.000000596046
56,232,110015,2,0,L|136:224,1,80.000000298023,8|0,0:0|0:0,0:0:0:0:
208,116,110304,2,0,L|128:124,1,80.000000298023,8|0,0:0|0:0,0:0:0:0:
240,276,110592,2,0,P|252:224|232:168,1,80.000000298023,8|0,0:3|0:0,0:0:0:0:
160,344,110881,6,0,P|208:372|316:348,1,160.000000596046,4|0,0:0|0:0,0:0:0:0:
424,344,111313,2,0,P|416:264|404:172,1,160.000000596046
344,88,111746,2,0,P|312:128|292:168,1,80.000000298023,8|0,0:0|0:0,0:0:0:0:
121,167,112034,2,0,P|172:175|217:172,1,80.000000298023
302,320,112323,2,0,P|283:272|258:235,1,80.000000298023,8|0,0:0|0:0,0:0:0:0:
160,96,112611,6,0,P|144:160|140:268,1,160.000000596046,4|0,0:0|0:0,0:0:0:0:
200,16,113044,2,0,P|132:12|72:92,1,160.000000596046
240,180,113477,2,0,L|336:172,1,80.000000298023,8|0,0:0|0:0,0:0:0:0:
440,312,113765,2,0,P|444:272|424:212,1,80.000000298023
216,288,114054,2,0,L|312:280,1,80.000000298023,8|0,0:0|0:0,0:0:0:0:
136,344,114342,5,0,0:0:0:0:
32,308,114486,1,2,0:0:0:0:
116,192,114631,2,0,L|228:184,1,80.000000298023,0|0,0:0|0:0,0:0:0:0:
232,92,114919,2,0,L|120:100,1,80.000000298023,2|0,0:0|0:0,0:0:0:0:
392,208,115207,6,0,P|404:156|420:100,1,80.000000298023,10|0,0:0|0:0,0:0:0:0:
304,264,115496,2,0,P|343:300|383:342,1,80.000000298023
300,160,115784,2,0,P|248:175|192:189,1,80.000000298023,10|0,0:0|0:0,0:0:0:0:
144,284,116073,5,12,0:0:0:0:
144,284,116217,1,8,0:0:0:0:
368,100,116506,5,8,0:0:0:0:
368,100,116650,1,4,0:0:0:0:
256,352,116938,5,0,0:0:0:0:
232,256,117082,1,8,0:3:0:0:
256,32,117227,1,0,0:0:0:0:
280,128,117371,1,8,0:3:0:0:
176,192,117515,2,2,L|88:192,1,80.000000298023,2|0,0:0|0:0,0:0:0:0:
328,284,117804,6,0,P|380:296|464:224,1,160.000000596046,4|0,0:0|0:0,0:0:0:0:
400,68,118236,2,0,P|363:107|383:215,1,160.000000596046
512,168,118669,2,0,P|472:148|420:152,1,80.000000298023,8|0,0:0|0:0,0:0:0:0:
248,264,118957,2,0,P|250:308|280:351,1,80.000000298023,0|0,0:0|0:0,0:0:0:0:
408,256,119246,2,0,P|383:218|336:196,1,80.000000298023,8|0,0:0|0:0,0:0:0:0:
172,308,119534,6,0,P|124:320|32:244,1,160.000000596046,4|0,0:0|0:0,0:0:0:0:
240,184,119967,2,0,L|260:380,1,160.000000596046
124,232,120400,2,0,P|132:184|152:128,1,80.000000298023,8|0,0:0|0:0,0:0:0:0:
224,64,120688,2,0,P|235:102|241:141,1,80.000000298023
204,284,120977,1,8,0:0:0:0:
104,188,121121,1,0,0:0:0:0:
296,264,121265,6,0,P|344:272|416:184,1,160.000000596046,4|0,0:0|0:0,0:0:0:0:
508,344,121698,2,0,L|344:324,1,160.000000596046
346,108,122131,2,0,L|336:188,1,80.000000298023,8|0,0:0|0:0,0:0:0:0:
204,284,122419,2,0,L|193:204,1,80.000000298023
388,260,122707,2,0,P|432:260|484:232,1,80.000000298023,8|0,0:0|0:0,0:0:0:0:
380,32,122996,6,0,P|308:32|268:132,1,160.000000596046,4|0,0:0|0:0,0:0:0:0:
336,192,123429,2,0,L|504:176,1,160.000000596046
428,24,123861,2,0,P|412:80|412:120,1,80.000000298023,8|0,0:0|0:0,0:0:0:0:
388,260,124150,2,0,P|383:220|370:182,1,80.000000298023,8|0,0:0|0:0,0:0:0:0:
288,104,124438,1,8,0:3:0:0:
460,184,124582,1,4,0:3:0:0:
304,280,124727,6,0,B|248:272|248:272|204:284|204:284|132:276,1,160.000000596046,4|0,0:0|0:0,0:0:0:0:
208,104,125159,2,0,B|264:112|264:112|308:100|308:100|380:108,1,160.000000596046
148,168,125592,2,0,P|124:120|180:24,2,160.000000596046,8|0|8,0:0|0:0|0:0,0:0:0:0:
340,248,126457,6,0,P|348:196|360:80,1,160.000000596046,4|0,0:0|0:0,0:0:0:0:
172,136,126890,2,0,P|164:188|152:304,1,160.000000596046
284,340,127323,2,0,P|332:324|380:320,1,80.000000298023,8|0,0:0|0:0,0:0:0:0:
304,220,127611,2,0,P|266:186|238:146,1,80.000000298023
200,268,127900,2,0,P|189:317|169:361,1,80.000000298023,8|0,0:0|0:0,0:0:0:0:
96,276,128188,5,2,0:0:0:0:
84,92,135111,6,0,L|256:84,1,160.000000596046,4|0,0:0|0:0,0:0:0:0:
272,176,135544,2,0,P|320:144|336:48,1,160.000000596046,8|0,0:0|0:0,0:0:0:0:
184,192,135977,2,0,P|188:232|200:280,1,80.000000298023,8|0,0:0|0:0,0:0:0:0:
68,208,136265,2,0,P|72:168|84:120,1,80.000000298023,8|0,0:0|0:0,0:0:0:0:
200,28,136554,2,0,P|209:66|213:106,1,80.000000298023,8|0,0:0|0:0,0:0:0:0:
312,256,136842,5,0,0:0:0:0:
312,256,136986,2,0,P|356:268|436:172,1,160.000000596046,8|0,0:0|0:0,0:0:0:0:
232,200,137419,2,0,P|220:260|220:300,1,80.000000298023,8|0,0:0|0:0,0:0:0:0:
320,156,137707,2,0,P|272:108|164:128,2,160.000000596046,8|8|8,0:0|0:0|0:0,0:0:0:0:
320,156,138429,1,8,0:0:0:0:
288,280,138573,6,0,B|224:276|224:276|176:284|176:284|112:280,1,160.000000596046,4|0,0:0|0:0,0:0:0:0:
328,356,139006,2,0,P|364:316|320:200,1,160.000000596046,8|0,0:0|0:0,0:0:0:0:
180,148,139438,2,0,P|188:204|200:256,1,80.000000298023,8|0,0:0|0:0,0:0:0:0:
300,312,139727,2,0,P|340:300|384:296,1,80.000000298023,8|0,0:0|0:0,0:0:0:0:
488,160,140015,2,0,P|448:148|404:144,1,80.000000298023,8|0,0:0|0:0,0:0:0:0:
336,48,140304,5,4,0:0:0:0:
336,48,140448,2,0,P|308:80|308:204,1,160.000000596046,8|0,0:0|0:0,0:0:0:0:
400,264,140881,2,0,L|492:256,1,80.000000298023,8|0,0:0|0:0,0:0:0:0:
300,312,141169,6,0,L|240:308,3,40.0000001490115,4|0|0|0,0:3|0:0|0:0|0:0,0:0:0:0:
196,344,141457,2,0,L|156:346,3,40.0000001490115,8|0|8|0,0:3|0:0|0:3|0:0,0:0:0:0:
76,304,141746,2,0,L|36:301,3,40.0000001490115,8|8|8|8,0:0|0:0|0:0|0:0,0:0:0:0:
112,208,142034,6,0,P|104:144|88:108,1,80.000000298023,6|0,0:0|0:0,0:0:0:0:
200,72,142323,1,0,0:0:0:0:
220,232,142467,2,0,P|259:181|273:144,1,80.000000298023,2|0,0:0|0:0,0:0:0:0:
380,176,142756,1,0,0:0:0:0:
300,312,142900,6,0,P|363:304|400:288,1,80.000000298023,10|0,0:0|0:0,0:0:0:0:
220,356,143188,2,0,P|156:348|120:332,1,80.000000298023,10|0,0:0|0:0,0:0:0:0:
210,153,143477,2,0,L|222:257,1,80.000000298023,10|0,0:0|0:0,0:0:0:0:
72,184,143765,6,0,L|81:104,2,80.000000298023,2|0|0,0:0|0:0|0:0,0:0:0:0:
216,56,144198,2,0,L|225:135,2,80.000000298023,2|8|0,0:0|0:0|0:0,0:0:0:0:
312,208,144631,5,0,0:0:0:0:
424,172,144775,1,0,0:0:0:0:
424,172,144847,1,0,0:0:0:0:
424,172,144919,2,0,L|428:220,3,40.0000001490115,8|0|0|0,0:0|0:0|0:0|0:0,0:0:0:0:
312,208,145207,6,0,L|268:204,1,40.0000001490115,8|0,0:0|0:0,0:0:0:0:
352,292,145352,2,0,L|396:288,1,40.0000001490115,0|0,0:0|0:0,0:0:0:0:
280,348,145496,6,0,L|107:332,1,160.000000596046,4|2,0:0|0:0,0:0:0:0:
36,260,145929,1,0,0:0:0:0:
92,187,146073,2,0,P|94:168|99:148,3,40.0000001490115,8|0|0|0,0:0|0:0|0:0|0:0,0:0:0:0:
112,212,146361,6,0,P|123:250|121:290,1,80.000000298023,10|0,0:0|0:0,0:0:0:0:
208,184,146650,2,0,P|204:148|192:124,2,40.0000001490115,2|2|0,0:0|0:0|0:0,0:0:0:0:
172,288,146938,2,0,P|167:314|164:332,2,40.0000001490115,2|2|0,0:0|0:0|0:0,0:0:0:0:
108,244,147227,6,0,B|216:232|216:232|284:244,1,160.000000596046,4|0,0:0|0:0,0:0:0:0:
340,288,147659,1,0,0:0:0:0:
444,220,147804,1,0,0:0:0:0:
304,144,147948,1,0,0:0:0:0:
264,324,148092,6,0,L|169:319,1,80.000000298023,8|0,0:0|0:0,0:0:0:0:
27,283,148381,2,0,P|20:245|27:206,1,80.000000298023
232,180,148669,2,0,L|137:175,1,80.000000298023,8|10,0:0|0:0,0:0:0:0:
16,56,148957,6,0,P|48:20|164:44,1,160.000000596046,4|0,0:0|0:0,0:0:0:0:
292,72,149390,1,0,0:0:0:0:
292,72,149462,1,0,0:0:0:0:
292,72,149534,2,0,L|196:88,1,80.000000298023,8|0,0:0|0:0,0:0:0:0:
368,132,149823,6,0,P|384:84|384:44,1,80.000000298023,4|0,0:3|0:0,0:0:0:0:
272,172,150111,2,0,P|256:220|256:260,1,80.000000298023,8|0,0:0|0:0,0:0:0:0:
400,312,150400,2,0,P|396:272|382:234,1,80.000000298023,8|0,0:0|0:0,0:0:0:0:
224,280,150688,6,0,P|216:328|220:356,2,40.0000001490115,2|2|0,0:0|0:0|0:0,0:0:0:0:
144,240,150977,2,0,P|113:277|102:303,2,40.0000001490115,2|2|0,0:0|0:0|0:0,0:0:0:0:
104,156,151265,2,0,P|58:173|36:190,2,40.0000001490115,2|2|0,0:0|0:0|0:0,0:0:0:0:
176,92,151554,6,0,P|196:132|196:184,1,80.000000298023,8|0,0:0|0:0,0:0:0:0:
148,336,151842,2,0,L|48:324,1,80.000000298023,8|0,0:0|0:0,0:0:0:0:
272,208,152131,2,0,L|372:196,1,80.000000298023,8|0,0:0|0:0,0:0:0:0:
464,256,152419,6,0,L|468:220,5,26.6666667660077,2|2|2|2|2|2,0:0|0:0|0:0|0:0|0:0|0:0,0:0:0:0:
432,284,152707,2,0,L|436:368,1,80.000000298023,2|2,0:0|0:0,0:0:0:0:
304,232,152996,1,0,0:0:0:0:
416,80,153140,2,0,L|412:164,1,80.000000298023,2|8,0:0|0:0,0:0:0:0:
264,36,153429,2,0,L|268:120,1,80.000000298023,2|0,0:0|0:0,0:0:0:0:
112,184,153717,2,0,L|115:104,1,80.000000298023,2|8,0:0|0:0,0:0:0:0:
60,28,154006,1,0,0:0:0:0:
76,264,154150,6,0,P|132:272|196:188,2,160.000000596046,4|0|0,0:0|0:0|0:0,0:0:0:0:
112,184,154871,1,2,0:0:0:0:
248,336,155015,2,0,L|332:348,1,80.000000298023,8|0,0:0|0:0,0:0:0:0:
296,160,155304,2,0,L|375:148,1,80.000000298023,8|0,0:0|0:0,0:0:0:0:
316,372,155592,2,0,L|400:384,1,80.000000298023,8|0,0:0|0:0,0:0:0:0:
448,188,155881,6,0,P|460:140|388:68,1,160.000000596046,4|8,0:0|0:0,0:0:0:0:
389,68,156313,1,0,0:0:0:0:
296,160,156457,2,0,P|304:220|312:268,1,80.000000298023,8|0,0:0|0:0,0:0:0:0:
384,148,156746,6,0,P|376:88|368:40,1,80.000000298023,8|0,0:0|0:0,0:0:0:0:
352,312,157034,2,0,P|304:324|256:312,1,80.000000298023,8|0,0:0|0:0,0:0:0:0:
132,128,157323,2,0,P|180:116|228:128,1,80.000000298023,8|0,0:0|0:0,0:0:0:0:
152,300,157611,6,0,L|144:260,1,40.0000001490115
52,208,157756,2,0,L|44:248,1,40.0000001490115
28,344,157900,2,0,L|68:336,3,40.0000001490115,0|0|0|0,0:0|0:0|0:0|0:0,0:0:0:0:
168,352,158188,6,0,L|220:360,1,40.0000001490115,8|0,0:0|0:0,0:0:0:0:
284,304,158332,2,0,L|323:297,1,40.0000001490115,0|0,0:0|0:0,0:0:0:0:
428,360,158477,6,0,L|436:276,1,80.000000298023,8|0,0:0|0:0,0:0:0:0:
348,192,158765,2,0,L|356:108,1,80.000000298023,8|2,0:0|0:3,0:0:0:0:
276,60,159054,1,2,0:3:0:0:
440,176,159198,1,0,0:0:0:0:
252,216,159342,6,0,P|204:208|144:224,1,80.000000298023,8|0,0:0|0:0,0:0:0:0:
72,292,159631,2,0,P|48:256|52:196,1,80.000000298023,8|0,0:0|0:0,0:0:0:0:
132,52,159919,2,0,L|120:148,1,80.000000298023,8|0,0:0|0:0,0:0:0:0:
252,216,160207,6,0,L|242:136,1,80.000000298023,8|0,0:0|0:0,0:0:0:0:
384,28,160496,2,0,L|374:107,1,80.000000298023,8|0,0:0|0:0,0:0:0:0:
484,336,160784,2,0,L|474:256,1,80.000000298023,8|0,0:0|0:0,0:0:0:0:
348,180,161073,5,0,0:0:0:0:
348,180,161217,2,0,P|284:172|228:264,1,160.000000596046,12|0,0:0|0:0,0:0:0:0:
320,336,161650,2,0,P|316:284|308:244,1,80.000000298023,8|0,0:0|0:0,0:0:0:0:
152,192,161938,6,0,P|145:231|143:271,1,80.000000298023,8|0,0:0|0:0,0:0:0:0:
228,320,162227,1,8,0:0:0:0:
104,372,162371,1,0,0:0:0:0:
228,244,162515,1,8,0:0:0:0:
60,172,162659,1,8,0:0:0:0:
104,372,162804,5,2,0:0:0:0:
84,96,166121,5,0,0:0:0:0:
84,96,166265,2,0,L|96:268,1,160.000000596046,6|0,0:0|0:0,0:0:0:0:
95,255,166698,1,0,0:0:0:0:
188,308,166842,2,0,P|196:252|192:216,1,80.000000298023,8|0,0:0|0:0,0:0:0:0:
236,120,167131,6,0,L|224:80,2,40.0000001490115,8|0|0,0:0|0:0|0:0,0:0:0:0:
292,224,167419,2,0,L|280:264,2,40.0000001490115,8|0|0,0:0|0:0|0:0,0:0:0:0:
364,84,167707,2,0,L|360:180,1,80.000000298023,8|8,0:0|0:0,0:0:0:0:
388,284,167996,5,4,0:0:0:0:
388,284,168140,2,0,P|440:296|504:208,1,160.000000596046
292,224,168573,2,0,P|284:292|284:340,1,80.000000298023,8|0,0:0|0:0,0:0:0:0:
184,336,168861,6,0,L|100:320,1,80.000000298023,8|0,0:0|0:0,0:0:0:0:
284,268,169150,2,0,L|368:252,1,80.000000298023,8|0,0:0|0:0,0:0:0:0:
156,100,169438,2,0,P|144:138|145:178,1,80.000000298023,8|0,0:0|0:0,0:0:0:0:
366,178,169727,6,0,P|367:138|356:100,2,80.000000298023,4|0|0,0:0|0:0|0:0,0:0:0:0:
284,88,170159,2,0,P|308:44|408:52,1,160.000000596046
272,184,170592,2,0,L|188:176,1,80.000000298023,8|0,0:0|0:0,0:0:0:0:
64,228,170881,1,0,0:0:0:0:
68,252,170953,1,0,0:0:0:0:
72,276,171025,1,0,0:0:0:0:
76,300,171097,1,0,0:0:0:0:
80,324,171169,2,0,L|76:380,1,40.0000001490115,8|0,0:0|0:0,0:0:0:0:
168,332,171313,2,0,L|165:292,1,40.0000001490115
248,280,171457,5,0,0:0:0:0:
248,280,171602,2,0,P|296:264|380:340,1,160.000000596046,12|0,0:0|0:0,0:0:0:0:
472,296,172034,2,0,P|468:240|468:200,1,80.000000298023,8|0,0:0|0:0,0:0:0:0:
384,100,172323,6,0,P|384:139|388:179,1,80.000000298023,8|8,0:0|0:0,0:0:0:0:
328,288,172611,2,0,L|248:280,1,80.000000298023,8|8,0:0|0:0,0:0:0:0:
204,140,172900,2,0,L|284:148,1,80.000000298023,8|8,0:0|0:0,0:0:0:0:
140,196,173188,5,4,0:0:0:0:
140,196,173332,2,0,P|116:140|168:60,1,160.000000596046,8|0,0:0|0:0,0:0:0:0:
172,288,173765,2,0,L|92:280,1,80.000000298023,8|0,0:0|0:0,0:0:0:0:
248,368,174054,6,0,L|304:364,3,40.0000001490115,8|0|0|0,0:0|0:0|0:0|0:0,0:0:0:0:
328,288,174342,2,0,L|384:284,3,40.0000001490115,8|0|0|0,0:0|0:0|0:0|0:0,0:0:0:0:
452,324,174631,2,0,P|460:285|452:246,1,80.000000298023,8|8,0:0|0:0,0:0:0:0:
380,160,174919,5,4,0:0:0:0:
380,160,175063,2,0,P|328:148|256:236,1,160.000000596046,8|0,0:0|0:0,0:0:0:0:
420,236,175496,2,0,L|516:232,1,80.000000298023,8|0,0:0|0:0,0:0:0:0:
392,84,175784,6,0,P|376:120|378:160,1,80.000000298023,8|0,0:0|0:0,0:0:0:0:
328,288,176073,2,0,P|303:256|268:238,1,80.000000298023,8|0,0:0|0:0,0:0:0:0:
188,124,176361,2,2,P|227:118|260:97,1,80.000000298023,10|0,0:0|0:0,0:0:0:0:
160,232,176650,6,0,P|126:210|87:205,2,80.000000298023,4|0|0,0:0|0:0|0:0,0:0:0:0:
180,340,177082,2,0,P|213:318|252:313,2,80.000000298023,0|0|0,0:0|0:0|0:0,0:0:0:0:
400,352,177515,2,0,P|416:304|420:268,1,80.000000298023,8|0,0:0|0:0,0:0:0:0:
304,112,177804,2,0,P|288:160|284:196,1,80.000000298023,8|0,0:3|0:0,0:0:0:0:
404,176,178092,2,0,L|496:164,1,80.000000298023,8|0,0:0|0:0,0:0:0:0:
356,44,178381,5,0,0:0:0:0:
356,44,178525,2,0,P|304:28|224:96,1,160.000000596046,12|0,0:0|0:0,0:0:0:0:
289,190,178957,2,0,P|298:151|304:112,1,80.000000298023,8|0,0:0|0:0,0:0:0:0:
148,64,179246,2,0,P|153:103|162:142,1,80.000000298023,8|0,0:0|0:0,0:0:0:0:
264,272,179534,2,0,L|364:256,1,80.000000298023,8|0,0:0|0:0,0:0:0:0:
156,252,179823,2,0,L|56:268,1,80.000000298023,8|0,0:0|0:0,0:0:0:0:
400,320,180111,5,0,0:0:0:0:
400,320,180256,2,0,P|428:264|360:180,1,160.000000596046,12|0,0:0|0:0,0:0:0:0:
275,112,180688,2,0,P|264:150|259:189,1,80.000000298023,8|0,0:0|0:0,0:0:0:0:
424,124,180977,6,0,P|418:84|407:46,1,80.000000298023,4|0,0:0|0:0,0:0:0:0:
407,46,181193,1,0,0:0:0:0:
407,46,181265,2,0,L|352:40,3,40.0000001490115,0|0|0|0,0:0|0:0|0:0|0:0,0:0:0:0:
284,72,181554,2,0,L|228:65,3,40.0000001490115,0|0|0|0,0:0|0:0|0:0|0:0,0:0:0:0:
160,28,181842,6,0,L|144:96,1,40.0000001490115
64,112,181986,2,0,L|54:73,1,40.0000001490115
160,152,182131,2,0,L|144:220,1,40.0000001490115
64,236,182275,2,0,L|54:197,1,40.0000001490115
144,296,182419,2,0,L|192:276,3,40.0000001490115,8|0|0|0,0:0|0:0|0:0|0:0,0:0:0:0:
240,336,182707,6,0,L|288:316,3,40.0000001490115,8|0|0|0,0:0|0:0|0:0|0:0,0:0:0:0:
364,356,182996,2,0,L|368:304,3,40.0000001490115,0|0|0|0,0:0|0:0|0:0|0:0,0:0:0:0:
336,156,183284,6,0,P|320:204|324:264,1,80.000000298023
440,104,183555,1,4,0:0:0:0:
256,192,183623,12,2,186485,0:0:0:0:
112,148,187151,5,0,0:0:0:0:
112,148,187510,2,0,L|232:140,2,120.000005024671,0|2|0,0:0|0:0|0:0,0:0:0:0:
56,260,188532,1,2,0:0:0:0:
180,336,188872,1,0,0:0:0:0:
308,267,189209,6,0,P|401:229|460:336,1,240.000010049343,2|2,0:0|0:0,0:0:0:0:
308,268,190557,1,2,0:0:0:0:
236,200,190894,2,0,L|244:128,1,60.0000025123357,0|2,0:0|0:0,0:0:0:0:
242,140,191231,5,0,0:0:0:0:
242,140,191659,2,0,P|308:144|364:104,1,120.000005024671,0|2,0:0|0:0,0:0:0:0:
68,76,192595,1,0,0:0:0:0:
28,148,192797,2,0,P|100:152|120:12,1,240.000010049343,2|2,0:0|0:0,0:0:0:0:
256,192,194978,5,2,0:0:0:0:
256,192,197200,5,2,0:0:0:0:
120,88,202785,6,0,P|164:72|236:108,2,120.000000447034,0|2|2,0:0|0:0|0:0,0:0:0:0:
60,156,204009,2,0,L|68:244,1,80.000000298023,0|2,0:0|0:0,0:0:0:0:
148,272,204621,6,0,P|104:320|40:320,2,120.000000447034,0|2|2,0:0|0:0|0:0,0:0:0:0:
224,316,205846,2,0,L|312:308,1,80.000000298023,0|2,0:0|0:0,0:0:0:0:
388,340,206458,6,0,P|392:280|404:208,2,120.000000447034,0|2|2,0:0|0:0|0:0,0:0:0:0:
312,292,207682,1,0,0:0:0:0:
224,300,207989,1,2,0:0:0:0:
216,212,208295,6,0,P|260:192|340:212,2,120.000000447034,0|2|2,0:0|0:0|0:0,0:0:0:0:
136,252,209519,2,0,P|128:196|120:160,1,80.000000298023,0|2,0:0|0:0,0:0:0:0:
56,116,210131,6,0,P|88:92|176:104,2,120.000000447034,0|2|2,0:0|0:0|0:0,0:0:0:0:
128,276,211662,1,2,0:0:0:0:
204,320,211968,6,0,P|252:304|320:344,2,120.000000447034,0|2|2,0:0|0:0|0:0,0:0:0:0:
128,276,213193,2,0,L|140:184,1,80.000000298023,0|2,0:0|0:0,0:0:0:0:
148,108,213805,5,0,0:0:0:0:
148,108,214417,2,2,P|200:60|312:160,1,240.000000894069,2|0,0:0|0:0,0:0:0:0:
392,184,215642,2,2,P|340:232|228:132,1,240.000000894069,2|0,0:0|0:0,0:0:0:0:
226,146,217172,1,0,0:0:0:0:
226,146,217478,6,0,P|236:200|240:280,2,120.000000447034,0|2|2,0:0|0:0|0:0,0:0:0:0:
144,108,218703,1,0,0:0:0:0:
64,144,219009,1,2,0:0:0:0:
144,108,219315,6,0,L|268:116,2,120.000000447034,0|2|2,0:0|0:0|0:0,0:0:0:0:
64,144,220540,2,0,P|72:192|76:232,1,80.000000298023,0|2,0:0|0:0,0:0:0:0:
60,308,221152,5,2,0:0:0:0:
180,360,221611,1,2,0:0:0:0:
180,360,221764,2,0,L|272:344,1,80.000000298023,0|2,0:0|0:0,0:0:0:0:
332,300,222376,1,0,0:0:0:0:
416,324,222682,1,2,0:0:0:0:
496,284,222989,6,0,P|480:232|504:168,2,120.000000447034,0|2|2,0:0|0:0|0:0,0:0:0:0:
416,324,224213,2,0,L|324:316,1,80.000000298023,0|2,0:0|0:0,0:0:0:0:
248,328,224825,6,0,P|204:332|160:264,2,120.000000447034,0|2|2,0:0|0:0|0:0,0:0:0:0:
360,192,226356,1,2,0:0:0:0:
360,192,226662,6,0,P|376:144|404:72,2,120.000000447034,0|2|2,0:0|0:0|0:0,0:0:0:0:
360,192,227887,1,2,0:0:0:0:
4,96,228516,5,4,0:0:0:0:
4,96,228660,2,0,P|40:80|144:136,1,160.000000596046,8|0,0:0|0:0,0:0:0:0:
140,128,229020,1,0,0:0:0:0:
140,128,229092,1,8,0:0:0:0:
168,220,229237,6,0,L|256:208,1,80.000000298023,0|8,0:0|0:0,0:0:0:0:
280,204,229453,1,8,0:0:0:0:
312,204,229525,1,0,0:0:0:0:
340,216,229597,1,0,0:0:0:0:
364,236,229669,1,8,0:0:0:0:
396,244,229741,1,8,0:0:0:0:
428,240,229814,1,0,0:0:0:0:
456,220,229886,1,0,0:0:0:0:
468,192,229958,2,0,L|464:100,1,80.000000298023,10|0,0:0|0:0,0:0:0:0:
368,12,230246,6,0,P|328:52|344:160,1,160.000000596046,4|0,0:0|0:0,0:0:0:0:
420,320,230679,2,0,L|252:308,1,160.000000596046
112,144,231112,2,0,P|160:128|216:144,1,80.000000298023,8|0,0:0|0:0,0:0:0:0:
354,268,231400,2,0,L|253:261,1,80.000000298023
132,292,231689,2,0,P|142:242|184:201,1,80.000000298023,8|0,0:0|0:0,0:0:0:0:
96,60,231977,6,0,P|60:76|40:188,1,160.000000596046,4|0,0:0|0:0,0:0:0:0:
272,160,232410,2,0,L|112:144,1,160.000000596046
224,248,232842,1,8,0:0:0:0:
144,328,232987,1,0,0:0:0:0:
272,364,233131,2,0,L|352:356,1,80.000000298023,0|0,0:0|0:0,0:0:0:0:
432,256,233419,2,0,L|352:264,1,80.000000298023,8|0,0:0|0:0,0:0:0:0:
130,196,233708,6,0,P|194:151|272:160,1,160.000000596046,4|0,0:0|0:0,0:0:0:0:
408,136,234141,2,0,L|396:232,1,80.000000298023
328,80,234429,1,0,0:0:0:0:
500,188,234573,2,0,L|512:92,1,80.000000298023,8|0,0:0|0:0,0:0:0:0:
400,28,234862,2,0,P|384:68|392:132,1,80.000000298023
392,248,235150,2,0,P|352:247|315:231,1,80.000000298023,8|0,0:0|0:0,0:0:0:0:
168,188,235439,6,0,L|153:347,1,160.000000596046,4|0,0:0|0:0,0:0:0:0:
199,111,235871,2,0,P|123:114|84:180,1,160.000000596046
244,248,236304,2,0,L|344:236,1,80.000000298023,8|0,0:0|0:0,0:0:0:0:
412,284,236592,2,0,P|424:232|412:192,1,80.000000298023,8|0,0:0|0:0,0:0:0:0:
352,56,236881,2,0,P|340:108|352:148,1,80.000000298023,8|0,0:3|0:0,0:0:0:0:
244,248,237169,6,0,B|188:240|188:240|144:256|144:256|88:248,1,160.000000596046,4|0,0:0|0:0,0:0:0:0:
296,356,237602,2,0,P|312:312|328:276,1,80.000000298023
325,281,237891,1,0,0:0:0:0:
280,96,238035,2,0,L|284:180,1,80.000000298023,8|0,0:0|0:0,0:0:0:0:
176,56,238323,2,0,L|180:140,1,80.000000298023
244,248,238612,1,8,0:0:0:0:
368,144,238756,1,0,0:0:0:0:
156,40,238900,6,0,P|116:72|124:200,1,160.000000596046,4|0,0:0|0:0,0:0:0:0:
232,304,239333,2,0,L|224:144,1,160.000000596046
304,232,239765,2,0,P|340:244|396:252,1,80.000000298023,8|0,0:0|0:0,0:0:0:0:
284,108,240054,2,0,P|248:120|192:128,1,80.000000298023
84,200,240342,2,0,P|72:164|64:108,1,80.000000298023,8|0,0:0|0:0,0:0:0:0:
128,24,240631,5,2,0:0:0:0:
236,156,240775,1,2,0:0:0:0:
64,180,240919,5,2,0:0:0:0:
216,64,241064,1,0,0:0:0:0:
157,212,241208,5,2,0:0:0:0:
55,83,241352,1,0,0:0:0:0:
240,336,241496,2,0,L|244:256,1,80.000000298023,8|0,0:0|0:0,0:0:0:0:
364,208,241785,2,0,P|368:247|368:287,1,80.000000298023
216,168,242073,2,0,P|215:128|220:88,1,80.000000298023,8|0,0:0|0:0,0:0:0:0:
352,80,242362,5,4,0:0:0:0:
352,80,242506,1,8,0:0:0:0:
160,304,242794,1,4,0:0:0:0:
160,304,242939,1,8,0:0:0:0:
212,140,243227,6,0,L|200:48,1,80.000000298023,8|0,0:0|0:0,0:0:0:0:
300,244,243515,2,0,L|312:336,1,80.000000298023,8|0,0:0|0:0,0:0:0:0:
416,360,243804,1,8,0:3:0:0:
428,160,243948,1,0,0:0:0:0:
428,160,244020,1,0,0:0:0:0:
428,160,244092,6,0,P|384:124|264:160,1,160.000000596046,4|0,0:0|0:0,0:0:0:0:
140,248,244525,2,0,L|300:244,1,160.000000596046
416,360,244958,2,0,P|424:320|408:272,1,80.000000298023,8|0,0:0|0:0,0:0:0:0:
320,128,245246,2,0,L|328:220,1,80.000000298023
200,332,245535,2,0,P|240:336|286:316,1,80.000000298023,8|0,0:0|0:0,0:0:0:0:
428,160,245823,6,0,L|248:144,1,160.000000596046,4|0,0:0|0:0,0:0:0:0:
184,192,246256,2,0,P|172:128|240:52,1,160.000000596046
264,240,246689,2,0,L|256:324,1,80.000000298023,8|0,0:0|0:0,0:0:0:0:
96,168,246977,2,0,L|104:252,1,80.000000298023
348,96,247265,2,0,L|340:180,1,80.000000298023,8|0,0:0|0:0,0:0:0:0:
388,324,247554,6,0,P|428:336|492:240,1,160.000000596046,4|0,0:0|0:0,0:0:0:0:
344,236,247987,2,0,L|176:224,1,160.000000596046
100,276,248419,1,8,0:0:0:0:
176,352,248564,1,0,0:0:0:0:
100,276,248708,2,0,L|56:284|12:292,1,80.000000298023,4|0,0:3|0:0,0:0:0:0:
176,200,248996,2,0,L|220:208|264:216,1,80.000000298023,8|0,0:0|0:0,0:0:0:0:
368,308,249285,6,0,P|408:280|400:180,1,160.000000596046,4|0,0:0|0:0,0:0:0:0:
280,68,249717,2,0,L|296:228,1,160.000000596046
216,359,250150,2,0,P|219:320|220:280,1,80.000000298023,8|0,0:0|0:0,0:0:0:0:
172,120,250439,2,0,P|175:159|176:199,1,80.000000298023,8|0,0:0|0:0,0:0:0:0:
96,316,250727,1,8,0:3:0:0:
40,208,250871,1,0,0:0:0:0:
252,168,251015,6,0,B|308:160|308:160|360:172|360:172|436:160,1,160.000000596046,4|0,0:0|0:0,0:0:0:0:
456,36,251448,2,0,P|377:27|310:68,1,160.000000596046
232,256,251881,2,0,L|316:244,1,80.000000298023,8|0,0:0|0:0,0:0:0:0:
367,336,252169,2,0,L|288:348,1,80.000000298023
176,188,252458,2,0,P|220:168|268:172,1,80.000000298023,8|0,0:0|0:0,0:0:0:0:
440,236,252746,6,0,L|452:140,2,80.000000298023,8|0|0,0:0|0:0|0:0,0:0:0:0:
340,56,253179,2,0,L|349:135,2,80.000000298023,0|8|0,0:0|0:0|0:0,0:0:0:0:
224,88,253612,5,8,0:0:0:0:
188,104,253684,1,8,0:0:0:0:
148,100,253756,1,0,0:0:0:0:
120,72,253828,1,0,0:0:0:0:
84,56,253900,1,8,0:0:0:0:
44,60,253972,1,8,0:0:0:0:
12,84,254044,1,0,0:0:0:0:
0,124,254116,1,0,0:0:0:0:
12,164,254189,2,0,P|24:224|28:272,1,80.000000298023,8|0,0:0|0:0,0:0:0:0:
24,284,254405,1,0,0:0:0:0:
16,324,254477,6,0,P|48:356|160:336,1,160.000000596046,4|0,0:0|0:0,0:0:0:0:
296,232,254910,2,0,L|124:216,1,160.000000596046
232,64,255342,2,0,L|272:152,1,80.000000298023,8|0,0:0|0:0,0:0:0:0:
336,312,255631,2,0,L|238:302,1,80.000000298023
123,327,255919,2,0,P|120:288|134:251,1,80.000000298023,8|0,0:0|0:0,0:0:0:0:
340,144,256208,6,0,P|376:172|372:292,1,160.000000596046,4|0,0:0|0:0,0:0:0:0:
296,232,256640,1,0,0:0:0:0:
203,335,256785,2,0,L|124:328,1,80.000000298023
296,232,257073,2,0,P|284:176|272:136,1,80.000000298023,8|0,0:0|0:0,0:0:0:0:
176,84,257362,2,0,P|165:122|157:161,1,80.000000298023,8|0,0:0|0:0,0:0:0:0:
288,328,257650,2,0,P|336:316|376:292,1,80.000000298023,8|0,0:0|0:0,0:0:0:0:
412,64,257939,6,0,P|360:56|304:164,1,160.000000596046,4|0,0:0|0:0,0:0:0:0:
400,224,258371,2,0,L|492:204,1,80.000000298023
376,132,258660,1,0,0:0:0:0:
304,276,258804,2,0,P|265:264|225:265,1,80.000000298023,8|0,0:0|0:0,0:0:0:0:
88,308,259092,2,0,L|80:224,1,80.000000298023,8|0,0:0|0:0,0:0:0:0:
176,64,259381,2,0,L|184:148,1,80.000000298023,8|0,0:0|0:0,0:0:0:0:
304,276,259669,5,4,0:0:0:0:
304,276,259814,2,0,P|352:256|428:336,1,160.000000596046
224,344,260246,2,0,L|168:336,3,40.0000001490115,8|0|0|0,0:0|0:0|0:0|0:0,0:0:0:0:
156,324,260535,5,0,0:0:0:0:
124,320,260607,1,0,0:0:0:0:
92,328,260679,1,0,0:0:0:0:
64,348,260751,1,0,0:0:0:0:
44,372,260823,2,0,L|32:320,3,40.0000001490115,8|0|0|0,0:0|0:0|0:0|0:0,0:0:0:0:
60,252,261112,2,0,L|48:200,3,40.0000001490115,8|0|0|0,0:0|0:0|0:0|0:0,0:0:0:0:
76,132,261400,6,0,L|244:112,1,160.000000596046,4|0,0:0|0:0,0:0:0:0:
328,204,261833,1,0,0:0:0:0:
328,204,261905,1,0,0:0:0:0:
328,204,261977,2,0,P|372:208|424:184,1,80.000000298023,12|0,0:0|0:0,0:0:0:0:
368,40,262265,6,0,L|360:136,1,80.000000298023
464,336,262554,2,0,L|472:240,1,80.000000298023,8|0,0:3|0:0,0:0:0:0:
336,72,262842,2,0,L|328:168,1,80.000000298023,12|0,0:0|0:0,0:0:0:0:
308,324,263131,5,4,0:0:0:0:
308,324,263275,2,0,P|264:340|160:280,1,160.000000596046
120,180,263708,1,0,0:0:0:0:
216,104,263852,1,0,0:0:0:0:
252,256,263996,1,8,0:0:0:0:
148,192,264140,1,0,0:0:0:0:
148,192,264213,1,0,0:0:0:0:
148,192,264285,2,0,L|240:184,1,80.000000298023,8|0,0:0|0:0,0:0:0:0:
392,356,264573,2,0,P|396:308|376:264,1,80.000000298023,8|0,0:0|0:0,0:0:0:0:
340,56,264862,6,0,L|324:224,1,160.000000596046,4|0,0:0|0:0,0:0:0:0:
164,352,265294,2,0,L|148:192,1,160.000000596046
60,32,265727,2,0,P|36:76|56:152,1,120.000000447034,8|0,0:0|0:0,0:0:0:0:
64,160,266015,2,0,L|152:152,1,80.000000298023
244,36,266304,2,0,L|156:44,1,80.000000298023,8|0,0:0|0:0,0:0:0:0:
208,232,266592,6,0,L|384:216,2,160.000000596046,4|0|0,0:0|0:0|0:0,0:0:0:0:
208,232,267458,2,0,P|200:176|184:136,1,80.000000298023,8|0,0:0|0:0,0:0:0:0:
304,168,267746,2,0,P|338:123|372:96,1,80.000000298023,8|0,0:0|0:0,0:0:0:0:
168,72,268035,2,0,P|115:50|72:44,1,80.000000298023,8|0,0:0|0:0,0:0:0:0:
32,252,268323,6,0,L|128:240,1,80.000000298023,4|0,0:0|0:0,0:0:0:0:
208,232,268612,1,0,0:0:0:0:
168,328,268756,1,0,0:0:0:0:
148,152,268900,2,0,L|140:96,2,40.0000001490115,8|0|0,0:0|0:0|0:0,0:0:0:0:
276,140,269189,1,8,0:0:0:0:
304,156,269261,1,0,0:0:0:0:
336,160,269333,1,0,0:0:0:0:
368,156,269405,1,0,0:0:0:0:
396,140,269477,2,0,L|392:48,1,80.000000298023
492,96,269765,2,0,L|496:188,1,80.000000298023,8|0,0:0|0:0,0:0:0:0:
396,348,270054,6,0,P|368:296|396:184,1,160.000000596046,4|0,0:0|0:0,0:0:0:0:
332,64,270487,2,0,P|296:100|176:88,1,160.000000596046
68,232,270919,2,0,L|176:212,1,80.000000298023,8|0,0:0|0:0,0:0:0:0:
272,268,271208,2,0,P|280:220|272:176,1,80.000000298023,8|0,0:0|0:0,0:0:0:0:
184,40,271496,2,0,L|204:148,1,80.000000298023,8|0,0:0|0:0,0:0:0:0:
328,344,271785,6,0,L|308:236,1,80.000000298023,4|0,0:0|0:0,0:0:0:0:
388,172,272073,2,0,L|376:120,3,40.0000001490115,2|0|0|0,0:0|0:0|0:0|0:0,0:0:0:0:
460,196,272362,2,0,L|472:248,3,40.0000001490115,2|0|0|0,0:0|0:0|0:0|0:0,0:0:0:0:
472,124,272650,6,0,L|452:16,1,80.000000298023,4|0,0:0|0:0,0:0:0:0:
312,136,272939,2,0,L|324:84,3,40.0000001490115,2|0|0|0,0:0|0:0|0:0|0:0,0:0:0:0:
240,160,273227,2,0,L|228:212,3,40.0000001490115,2|0|0|0,0:0|0:0|0:0|0:0,0:0:0:0:
228,88,273515,6,0,L|248:-20,1,80.000000298023,4|0,0:0|0:0,0:0:0:0:
56,56,273804,2,0,P|40:96|40:124,2,40.0000001490115,10|0|0,0:0|0:0|0:0,0:0:0:0:
172,144,274092,2,0,P|188:188|188:212,2,40.0000001490115,10|0|0,0:0|0:0|0:0,0:0:0:0:
72,192,274381,5,0,0:0:0:0:
68,224,274453,1,0,0:0:0:0:
64,256,274525,1,0,0:0:0:0:
60,288,274597,1,0,0:0:0:0:
56,320,274669,2,0,L|64:372,3,40.0000001490115,8|8|0|0,0:0|0:0|0:0|0:0,0:0:0:0:
136,328,274958,6,0,P|196:308|272:316,1,120.000000447034,12|0,0:0|0:0,0:0:0:0:
312,360,275246,6,0,L|400:344,2,80.000000298023,4|0|0,0:0|0:0|0:0,0:0:0:0:
316,224,275679,2,0,L|228:208,2,80.000000298023,0|8|0,0:0|0:0|0:0,0:0:0:0:
424,155,276112,2,0,P|435:118|432:78,1,80.000000298023,12|0,0:0|0:0,0:0:0:0:
292,24,276400,2,0,L|304:112,1,80.000000298023
212,252,276689,2,0,L|222:172,1,80.000000298023,8|0,0:0|0:0,0:0:0:0:
156,56,276977,5,0,0:0:0:0:
156,56,277121,2,0,P|104:40|32:120,1,160.000000596046,12|0,0:0|0:0,0:0:0:0:
72,208,277554,2,0,L|164:196,1,80.000000298023,12|0,0:0|0:0,0:0:0:0:
268,320,277842,1,0,0:0:0:0:
300,308,277915,1,0,0:0:0:0:
332,304,277987,1,0,0:0:0:0:
364,308,278059,1,0,0:0:0:0:
392,320,278131,2,0,L|476:308,1,80.000000298023,8|0,0:0|0:0,0:0:0:0:
471,308,278347,1,0,0:0:0:0:
471,308,278419,1,8,0:0:0:0:
412,212,278564,1,0,0:0:0:0:
496,84,278708,5,4,0:0:0:0:
496,84,278852,2,0,B|440:80|440:80|392:96|392:96|336:92,1,160.000000596046,8|0,0:0|0:0,0:0:0:0:
220,152,279285,2,0,P|204:115|208:75,1,80.000000298023,8|0,0:0|0:0,0:0:0:0:
284,28,279573,2,0,L|323:21,2,40.0000001490115,8|8|0,0:0|0:0|0:0,0:0:0:0:
128,164,279862,2,0,L|88:157,2,40.0000001490115,8|8|0,0:0|0:0|0:0,0:0:0:0:
192,240,280150,1,8,0:0:0:0:
288,104,280294,1,8,0:0:0:0:
140,36,280439,5,4,0:0:0:0:
140,36,280583,2,0,L|124:204,1,160.000000596046
256,303,281015,2,0,P|273:268|278:228,1,80.000000298023,8|0,0:0|0:0,0:0:0:0:
96,240,281304,6,0,L|100:288,2,40.0000001490115,8|8|0,0:0|0:0|0:0,0:0:0:0:
176,148,281592,2,0,L|179:108,2,40.0000001490115,8|8|0,0:0|0:0|0:0,0:0:0:0:
256,304,281881,1,8,0:0:0:0:
256,304,281953,1,8,0:0:0:0:
256,304,282025,1,0,0:0:0:0:
328,124,282169,5,4,0:0:0:0:
256,192,282241,12,0,299477,0:0:0:0:
