osu file format v14

[General]
AudioFilename: Hanatan - If.MP3
AudioLeadIn: 0
PreviewTime: 229958
Countdown: 0
SampleSet: Soft
StackLeniency: 0.7
Mode: 0
LetterboxInBreaks: 0
WidescreenStoryboard: 0

[Editor]
Bookmarks: 289092
DistanceSpacing: 2
BeatDivisor: 4
GridSize: 4
TimelineZoom: 1.3

[Metadata]
Title:If
TitleUnicode:If
Artist:Hanatan
ArtistUnicode:花たん
Creator:Rakuen
Version:kakifly's Hard
Source:
Tags:Flower ユリカ YURiCa Yurika 無力P MuryokuP Vocaloid Megurine Luka Kawaiwkyik kakifly Xinely
BeatmapID:537822
BeatmapSetID:230050

[Difficulty]
HPDrainRate:5
CircleSize:4
OverallDifficulty:5
ApproachRate:7
SliderMultiplier:1.20000000596046
SliderTickRate:1

[Events]
//Background and Video events
0,0,"8eba70d737.jpg",0,0
Video,-10,"If [Hanatan].avi"
//Break Periods
2,59157,61519
2,128388,134211
2,163004,165365
2,183755,201247
//Storyboard Layer 0 (Background)
//Storyboard Layer 1 (Fail)
//Storyboard Layer 2 (Pass)
//Storyboard Layer 3 (Foreground)
//Storyboard Sound Samples

[TimingPoints]
13958,288.461538461538,3,2,1,60,1,0
20015,-133.333333333333,3,2,1,40,0,0
20881,-125,3,2,1,70,0,1
45111,-111.111111111111,3,2,1,60,0,0
46842,-111.111111111111,3,2,1,60,0,0
47996,-105.263157894737,3,2,1,40,0,0
48573,-100,3,2,1,60,0,0
53188,-100,3,2,1,40,0,0
53765,-100,3,2,1,60,0,0
54919,-100,3,2,1,40,0,0
55496,-100,3,2,1,60,0,0
58957,-100,3,2,1,40,0,0
62419,-125,3,2,1,50,0,0
90111,-117.647058823529,3,2,1,60,0,0
100640,-100,3,2,1,20,0,0
101650,-100,3,2,1,40,0,0
102227,-100,3,2,1,60,0,0
103957,-100,3,2,1,70,0,1
128188,-100,3,2,1,40,0,0
142034,-100,3,2,1,60,0,1
162804,-100,3,2,1,40,0,0
166265,-100,3,2,1,60,0,0
176650,-100,3,2,1,60,0,0
183555,275.229357798165,4,2,1,60,1,0
184655,303.030303030303,4,2,1,40,1,0
185867,309.278350515464,4,2,1,20,1,0
186485,333.333333333333,4,2,1,10,1,8
187151,359.281437125748,4,2,1,10,1,8
187510,355.029585798817,4,2,1,10,1,0
188532,340.909090909091,4,2,1,10,1,8
188872,337.078651685393,4,2,1,10,1,0
191231,428.571428571429,3,2,1,10,1,0
191659,410.958904109589,3,2,1,10,1,8
192069,526.315789473684,3,2,1,10,1,8
192797,359.281437125748,3,2,1,10,1,0
193515,487.80487804878,3,2,1,10,1,0
194978,740.740740740741,3,2,1,10,1,0
197200,824.515597086712,3,2,1,10,1,0
202147,319.148936170213,3,2,1,10,1,0
202785,306.122448979592,3,2,1,5,1,0
202785,-133.333333333333,3,2,1,20,0,0
226662,-133.333333333333,3,2,1,10,0,0
228516,288.461538461538,3,2,1,60,1,0
230246,-125,3,2,1,60,0,1
271785,-125,3,2,1,60,0,0
275246,-125,3,2,1,70,0,1
282169,-100,3,2,1,70,0,0
282314,-100,3,2,1,40,0,0
283900,-100,3,2,1,30,0,0
285919,-100,3,2,1,20,0,0
287362,-100,3,2,1,10,0,0

[Colours]
Combo1 : 128,64,0
Combo2 : 157,255,255
Combo3 : 255,243,179
Combo4 : 170,0,0

[HitObjects]
92,152,13958,6,0,L|240:140,1,120.000000596046,4|0,0:0|0:0,0:0:0:0:
292,168,14390,1,0,0:0:0:0:
316,248,14534,2,0,B|312:296|312:296|336:372,2,120.000000596046,8|8|8,0:0|0:0|0:0,0:0:0:0:
392,208,15256,1,0,0:0:0:0:
392,208,15400,2,0,L|396:136,1,60.000000298023,8|0,0:0|0:0,0:0:0:0:
332,92,15688,6,0,P|376:108|460:64,1,120.000000596046,4|0,0:0|0:0,0:0:0:0:
384,24,16121,1,0,0:0:0:0:
332,92,16265,2,0,L|304:224,2,120.000000596046,8|8|8,0:0|0:0|0:0,0:0:0:0:
260,48,16986,1,0,0:0:0:0:
184,88,17131,2,0,P|216:120|248:132,1,60.000000298023,8|0,0:0|0:0,0:0:0:0:
132,36,17419,6,0,L|136:180,1,120.000000596046,4|0,0:0|0:0,0:0:0:0:
196,216,17852,1,0,0:0:0:0:
196,216,17996,2,0,P|252:192|328:216,2,120.000000596046,8|8|8,0:0|0:0|0:0,0:0:0:0:
144,284,18717,1,0,0:0:0:0:
252,332,18861,2,0,L|260:252,1,60.000000298023,8|0,0:0|0:0,0:0:0:0:
308,204,19150,6,0,P|328:176|304:80,1,120.000000596046,4|0,0:0|0:0,0:0:0:0:
256,144,19582,1,0,0:0:0:0:
196,216,19727,2,0,L|120:196,1,60.000000298023,8|0,0:0|0:0,0:0:0:0:
252,332,20015,6,6,B|288:328|308:312|308:312|312:312|328:312|328:312|348:320|348:320|364:300|364:300|464:252|360:260,1,225.000009700655,6|0,0:0|0:0,0:0:0:0:
308,204,20881,6,0,L|320:100,1,96.0000004768368,6|0,1:2|0:0,0:0:0:0:
248,68,21313,2,0,P|200:80|148:64,1,96.0000004768368,0|0,1:0|1:0,0:0:0:0:
112,136,21746,2,0,B|76:104|76:104|20:88,2,96.0000004768368,8|0|8,0:0|1:0|0:0,0:0:0:0:
308,204,22611,5,6,1:2:0:0:
308,204,22756,2,0,L|304:316,1,96.0000004768368,0|0,0:0|1:0,0:0:0:0:
172,360,23332,1,0,1:0:0:0:
172,360,23477,2,0,L|175:264,1,96.0000004768368,8|0,0:0|1:0,0:0:0:0:
160,248,24054,1,8,0:0:0:0:
144,232,24342,6,0,P|196:232|248:148,2,144.000000715255,6|0|8,1:2|1:0|0:0,0:0:0:0:
140,116,25496,2,0,L|180:168,1,48.0000002384184,0|0,1:0|0:0,0:0:0:0:
144,232,25784,1,8,0:0:0:0:
144,232,26073,6,0,L|156:344,1,96.0000004768368,6|0,1:2|0:0,0:0:0:0:
228,324,26506,2,0,L|217:228,1,96.0000004768368,0|0,1:0|1:0,0:0:0:0:
240,160,26938,2,0,L|296:152,1,48.0000002384184,8|0,0:0|0:0,0:0:0:0:
372,224,27227,2,0,L|324:220,1,48.0000002384184,8|0,0:0|0:0,0:0:0:0:
436,260,27515,1,0,1:0:0:0:
436,260,27804,6,0,P|424:224|472:136,2,144.000000715255,6|0|8,1:2|1:0|0:0,0:0:0:0:
360,348,28957,2,0,L|252:356,1,96.0000004768368,0|8,1:0|0:0,0:0:0:0:
188,368,29390,1,0,0:0:0:0:
216,296,29534,6,0,L|224:240,1,48.0000002384184,6|0,1:2|0:0,0:0:0:0:
164,100,29967,2,0,P|208:108|268:92,1,96.0000004768368,0|0,1:0|1:0,0:0:0:0:
328,112,30400,2,0,L|344:216,2,96.0000004768368,8|0|8,0:0|1:0|0:0,0:0:0:0:
380,60,31121,1,0,0:0:0:0:
448,88,31265,6,0,L|456:148,1,48.0000002384184,6|8,1:2|0:0,0:0:0:0:
504,188,31554,2,0,P|468:184|412:224,2,96.0000004768368,2|0|10,0:0|0:0|0:0,0:0:0:0:
480,256,32275,1,0,0:0:0:0:
416,288,32419,2,0,B|364:300|364:300|304:284,1,96.0000004768368,2|8,1:2|0:0,0:0:0:0:
276,172,32996,6,0,L|288:108,1,48.0000002384184,12|0,0:0|1:0,0:0:0:0:
168,172,33429,2,0,L|180:236,1,48.0000002384184,12|0,0:0|1:0,0:0:0:0:
124,324,33861,2,0,L|100:220,2,96.0000004768368,12|8|0,0:0|0:0|1:0,0:0:0:0:
308,276,34727,6,0,P|320:220|296:168,1,96.0000004768368,6|0,1:2|0:0,0:0:0:0:
300,112,35159,2,0,L|416:128,1,96.0000004768368,0|0,1:0|1:0,0:0:0:0:
420,56,35592,2,0,L|324:42,2,96.0000004768368,8|0|8,0:0|1:0|0:0,0:0:0:0:
464,192,36457,5,6,1:2:0:0:
464,192,36602,2,0,B|460:228|460:228|464:252|464:252|456:292,1,96.0000004768368,0|0,0:0|1:0,0:0:0:0:
317,335,37179,1,0,1:0:0:0:
317,334,37323,2,0,B|324:300|324:300|320:276|320:276|324:240,1,96.0000004768368,8|0,0:0|0:0,0:0:0:0:
264,108,37900,1,8,0:0:0:0:
264,108,38188,6,0,P|312:144|400:120,2,144.000000715255,6|0|8,1:2|1:0|0:0,0:0:0:0:
340,24,39342,2,0,L|336:72,2,48.0000002384184,0|0|8,1:0|0:0|0:0,0:0:0:0:
460,168,39919,6,0,L|464:280,1,96.0000004768368,6|0,1:2|0:0,0:0:0:0:
492,328,40352,2,0,P|456:304|384:304,1,96.0000004768368,0|0,1:0|1:0,0:0:0:0:
340,332,40784,2,0,L|232:344,2,96.0000004768368,8|8|0,0:0|0:0|1:0,0:0:0:0:
405,299,41506,1,0,0:0:0:0:
416,228,41650,6,0,L|428:128,1,96.0000004768368,6|0,1:2|0:0,0:0:0:0:
360,112,42082,2,0,P|316:124|256:100,1,96.0000004768368,0|0,1:0|1:0,0:0:0:0:
204,140,42515,2,0,L|216:240,2,96.0000004768368,8|0|8,0:0|1:0|0:0,0:0:0:0:
140,104,43236,1,0,0:0:0:0:
204,140,43381,6,0,P|212:88|144:32,2,144.000000715255,6|0|8,1:2|1:0|0:0,0:0:0:0:
148,184,44390,1,0,0:0:0:0:
216,212,44534,2,0,L|224:260,2,48.0000002384184,0|0|8,1:0|0:0|0:0,0:0:0:0:
204,140,44967,1,0,0:0:0:0:
279,164,45111,5,6,0:0:0:0:
352,180,45256,2,0,P|368:228|392:288,1,107.999997240543,6|0,0:0|0:0,0:0:0:0:
340,348,45688,2,0,P|316:320|288:308,1,53.9999986202715,6|0,0:0|0:0,0:0:0:0:
244,359,45977,2,0,B|260:335|272:319|272:319|260:303|260:279|260:279|276:263|284:243|284:243|264:203|284:151,1,215.999994481086,8|8,0:0|0:0,0:0:0:0:
404,252,46842,5,6,0:0:0:0:
464,204,46986,2,0,P|448:168|420:104,1,107.999997240543,6|0,0:0|0:0,0:0:0:0:
312,112,47419,2,0,L|364:152,1,53.9999986202715,6|0,0:0|0:0,0:0:0:0:
308,204,47707,2,0,B|284:188|268:176|268:176|252:188|228:188|228:188|212:172|192:164|192:164|152:184|100:164,1,215.999994481086,8|8,0:0|0:0,0:0:0:0:
52,312,48573,6,0,L|171:304,1,120.000000596046,6|2,0:0|0:0,0:0:0:0:
236,352,49006,2,0,P|282:316|341:316,1,120.000000596046,2|2,0:0|0:0,0:0:0:0:
376,248,49438,2,0,L|440:244,1,60.000000298023,10|0,0:0|0:0,0:0:0:0:
332,184,49727,2,0,P|274:197|221:172,2,120.000000596046,2|8|2,1:2|0:0|0:0,0:0:0:0:
408,160,50448,6,0,L|396:40,1,120.000000596046,12|2,0:0|0:0,0:0:0:0:
320,32,50881,2,0,L|256:20,1,60.000000298023,8|2,0:0|0:0,0:0:0:0:
168,104,51169,2,0,L|236:96,1,60.000000298023,12|8,0:0|0:0,0:0:0:0:
112,48,51457,2,0,P|88:104|107:162,1,120.000000596046,8|8,0:0|0:0,0:0:0:0:
256,240,52034,5,6,0:0:0:0:
304,308,52179,2,0,B|272:336|220:320|220:320|260:352,1,120.000000596046,6|0,0:0|0:0,0:0:0:0:
364,368,52611,2,0,L|388:296,1,60.000000298023,6|0,0:0|0:0,0:0:0:0:
332,240,52900,2,0,B|356:248|368:264|368:264|380:244|380:216|380:216|416:188|416:188|400:136|456:100,1,240.000001192092,8|0,0:0|0:0,0:0:0:0:
452,260,53765,5,6,0:0:0:0:
488,168,53909,2,6,P|440:144|376:120,1,120.000000596046,0|0,0:0|0:0,0:0:0:0:
376,44,54342,2,0,P|424:56|444:64,1,60.000000298023,6|0,0:0|0:0,0:0:0:0:
300,132,54631,2,0,B|297:106|307:89|307:89|284:86|258:97|258:97|218:76|218:76|177:112|121:75,1,240.000001192092,8|4,0:0|0:0,0:0:0:0:
48,212,55496,6,0,P|96:228|160:196,1,120.000000596046,6|2,0:0|0:0,0:0:0:0:
96,152,55929,2,0,L|116:292,1,120.000000596046,2|2,0:0|0:0,0:0:0:0:
40,344,56361,2,0,L|32:280,1,60.000000298023,10|0,0:0|0:0,0:0:0:0:
113,271,56650,2,0,P|161:291|229:263,1,120.000000596046,2|8,1:2|0:0,0:0:0:0:
280,184,57082,6,0,B|220:180|220:180|156:216,1,120.000000596046,2|12,0:0|0:0,0:0:0:0:
223,269,57515,1,2,0:0:0:0:
300,272,57659,2,0,P|353:246|412:260,1,120.000000596046,2|2,0:0|0:0,0:0:0:0:
476,216,58092,2,0,L|468:96,2,120.000000596046,12|8|8,0:0|0:0|0:0,0:0:0:0:
364,328,58957,1,6,0:0:0:0:
148,100,62419,6,0,P|200:116|248:104,1,96.0000004768368,6|0,0:0|0:0,0:0:0:0:
304,76,62852,1,2,0:0:0:0:
320,148,62996,2,0,L|380:160,1,48.0000002384184,0|2,0:0|0:0,0:0:0:0:
432,128,63284,2,0,P|420:164|432:236,1,96.0000004768368,8|0,0:0|0:0,0:0:0:0:
436,244,64150,5,2,0:0:0:0:
436,244,64294,2,0,L|320:232,1,96.0000004768368,0|2,0:0|0:0,0:0:0:0:
201,306,64871,1,0,0:0:0:0:
200,306,65015,2,0,L|296:316,1,96.0000004768368,8|0,0:0|0:0,0:0:0:0:
356,276,65448,1,0,0:0:0:0:
296,240,65592,2,0,L|200:230,1,96.0000004768368,8|6,0:0|0:0,0:0:0:0:
132,252,66025,6,0,P|100:260|36:228,1,96.0000004768368,0|2,0:0|0:0,0:0:0:0:
112,84,66602,1,2,0:0:0:0:
112,84,66746,2,0,L|100:180,2,96.0000004768368,8|2|8,0:0|0:0|0:0,0:0:0:0:
180,48,67467,1,0,0:0:0:0:
228,108,67611,6,0,P|268:128|356:88,1,144.000000715255,2|2,0:0|0:0,0:0:0:0:
448,160,68332,1,0,0:0:0:0:
448,160,68477,2,0,L|444:264,2,96.0000004768368,2|2|10,0:0|0:0|0:0,0:0:0:0:
392,112,69198,1,0,0:0:0:0:
340,160,69342,6,0,P|272:174|219:128,1,144.000000715255,6|0,0:0|0:0,0:0:0:0:
92,132,70063,1,2,0:0:0:0:
92,132,70207,2,0,L|108:244,1,96.0000004768368,8|0,0:0|0:0,0:0:0:0:
100,248,71073,5,2,0:0:0:0:
100,248,71217,2,0,P|144:236|196:248,1,96.0000004768368,0|2,0:0|0:0,0:0:0:0:
316,304,71794,1,2,0:0:0:0:
316,304,71938,2,0,L|308:192,2,96.0000004768368,8|0|8,0:0|0:0|0:0,0:0:0:0:
408,224,72804,6,0,L|404:168,1,48.0000002384184,6|0,0:0|0:0,0:0:0:0:
288,92,73236,2,0,P|236:104|176:84,1,96.0000004768368,2|2,0:0|0:0,0:0:0:0:
144,144,73669,2,0,L|156:244,2,96.0000004768368,8|2|8,0:0|0:0|0:0,0:0:0:0:
112,300,74534,6,0,P|156:316|208:292,1,96.0000004768368,2|0,0:0|0:0,0:0:0:0:
252,252,74967,2,0,L|356:244,1,96.0000004768368,2|2,0:0|0:0,0:0:0:0:
416,264,75400,1,2,0:0:0:0:
464,168,75688,1,2,0:0:0:0:
388,96,75977,2,0,L|332:100,1,48.0000002384184,10|8,0:0|0:0,0:0:0:0:
272,124,76265,6,0,P|232:140|168:120,1,96.0000004768368,6|0,0:0|0:0,0:0:0:0:
120,92,76698,2,0,L|140:200,1,96.0000004768368,2|2,0:0|0:0,0:0:0:0:
72,220,77131,2,0,L|54:125,1,96.0000004768368,8|2,0:0|0:0,0:0:0:0:
44,112,77996,5,2,0:0:0:0:
44,112,78140,2,0,L|156:100,1,96.0000004768368,0|2,0:0|0:0,0:0:0:0:
268,152,78717,1,0,0:0:0:0:
268,152,78861,2,0,P|260:200|284:252,2,96.0000004768368,8|2|8,0:0|0:0|0:0,0:0:0:0:
336,192,79582,1,0,0:0:0:0:
388,140,79727,6,0,L|444:136,1,48.0000002384184,6|0,0:0|0:0,0:0:0:0:
496,232,80159,2,0,P|504:280|480:332,1,96.0000004768368,2|2,0:0|0:0,0:0:0:0:
412,332,80592,2,0,L|312:340,1,96.0000004768368,10|0,0:0|0:0,0:0:0:0:
168,308,81169,2,0,P|156:264|168:212,1,96.0000004768368,8|2,0:0|0:0,0:0:0:0:
228,172,81602,6,0,L|340:164,1,96.0000004768368,8|2,0:0|0:0,0:0:0:0:
452,220,82179,1,0,0:0:0:0:
452,220,82323,2,0,P|436:180|448:120,2,96.0000004768368,2|2|10,0:0|0:0|0:0,0:0:0:0:
496,280,83044,1,8,0:0:0:0:
424,292,83188,6,0,B|376:296|376:296|340:324|340:324|280:328,1,144.000000715255,6|2,0:0|0:0,0:0:0:0:
208,244,83909,2,0,L|264:244,1,48.0000002384184,2|8,0:0|0:0,0:0:0:0:
360,176,84342,2,0,P|356:136|344:76,1,96.0000004768368,2|2,0:0|0:0,0:0:0:0:
272,40,84775,1,0,0:0:0:0:
212,96,84919,5,2,0:0:0:0:
212,96,85063,2,0,L|108:100,1,96.0000004768368,2|2,0:0|0:0,0:0:0:0:
272,40,85640,1,2,0:0:0:0:
272,40,85784,2,0,P|324:48|376:40,1,96.0000004768368,8|0,0:0|0:0,0:0:0:0:
428,84,86217,2,0,L|424:184,1,96.0000004768368,2|0,0:0|0:0,0:0:0:0:
468,244,86650,5,6,0:0:0:0:
468,244,86794,2,0,P|424:232|356:252,1,96.0000004768368,2|2,0:0|0:0,0:0:0:0:
220,288,87371,1,2,0:0:0:0:
220,288,87515,2,0,L|208:188,2,96.0000004768368,8|2|8,0:0|0:0|0:0,0:0:0:0:
112,352,88381,6,0,P|72:364|8:348,1,96.0000004768368,2|0,0:0|0:0,0:0:0:0:
20,276,88813,2,0,L|4:172,1,96.0000004768368,2|0,0:0|0:0,0:0:0:0:
20,104,89246,1,2,0:0:0:0:
100,28,89534,1,2,0:0:0:0:
196,96,89823,2,0,L|204:148,1,48.0000002384184,10|8,0:0|0:0,0:0:0:0:
268,180,90111,6,0,L|384:168,1,102.000002452135,6|0,0:0|0:0,0:0:0:0:
404,236,90544,2,0,L|302:246,1,102.000002452135,0|2,0:0|0:0,0:0:0:0:
240,288,90977,1,8,0:0:0:0:
240,288,91265,2,0,P|184:280|132:296,1,102.000002452135,0|0,0:0|0:0,0:0:0:0:
140,291,91842,6,0,L|144:180,1,102.000002452135,2|0,0:0|0:0,0:0:0:0:
68,168,92275,2,0,L|64:269,1,102.000002452135,2|2,0:0|0:0,0:0:0:0:
88,344,92707,2,0,P|120:364|196:340,2,102.000002452135,8|0|8,0:0|0:0|0:0,0:0:0:0:
140,292,93429,1,0,0:0:0:0:
68,264,93573,6,0,B|76:212|76:212|60:168|60:168|72:100,2,153.000003678202,6|2|8,0:0|0:0|0:0,0:0:0:0:
68,264,95304,6,0,L|176:256,1,102.000002452135,2|0,0:0|0:0,0:0:0:0:
236,220,95736,2,0,P|248:180|232:116,1,102.000002452135,2|0,0:0|0:0,0:0:0:0:
164,100,96169,2,0,L|62:107,2,102.000002452135,8|0|0,0:0|0:0|0:0,0:0:0:0:
236,124,96890,1,0,0:0:0:0:
296,80,97034,6,0,P|328:44|432:56,2,153.000003678202,6|0|8,0:0|0:0|0:0,0:0:0:0:
376,212,98765,6,0,L|372:96,1,102.000002452135,2|0,0:0|0:0,0:0:0:0:
448,88,99198,2,0,L|451:189,1,102.000002452135,2|2,0:0|0:0,0:0:0:0:
436,264,99631,2,0,P|400:288|340:284,2,102.000002452135,8|0|8,0:0|0:0|0:0,0:0:0:0:
372,160,100496,1,6,0:0:0:0:
256,192,102227,12,2,103669,0:0:0:0:
136,76,103957,6,0,L|144:200,1,120.000000596046,6|0,1:2|0:0,0:0:0:0:
228,232,104390,2,0,P|268:216|352:236,1,120.000000596046,0|0,1:0|1:0,0:0:0:0:
284,296,104823,2,0,L|220:320,1,60.000000298023,8|0,0:0|0:0,0:0:0:0:
368,308,105111,2,0,L|428:284,1,60.000000298023,0|0,1:0|0:0,0:0:0:0:
343,229,105400,1,8,0:0:0:0:
228,232,105688,5,6,1:2:0:0:
228,232,105832,2,0,P|209:191|221:115,1,120.000000596046,0|0,0:0|1:0,0:0:0:0:
336,60,106409,1,0,1:0:0:0:
336,60,106554,2,0,L|460:48,1,120.000000596046,8|0,0:0|1:0,0:0:0:0:
492,176,107131,2,0,L|408:184,1,60.000000298023,8|0,0:0|0:0,0:0:0:0:
348,156,107419,5,6,1:2:0:0:
348,156,107563,2,0,P|312:172|224:152,1,120.000000596046,0|0,0:0|1:0,0:0:0:0:
156,208,107996,2,0,L|176:332,1,120.000000596046,0|8,0:0|0:0,0:0:0:0:
64,260,108573,2,0,L|52:196,2,60.000000298023,0|0|8,1:0|0:0|0:0,0:0:0:0:
252,308,109150,5,6,1:2:0:0:
252,308,109294,2,0,L|232:189,1,120.000000596046,0|0,0:0|1:0,0:0:0:0:
320,112,109871,1,0,1:0:0:0:
320,112,110015,2,0,P|384:124|444:84,1,120.000000596046,8|8,0:0|0:0,0:0:0:0:
508,152,110448,1,0,0:0:0:0:
432,204,110592,2,0,L|452:280,1,60.000000298023,0|0,1:0|0:0,0:0:0:0:
472,348,110881,6,0,P|448:308|320:296,2,180.000000894069,6|0|8,1:2|1:0|0:0,0:0:0:0:
326,293,112034,2,0,L|306:169,1,120.000000596046,0|8,1:0|0:0,0:0:0:0:
176,120,112611,5,6,1:2:0:0:
176,120,112756,2,0,L|195:238,1,120.000000596046,0|0,0:0|1:0,0:0:0:0:
326,294,113332,1,0,1:0:0:0:
326,294,113477,2,0,L|392:288,1,60.000000298023,8|0,0:0|0:0,0:0:0:0:
276,356,113765,2,0,L|212:352,1,60.000000298023,0|0,1:0|0:0,0:0:0:0:
140,304,114054,2,0,B|132:276|132:276|132:232,1,60.000000298023,8|0,0:0|0:0,0:0:0:0:
200,184,114342,6,0,P|224:136|200:56,2,120.000000596046,6|2|0,1:2|0:0|0:0,0:0:0:0:
136,120,115063,1,2,1:2:0:0:
200,184,115207,2,0,L|208:248,1,60.000000298023,10|0,0:0|0:0,0:0:0:0:
280,248,115496,2,0,P|316:228|400:256,1,120.000000596046,2|8,1:2|0:0,0:0:0:0:
352,384,116073,6,0,L|340:320,1,60.000000298023,12|0,0:0|1:0,0:0:0:0:
472,260,116506,2,0,L|468:319,1,60.000000298023,12|0,0:0|1:0,0:0:0:0:
280,248,116938,2,0,B|276:208|276:208|292:172|292:172|289:131,2,120.000000596046,12|8|8,0:0|0:0|0:0,0:0:0:0:
208,156,117659,1,0,0:0:0:0:
288,132,117804,6,0,P|324:156|432:92,2,180.000000894069,6|0|8,1:2|1:0|0:0,0:0:0:0:
252,272,118957,2,0,L|124:284,1,120.000000596046,0|8,1:0|0:0,0:0:0:0:
56,160,119534,5,6,1:2:0:0:
56,160,119679,2,0,P|40:112|60:48,1,120.000000596046,0|0,0:0|1:0,0:0:0:0:
204,28,120256,1,0,1:0:0:0:
204,28,120400,2,0,L|340:64,1,120.000000596046,8|0,0:0|1:0,0:0:0:0:
332,72,120977,1,8,0:0:0:0:
344,88,121265,6,0,P|328:144|352:212,1,120.000000596046,6|0,1:2|1:2,1:2:0:0:
308,264,121698,2,0,P|256:264|172:272,1,120.000000596046,0|0,1:0|1:0,0:0:0:0:
120,248,122131,1,8,0:0:0:0:
120,248,122419,2,0,L|116:188,1,60.000000298023,0|0,1:0|0:0,0:0:0:0:
196,168,122707,2,0,L|200:104,1,60.000000298023,8|0,0:0|0:0,0:0:0:0:
148,28,122996,6,0,P|204:52|320:20,2,180.000000894069,6|0|8,1:2|1:0|0:0,0:0:0:0:
84,68,124006,1,0,0:0:0:0:
152,124,124150,2,0,L|156:200,2,60.000000298023,0|0|8,1:0|0:0|0:0,0:0:0:0:
148,28,124582,1,0,0:0:0:0:
216,68,124727,6,0,L|340:64,1,120.000000596046,6|0,1:2|0:0,0:0:0:0:
412,44,125159,2,0,P|384:84|396:156,1,120.000000596046,0|0,1:0|1:0,0:0:0:0:
456,200,125592,1,8,0:0:0:0:
344,276,125881,1,0,1:0:0:0:
220,204,126169,2,0,L|232:140,1,60.000000298023,8|0,0:0|0:0,0:0:0:0:
156,96,126457,6,0,P|120:112|44:72,1,120.000000596046,6|0,1:2|0:0,0:0:0:0:
36,172,126890,2,0,B|56:228|56:228|52:304,1,120.000000596046,0|0,1:0|1:0,0:0:0:0:
132,328,127323,2,0,P|172:312|252:328,1,120.000000596046,8|0,0:0|1:0,0:0:0:0:
320,376,127756,1,0,0:0:0:0:
324,288,127900,2,0,L|316:216,1,60.000000298023,8|0,0:0|0:0,0:0:0:0:
368,152,128188,1,2,0:0:0:0:
280,152,135111,6,0,P|240:128|168:148,1,120.000000596046,6|0,0:0|0:0,0:0:0:0:
224,204,135544,2,0,L|240:332,1,120.000000596046,10|0,0:0|0:0,0:0:0:0:
328,348,135977,2,0,L|313:228,2,120.000000596046,10|10|10,0:0|0:0|0:0,0:0:0:0:
464,224,136842,6,0,L|460:152,1,60.000000298023,2|8,0:0|0:0,0:0:0:0:
384,116,137131,2,0,L|388:192,1,60.000000298023,0|2,0:0|0:0,0:0:0:0:
348,256,137419,1,8,0:0:0:0:
348,256,137563,2,0,P|308:264|280:256,1,60.000000298023,0|10,0:0|0:0,0:0:0:0:
152,204,137996,2,0,L|140:80,1,120.000000596046,10|10,0:0|0:0,0:0:0:0:
284,24,138573,6,0,P|332:32|400:12,1,120.000000596046,6|0,0:0|0:0,0:0:0:0:
472,44,139006,2,0,L|468:180,1,120.000000596046,10|0,0:0|0:0,0:0:0:0:
408,212,139438,2,0,P|388:269|396:328,2,120.000000596046,10|10|10,0:0|0:0|0:0,0:0:0:0:
256,192,140304,12,2,141746,0:0:0:0:
376,176,142034,6,0,L|392:108,2,60.000000298023,6|0|2,0:0|0:0|0:0,0:0:0:0:
296,216,142467,2,0,P|260:196|168:212,1,120.000000596046,2|2,0:0|0:0,0:0:0:0:
108,252,142900,2,0,L|88:128,2,120.000000596046,10|10|10,0:0|0:0|0:0,0:0:0:0:
188,296,143621,1,0,0:0:0:0:
108,336,143765,6,0,L|52:360,2,60.000000298023,6|8|2,0:0|0:0|0:0,0:0:0:0:
188,296,144198,2,0,P|244:312|312:288,1,120.000000596046,2|2,0:0|0:0,0:0:0:0:
336,212,144631,2,0,L|464:252,2,120.000000596046,2|2|10,0:0|0:0|0:0,0:0:0:0:
244,216,145352,1,0,0:0:0:0:
244,216,145784,6,0,B|240:168|240:168|220:140|220:140|216:96,1,120.000000596046,2|2,0:0|0:0,0:0:0:0:
268,28,146217,1,0,0:0:0:0:
312,108,146361,2,0,P|352:108|380:104,1,60.000000298023,10|0,0:0|0:0,0:0:0:0:
268,28,146650,2,0,P|228:28|200:24,1,60.000000298023,2|0,0:0|0:0,0:0:0:0:
140,84,146938,2,0,P|88:100|20:72,1,120.000000596046,10|6,0:0|0:0,0:0:0:0:
88,12,147371,5,0,0:0:0:0:
140,84,147515,2,0,L|152:152,1,60.000000298023,2|0,0:0|0:0,0:0:0:0:
104,220,147804,2,0,P|104:252|120:296,1,60.000000298023,2|0,0:0|0:0,0:0:0:0:
192,236,148092,2,0,L|332:236,1,120.000000596046,10|2,0:0|0:0,0:0:0:0:
392,280,148525,1,2,0:0:0:0:
420,196,148669,2,0,P|420:164|412:132,1,60.000000298023,2|0,0:0|0:0,0:0:0:0:
348,76,148957,6,0,L|476:92,2,120.000000596046,14|0|10,0:0|0:0|0:0,0:0:0:0:
264,36,149679,1,0,0:0:0:0:
236,120,149823,2,0,P|192:132|116:92,1,120.000000596046,2|10,0:0|0:0,0:0:0:0:
60,44,150256,1,0,0:0:0:0:
52,132,150400,2,0,L|64:256,1,120.000000596046,10|6,0:0|0:0,0:0:0:0:
148,288,150832,5,0,0:0:0:0:
220,232,150977,2,0,P|240:236|284:232,1,60.000000298023,10|0,0:0|0:0,0:0:0:0:
352,180,151265,2,0,L|356:52,2,120.000000596046,10|10|10,0:0|0:0|0:0,0:0:0:0:
428,228,151986,1,0,0:0:0:0:
348,272,152131,2,0,P|348:296|356:336,1,60.000000298023,10|0,0:0|0:0,0:0:0:0:
412,376,152419,6,0,L|268:368,1,120.000000596046,6|2,0:0|0:0,0:0:0:0:
200,376,152852,1,2,0:0:0:0:
200,376,153140,2,0,P|192:336|192:296,1,60.000000298023,2|8,0:0|0:0,0:0:0:0:
260,260,153429,2,0,P|260:224|256:188,1,60.000000298023,2|0,0:0|0:0,0:0:0:0:
192,140,153717,2,0,L|128:128,2,60.000000298023,2|10|2,0:0|0:0|0:0,0:0:0:0:
280,120,154150,5,6,0:0:0:0:
280,120,154294,2,0,P|320:100|404:120,1,120.000000596046,0|0,0:0|0:0,0:0:0:0:
456,176,154727,2,0,L|448:300,1,120.000000596046,2|10,0:0|0:0,0:0:0:0:
388,364,155159,1,0,0:0:0:0:
324,300,155304,2,0,B|264:288|264:288|192:304,1,120.000000596046,10|10,0:0|0:0,0:0:0:0:
136,352,155736,1,0,0:0:0:0:
72,288,155881,6,0,L|56:164,2,120.000000596046,6|2|2,0:0|0:0|0:0,0:0:0:0:
136,352,156602,1,0,0:0:0:0:
160,264,156746,2,0,P|196:240|280:244,2,120.000000596046,2|10|10,0:0|0:0|0:0,0:0:0:0:
232,320,157467,1,8,0:0:0:0:
270,240,157611,6,0,L|290:104,1,120.000000596046,2|2,0:0|0:0,0:0:0:0:
252,36,158044,1,0,0:0:0:0:
340,48,158188,2,0,B|396:68|396:68|472:52,2,120.000000596046,10|10|10,0:0|0:0|0:0,0:0:0:0:
252,36,158909,1,0,0:0:0:0:
176,84,159054,2,0,L|108:88,1,60.000000298023,2|0,0:0|0:0,0:0:0:0:
76,168,159342,6,0,L|212:160,2,120.000000596046,6|2|2,0:0|0:0|0:0,0:0:0:0:
20,236,160063,1,0,0:0:0:0:
100,272,160207,2,0,P|116:316|80:388,1,120.000000596046,10|10,0:0|0:0,0:0:0:0:
36,320,160640,1,0,0:0:0:0:
100,272,160784,2,0,L|224:264,1,120.000000596046,2|2,0:0|0:0,0:0:0:0:
304,292,161217,6,0,P|340:308|432:280,1,120.000000596046,8|0,0:0|0:0,0:0:0:0:
364,224,161650,2,0,L|352:152,1,60.000000298023,10|0,0:0|0:0,0:0:0:0:
420,92,161938,2,0,L|444:232,1,120.000000596046,10|10,0:0|0:0,0:0:0:0:
417,293,162371,2,0,P|415:325|412:354,2,60.000000298023,0|10|8,0:0|0:0|0:0,0:0:0:0:
364,224,162804,1,2,0:0:0:0:
364,224,166265,6,0,P|312:244|240:216,1,120.000000596046,6|0,0:0|0:0,0:0:0:0:
308,156,166698,2,0,L|312:88,2,60.000000298023,0|14|0,0:0|0:0|0:0,0:0:0:0:
253,226,167131,2,0,L|121:278,2,120.000000596046,10|10|10,0:0|0:0|0:0,0:0:0:0:
308,156,167852,1,8,0:0:0:0:
364,224,167996,6,0,L|372:288,1,60.000000298023,6|6,0:0|0:0,0:0:0:0:
476,216,168429,2,0,L|468:156,2,60.000000298023,0|14|0,0:0|0:0|0:0,0:0:0:0:
472,304,168861,2,0,P|440:360|368:380,2,120.000000596046,10|10|10,0:0|0:0|0:0,0:0:0:0:
308,156,169727,6,0,L|180:168,1,120.000000596046,6|2,0:0|0:0,0:0:0:0:
132,236,170159,2,0,P|88:252|12:232,1,120.000000596046,2|2,0:0|0:0,0:0:0:0:
76,168,170592,2,0,B|104:112|104:112|168:88,1,120.000000596046,10|10,0:0|0:0,0:0:0:0:
228,36,171025,1,0,0:0:0:0:
232,124,171169,2,0,P|232:176|244:256,1,120.000000596046,10|2,0:0|0:0,0:0:0:0:
320,288,171602,6,0,P|328:228|329:168,1,120.000000596046,14|0,0:0|0:0,0:0:0:0:
388,100,172034,2,0,L|380:36,1,60.000000298023,10|0,0:0|0:0,0:0:0:0:
480,96,172323,2,0,P|464:152|400:188,2,120.000000596046,12|8|8,0:0|0:0|0:0,0:0:0:0:
388,100,173044,1,8,0:0:0:0:
304,68,173188,6,0,B|260:68|260:68|232:88|232:88|172:88,1,120.000000596046,6|0,0:0|0:0,0:0:0:0:
136,160,173621,2,0,L|156:232,2,60.000000298023,0|10|0,0:0|0:0|0:0,0:0:0:0:
48,144,174054,2,0,P|28:104|40:20,2,120.000000596046,10|10|10,0:0|0:0|0:0,0:0:0:0:
136,160,174775,1,8,0:0:0:0:
80,228,174919,6,0,L|84:296,1,60.000000298023,6|6,0:0|0:0,0:0:0:0:
196,336,175352,2,0,L|192:248,2,60.000000298023,0|10|0,0:0|0:0|0:0,0:0:0:0:
284,320,175784,2,0,P|320:304|404:320,2,120.000000596046,10|10|10,0:0|0:0|0:0,0:0:0:0:
80,228,176650,6,0,L|60:96,1,120.000000596046,6|2,0:0|0:0,0:0:0:0:
144,76,177082,2,0,L|161:194,1,120.000000596046,2|2,0:0|0:0,0:0:0:0:
232,252,177515,2,0,L|284:292,1,60.000000298023,10|0,0:0|0:0,0:0:0:0:
152,292,177804,2,0,P|116:320|44:320,2,120.000000596046,10|10|2,0:0|0:0|0:0,0:0:0:0:
232,252,178525,5,14,0:0:0:0:
232,252,178669,2,0,L|284:292,2,60.000000298023,0|0|10,0:0|0:0|0:0,0:0:0:0:
156,200,179102,1,0,0:0:0:0:
236,164,179246,2,0,P|292:168|344:120,2,120.000000596046,14|10|10,0:0|0:0|0:0,0:0:0:0:
160,112,179967,1,8,0:0:0:0:
156,200,180111,6,0,L|20:188,1,120.000000596046,2|0,0:0|0:0,0:0:0:0:
28,280,180544,2,0,L|147:290,1,120.000000596046,0|0,0:0|0:0,0:0:0:0:
236,280,180977,2,0,L|260:224,1,60.000000298023,10|0,0:0|0:0,0:0:0:0:
324,308,181265,2,0,P|296:352|216:368,2,120.000000596046,10|10|14,0:0|0:0|0:0,0:0:0:0:
416,224,182131,6,0,L|424:160,1,60.000000298023,10|0,0:0|0:0,0:0:0:0:
344,120,182419,2,0,B|292:136|292:136|220:116,1,120.000000596046,10|10,0:0|0:0,0:0:0:0:
152,68,182852,1,0,0:0:0:0:
156,156,182996,2,0,L|160:216,1,60.000000298023,10|0,0:0|0:0,0:0:0:0:
68,260,183284,2,0,L|80:192,1,60.000000298023,10|8,0:0|0:0,0:0:0:0:
48,112,183555,1,6,0:0:0:0:
48,112,202147,5,2,0:0:0:0:
48,112,202785,2,0,P|96:120|144:112,1,90.0000038802622,2|0,0:0|0:0,0:0:0:0:
204,140,203244,2,0,L|308:148,1,90.0000038802622,0|0,0:0|0:0,0:0:0:0:
348,100,203703,2,0,P|380:88|452:96,2,90.0000038802622,2|0|0,0:0|0:0|0:0,0:0:0:0:
204,140,204621,6,0,L|212:248,1,90.0000038802622,2|0,0:0|0:0,0:0:0:0:
284,248,205080,2,0,L|277:158,1,90.0000038802622,0|0,0:0|0:0,0:0:0:0:
344,128,205540,2,0,P|376:136|436:120,2,90.0000038802622,2|0|0,0:0|0:0|0:0,0:0:0:0:
284,248,206458,6,0,L|184:260,1,90.0000038802622,2|0,0:0|0:0,0:0:0:0:
136,300,206917,2,0,P|100:312|40:284,1,90.0000038802622,0|0,0:0|0:0,0:0:0:0:
96,236,207376,1,2,0:0:0:0:
60,136,207682,1,0,0:0:0:0:
160,96,207989,1,0,0:0:0:0:
204,204,208295,6,0,P|236:192|272:144,2,90.0000038802622,2|0|0,0:0|0:0|0:0,0:0:0:0:
60,136,209213,2,0,L|36:28,2,90.0000038802622,2|0|0,0:0|0:0|0:0,0:0:0:0:
96,236,210131,6,0,P|108:280|96:328,1,90.0000038802622,2|0,0:0|0:0,0:0:0:0:
164,356,210591,2,0,L|260:344,1,90.0000038802622,0|0,0:0|0:0,0:0:0:0:
316,308,211050,2,0,P|356:296|420:304,2,90.0000038802622,2|0|0,0:0|0:0|0:0,0:0:0:0:
164,356,211968,6,0,L|144:252,1,90.0000038802622,2|0,0:0|0:0,0:0:0:0:
252,168,212580,2,0,L|248:276,1,90.0000038802622,0|2,0:0|0:0,0:0:0:0:
164,120,213193,2,0,P|192:80|240:64,1,90.0000038802622,0|0,0:0|0:0,0:0:0:0:
356,128,213805,6,0,L|448:136,1,90.0000038802622,2|0,0:0|0:0,0:0:0:0:
504,180,214264,1,0,0:0:0:0:
440,212,214417,2,0,P|416:240|464:356,1,180.000007760524,2|0,0:0|0:0,0:0:0:0:
324,324,215336,6,0,L|224:316,1,90.0000038802622,0|2,0:0|0:0,0:0:0:0:
164,204,215948,2,0,L|268:212,2,90.0000038802622,0|0|2,0:0|0:0|0:0,0:0:0:0:
72,292,216866,1,0,0:0:0:0:
12,180,217172,1,2,0:0:0:0:
120,116,217478,6,0,P|128:84|116:20,2,90.0000038802622,2|0|0,0:0|0:0|0:0,0:0:0:0:
200,216,218397,2,0,L|192:316,2,90.0000038802622,2|0|0,0:0|0:0|0:0,0:0:0:0:
320,184,219315,6,0,P|364:196|412:184,1,90.0000038802622,2|0,0:0|0:0,0:0:0:0:
460,136,219774,2,0,L|448:280,1,135.000005820393,0|2,0:0|0:0,0:0:0:0:
332,316,220540,2,0,P|284:308|232:320,1,90.0000038802622,0|0,0:0|0:0,0:0:0:0:
136,248,221152,6,0,L|124:152,1,90.0000038802622,2|0,0:0|0:0,0:0:0:0:
244,112,221764,2,0,L|255:201,1,90.0000038802622,0|2,0:0|0:0,0:0:0:0:
368,256,222376,1,0,0:0:0:0:
432,148,222682,1,0,0:0:0:0:
328,76,222989,6,0,P|288:104|164:64,1,180.000007760524,2|2,0:0|0:0,0:0:0:0:
48,140,223907,2,0,L|56:200,2,45.0000019401311,2|0|0,0:0|0:0|0:0,0:0:0:0:
64,124,224825,6,0,L|164:116,1,90.0000038802622,2|0,0:0|0:0,0:0:0:0:
224,124,225285,2,0,P|264:136|324:120,1,90.0000038802622,0|0,0:0|0:0,0:0:0:0:
368,88,225744,2,0,L|364:196,2,90.0000038802622,2|0|0,0:0|0:0|0:0,0:0:0:0:
256,192,226662,6,0,B|244:296|364:332|244:388|192:376|184:332|208:280|208:280,1,270.000011640787,2|2,0:0|0:0,0:0:0:0:
256,192,228516,12,10,229958,0:0:0:0:
216,264,230246,6,0,L|224:152,1,96.0000004768368,6|0,1:2|0:0,0:0:0:0:
276,112,230679,2,0,P|324:124|384:108,1,96.0000004768368,0|0,1:0|1:0,0:0:0:0:
428,164,231112,2,0,L|436:276,2,96.0000004768368,8|0|8,0:0|1:0|0:0,0:0:0:0:
276,112,231977,5,6,1:2:0:0:
276,112,232121,2,0,L|284:224,1,96.0000004768368,0|0,0:0|1:0,0:0:0:0:
139,296,232842,1,8,0:0:0:0:
138,295,232987,2,0,L|132:200,1,96.0000004768368,0|0,0:0|0:0,0:0:0:0:
73,132,233419,2,0,P|97:131|120:124,1,48.0000002384184,8|0,0:0|0:0,0:0:0:0:
20,92,233708,6,0,L|32:208,1,96.0000004768368,6|0,1:2|0:0,0:0:0:0:
92,232,234141,2,0,P|128:216|184:232,1,96.0000004768368,0|0,1:0|1:0,0:0:0:0:
248,268,234573,2,0,L|348:256,1,96.0000004768368,8|0,0:0|1:0,0:0:0:0:
420,272,235006,1,0,0:0:0:0:
448,200,235150,2,0,P|448:176|444:148,1,48.0000002384184,8|0,0:0|0:0,0:0:0:0:
372,180,235439,5,6,1:2:0:0:
372,180,235583,2,0,L|276:191,1,96.0000004768368,0|0,0:0|1:0,0:0:0:0:
180,104,236160,2,0,L|232:96,2,48.0000002384184,0|8|0,1:0|0:0|0:0,0:0:0:0:
124,156,236592,2,0,L|68:148,1,48.0000002384184,8|0,0:0|0:0,0:0:0:0:
144,236,236881,2,0,L|212:232,1,48.0000002384184,0|0,1:0|0:0,0:0:0:0:
260,264,237169,6,0,P|312:280|384:216,2,144.000000715255,6|0|8,1:2|1:0|0:0,0:0:0:0:
292,112,238323,2,0,L|312:224,1,96.0000004768368,0|8,1:0|0:0,0:0:0:0:
208,336,238900,5,6,1:2:0:0:
208,336,239044,2,0,P|152:324|112:336,1,96.0000004768368,0|0,0:0|1:0,0:0:0:0:
56,200,239621,1,0,1:0:0:0:
56,200,239765,2,0,P|102:210|148:198,1,96.0000004768368,8|0,0:0|1:0,0:0:0:0:
204,148,240198,1,0,0:0:0:0:
232,220,240342,2,0,L|272:252,1,48.0000002384184,8|0,0:0|0:0,0:0:0:0:
332,204,240631,6,0,B|292:172|292:172|280:120|324:84,2,144.000000715255,6|0|10,1:2|1:0|0:0,0:0:0:0:
408,188,241640,1,0,0:0:0:0:
380,260,241785,2,0,P|380:284|388:316,2,48.0000002384184,2|0|10,1:2|1:0|0:0,0:0:0:0:
456,128,242362,6,0,L|456:72,1,48.0000002384184,12|0,0:0|1:0,0:0:0:0:
308,36,242794,2,0,L|308:92,1,48.0000002384184,12|0,0:0|1:0,0:0:0:0:
188,180,243227,2,0,P|144:172|84:184,2,96.0000004768368,8|8|8,0:0|0:0|0:0,0:0:0:0:
260,152,243948,1,0,0:0:0:0:
252,228,244092,6,0,P|272:252|384:256,2,144.000000715255,6|0|8,1:2|1:0|0:0,0:0:0:0:
348,136,245246,2,0,L|332:188,1,48.0000002384184,0|0,1:0|0:0,0:0:0:0:
416,192,245535,2,0,B|432:136|432:136|424:76,1,96.0000004768368,8|6,0:0|1:2,0:0:0:0:
364,56,245967,6,0,P|320:56|260:28,1,96.0000004768368,0|0,0:0|1:0,0:0:0:0:
144,124,246544,1,0,1:0:0:0:
144,124,246689,2,0,L|160:236,1,96.0000004768368,8|0,0:0|1:0,0:0:0:0:
296,288,247265,2,0,L|288:224,1,48.0000002384184,8|0,0:0|0:0,0:0:0:0:
256,172,247554,6,0,P|284:184|360:168,1,96.0000004768368,6|0,1:2|0:0,0:0:0:0:
396,116,247987,2,0,L|492:136,1,96.0000004768368,0|0,1:0|1:0,0:0:0:0:
472,212,248419,2,0,B|440:208|440:208|432:248|392:264,2,96.0000004768368,8|0|8,0:0|1:0|0:0,0:0:0:0:
396,116,249285,5,6,1:2:0:0:
396,116,249429,2,0,P|384:84|392:24,1,96.0000004768368,0|0,0:0|1:0,0:0:0:0:
328,164,250006,1,0,1:0:0:0:
328,164,250150,2,0,L|224:172,1,96.0000004768368,8|8,0:0|0:0,0:0:0:0:
160,140,250583,1,0,0:0:0:0:
164,216,250727,2,0,P|164:244|160:264,1,48.0000002384184,0|0,1:0|0:0,0:0:0:0:
100,308,251015,6,0,P|128:300|232:368,2,144.000000715255,6|0|8,1:2|1:0|0:0,0:0:0:0:
32,172,252169,1,0,1:0:0:0:
172,104,252458,1,8,0:0:0:0:
240,244,252746,5,6,1:2:0:0:
240,244,252890,2,0,B|276:240|276:240|304:248|304:248|352:244,1,96.0000004768368,0|2,0:0|1:2,0:0:0:0:
412,248,253323,2,0,P|408:216|392:192,1,48.0000002384184,0|0,0:0|1:0,0:0:0:0:
336,164,253612,2,0,B|305:166|305:166|277:158|277:158|241:162,2,96.0000004768368,10|2|10,0:0|1:2|0:0,0:0:0:0:
400,120,254333,1,0,0:0:0:0:
456,172,254477,6,0,B|436:220|436:220|436:332,2,144.000000715255,6|0|8,1:2|1:0|0:0,0:0:0:0:
400,120,255487,1,0,0:0:0:0:
332,152,255631,2,0,L|264:160,1,48.0000002384184,0|0,1:0|0:0,0:0:0:0:
232,76,255919,2,0,L|279:81,1,48.0000002384184,8|0,0:0|0:0,0:0:0:0:
208,152,256208,5,6,1:2:0:0:
208,152,256352,2,0,P|168:160|108:128,1,96.0000004768368,0|0,0:0|1:0,0:0:0:0:
96,296,256929,1,0,1:0:0:0:
96,296,257073,2,0,P|136:288|196:320,1,96.0000004768368,8|0,0:0|1:0,0:0:0:0:
340,300,257650,2,0,L|348:240,1,48.0000002384184,8|0,0:0|0:0,0:0:0:0:
380,184,257939,5,6,1:2:0:0:
380,184,258083,2,0,P|344:164|340:64,1,144.000000715255,0|0,0:0|0:0,0:0:0:0:
400,112,258660,1,0,1:0:0:0:
336,70,258804,2,0,L|240:58,2,96.0000004768368,8|0|8,0:0|1:0|0:0,0:0:0:0:
400,112,259525,1,0,0:0:0:0:
464,72,259669,6,0,B|484:124|484:124|476:224,1,144.000000715255,6|0,1:2|1:0,0:0:0:0:
412,252,260246,2,0,P|384:244|352:248,1,48.0000002384184,0|0,0:0|1:0,0:0:0:0:
376,320,260535,2,0,P|420:332|468:308,2,96.0000004768368,8|8|8,0:0|0:0|0:0,0:0:0:0:
304,288,261256,1,0,0:0:0:0:
236,324,261400,6,0,L|128:320,1,96.0000004768368,6|0,1:2|0:0,0:0:0:0:
84,268,261833,2,0,P|72:216|80:164,1,96.0000004768368,0|0,1:0|1:0,0:0:0:0:
144,136,262265,2,0,L|239:139,2,96.0000004768368,8|8|8,0:0|0:0|0:0,0:0:0:0:
78,174,262987,1,0,0:0:0:0:
48,104,263131,6,0,L|44:48,2,48.0000002384184,6|0|0,1:2|0:0|0:0,0:0:0:0:
78,174,263564,2,0,L|72:236,2,48.0000002384184,0|8|8,1:0|0:0|0:0,0:0:0:0:
144,136,263996,2,0,P|156:100|208:64,1,96.0000004768368,8|8,0:0|0:0,0:0:0:0:
276,84,264429,2,0,L|376:84,1,96.0000004768368,0|0,1:0|0:0,0:0:0:0:
440,116,264862,6,0,L|456:164,1,48.0000002384184,6|8,1:2|0:0,0:0:0:0:
324,240,265294,2,0,L|308:194,2,48.0000002384184,0|0|0,1:0|0:0|1:0,0:0:0:0:
264,288,265727,2,0,P|232:304|164:288,2,96.0000004768368,8|0|8,0:0|1:0|0:0,0:0:0:0:
324,240,266448,1,0,0:0:0:0:
372,300,266592,6,0,L|488:312,1,96.0000004768368,6|0,1:2|0:0,0:0:0:0:
492,236,267025,2,0,L|396:226,1,96.0000004768368,0|0,1:0|1:0,0:0:0:0:
324,240,267458,2,0,P|280:216|216:228,2,96.0000004768368,8|8|8,0:0|0:0|0:0,0:0:0:0:
264,288,268179,1,0,0:0:0:0:
188,280,268323,6,0,L|136:276,2,48.0000002384184,6|0|0,1:2|0:0|0:0,0:0:0:0:
264,288,268756,2,0,P|312:316|364:304,1,96.0000004768368,0|0,1:0|0:0,0:0:0:0:
416,272,269189,2,0,L|428:168,2,96.0000004768368,8|0|8,0:0|1:0|0:0,0:0:0:0:
351,311,269910,1,0,0:0:0:0:
332,236,270054,6,0,L|320:184,1,48.0000002384184,6|0,1:2|0:0,0:0:0:0:
248,172,270342,2,0,L|256:112,2,48.0000002384184,0|0|0,0:0|1:0|0:0,0:0:0:0:
192,224,270775,1,0,1:0:0:0:
192,224,270919,2,0,P|148:205|100:208,1,96.0000004768368,8|8,0:0|0:0,0:0:0:0:
124,360,271496,2,0,L|132:300,1,48.0000002384184,8|8,0:0|0:0,0:0:0:0:
60,276,271785,6,0,P|28:244|24:184,1,96.0000004768368,6|2,1:2|1:2,0:0:0:0:
56,116,272217,1,0,0:0:0:0:
145,192,272362,2,0,L|100:208,1,48.0000002384184,2|0,0:0|0:0,0:0:0:0:
200,124,272650,2,0,L|304:144,2,96.0000004768368,6|2|10,1:2|1:2|0:0,0:0:0:0:
146,193,273371,1,0,0:0:0:0:
56,116,273515,6,0,P|50:68|46:20,2,96.0000004768368,6|10|10,1:2|0:0|0:0,0:0:0:0:
146,193,274237,1,0,0:0:0:0:
216,236,274381,2,0,L|318:254,1,96.0000004768368,6|10,1:2|0:0,0:0:0:0:
280,152,274814,1,0,0:0:0:0:
392,212,274958,2,0,L|400:276,1,48.0000002384184,14|0,0:0|0:0,0:0:0:0:
322,349,275246,6,0,L|310:253,1,96.0000004768368,6|0,1:2|0:0,0:0:0:0:
280,152,275679,2,0,L|328:132,2,48.0000002384184,0|8|0,1:2|0:0|0:0,0:0:0:0:
208,104,276112,2,0,P|168:112|108:84,1,96.0000004768368,0|8,1:2|0:0,0:0:0:0:
48,148,276544,2,0,L|32:196,1,48.0000002384184,0|8,1:0|0:0,0:0:0:0:
132,260,276833,6,0,L|124:208,1,48.0000002384184,0|2,1:0|0:0,0:0:0:0:
92,344,277121,2,0,B|136:352|136:352|196:336,1,96.0000004768368,12|0,1:2|1:0,0:0:0:0:
264,280,277554,2,0,L|368:292,2,96.0000004768368,8|8|8,0:0|0:0|0:0,0:0:0:0:
196,212,278275,1,0,0:0:0:0:
284,176,278419,2,0,L|280:152|276:128,1,48.0000002384184,8|0,0:0|0:0,0:0:0:0:
180,112,278708,6,0,P|132:117|90:95,1,96.0000004768368,6|0,0:0|0:0,0:0:0:0:
44,180,279140,2,0,B|52:228|52:228|44:280,1,96.0000004768368
108,348,279573,2,0,L|212:336,2,96.0000004768368,10|10|10,0:0|0:0|0:0,0:0:0:0:
392,260,280439,6,0,P|348:272|292:248,1,96.0000004768368,6|0,0:0|0:0,0:0:0:0:
252,176,280871,2,0,L|136:196,1,96.0000004768368
116,104,281304,2,0,L|210:87,2,96.0000004768368,10|10|10,0:0|0:0|0:0,0:0:0:0:
40,228,282169,5,6,1:2:0:0:
256,192,282241,12,0,289092,0:0:0:0:
