osu file format v14

[General]
AudioFilename: Hanatan - If.MP3
AudioLeadIn: 0
PreviewTime: 229958
Countdown: 0
SampleSet: Soft
StackLeniency: 0.7
Mode: 0
LetterboxInBreaks: 0
WidescreenStoryboard: 0

[Editor]
Bookmarks: 48555,76247,103939,128170,135093
DistanceSpacing: 1.2
BeatDivisor: 6
GridSize: 4
TimelineZoom: 1.7

[Metadata]
Title:If
TitleUnicode:If
Artist:Hanatan
ArtistUnicode:花たん
Creator:Rakuen
Version:Xinely's Insane
Source:
Tags:Flower ユリカ YURiCa Yurika 無力P MuryokuP Vocaloid Megurine Luka Kawaiwkyik kakifly Xinely
BeatmapID:570623
BeatmapSetID:230050

[Difficulty]
HPDrainRate:6
CircleSize:4
OverallDifficulty:7
ApproachRate:8.3
SliderMultiplier:1.40000000596046
SliderTickRate:1

[Events]
//Background and Video events
0,0,"8eba70d737.jpg",0,0
Video,-10,"If [Hanatan].avi"
//Break Periods
2,59157,61715
2,128388,134407
2,163004,165561
2,183755,186806
2,202785,216468
//Storyboard Layer 0 (Background)
//Storyboard Layer 1 (Fail)
//Storyboard Layer 2 (Pass)
//Storyboard Layer 3 (Foreground)
//Storyboard Sound Samples

[TimingPoints]
13958,288.461538461538,3,2,1,60,1,0
20015,-133.333333333333,3,2,1,60,0,0
20087,-133.333333333333,3,1,1,40,0,0
20448,-133.333333333333,3,2,1,40,0,0
20881,-100,3,2,2,70,0,1
45111,-100,3,2,2,60,0,0
48573,-100,3,2,1,60,0,0
52034,-100,3,2,2,60,0,0
53188,-100,3,2,1,40,0,0
55496,-100,3,2,1,60,0,0
58957,-100,3,2,1,40,0,0
62419,-125,3,2,2,50,0,0
90111,-125,3,2,1,60,0,0
91842,-125,3,2,2,60,0,0
91914,-125,3,2,1,60,0,0
92275,-125,3,2,2,60,0,0
92347,-125,3,2,1,60,0,0
94006,-125,3,2,2,60,0,0
94727,-125,3,2,1,60,0,0
97034,-125,3,2,2,60,0,0
97107,-125,3,2,1,60,0,0
101650,-100,3,2,1,60,0,0
102227,-100,3,2,1,60,0,0
103092,-166.666666666667,3,2,1,60,0,0
103957,-100,3,2,2,70,0,1
128188,-100,3,2,1,40,0,0
135111,-100,3,2,1,60,0,0
136842,-100,3,2,2,60,0,0
137707,-100,3,2,1,60,0,0
138573,-100,3,2,2,60,0,0
142034,-100,3,2,1,60,0,1
162804,-100,3,2,1,40,0,0
166265,-100,3,2,1,60,0,0
176650,-100,3,2,1,60,0,0
183555,275.229357798165,4,2,1,60,1,0
184655,303.030303030303,4,2,1,40,1,0
185867,309.278350515464,4,2,1,20,1,0
186485,333.333333333333,4,2,1,20,1,8
187151,359.281437125748,4,2,1,20,1,8
187510,355.029585798817,4,2,1,20,1,0
187510,-133.333333333333,4,2,1,20,0,0
188532,340.909090909091,4,2,1,20,1,8
188872,337.078651685393,4,2,1,20,1,0
188872,-133.333333333333,4,2,1,20,0,0
191231,428.571428571429,3,2,1,20,1,0
191659,410.958904109589,3,2,1,20,1,8
192069,526.315789473684,3,2,1,20,1,8
192797,359.281437125748,3,2,1,20,1,0
193515,487.80487804878,3,2,1,20,1,0
194978,740.740740740741,3,2,1,20,1,0
197200,824.515597086712,3,2,1,20,1,0
202147,319.148936170213,3,2,1,20,1,0
202785,306.122448979592,3,2,1,20,1,0
217172,-133.333333333333,3,2,1,20,0,0
228516,288.461538461538,3,2,1,60,1,0
229958,-133.333333333333,3,2,1,60,0,0
230246,-100,3,2,2,70,0,1
271785,-100,3,2,1,70,0,0
275246,-100,3,2,1,70,0,1
282169,-100,3,2,1,40,0,0
285919,-100,3,2,1,20,0,0

[Colours]
Combo1 : 128,64,0
Combo2 : 157,255,255
Combo3 : 255,243,179
Combo4 : 170,0,0

[HitObjects]
240,304,13958,5,4,0:0:0:0:
204,228,14102,1,0,0:0:0:0:
204,144,14246,1,2,0:0:0:0:
256,76,14390,2,0,P|288:72|352:88,2,70.000000298023,0|8|0,0:0|0:0|0:0,0:0:0:0:
116,136,14823,6,0,P|108:196|160:272,1,140.000000596046,8|8,0:0|0:0,0:0:0:0:
220,304,15256,1,0,0:0:0:0:
296,268,15400,2,0,L|384:264,1,70.000000298023,8|0,0:0|0:0,0:0:0:0:
224,128,15688,6,0,P|216:164|228:212,1,70.000000298023,4|0,0:0|0:0,0:0:0:0:
452,328,16121,1,0,0:0:0:0:
456,244,16265,2,0,L|448:152,1,70.000000298023,8|0,0:0|0:0,0:0:0:0:
416,96,16554,6,0,P|360:92|308:128,1,105.000000447034,8|0,0:0|0:0,0:0:0:0:
284,136,16842,2,0,L|264:52,1,70.000000298023,8|0,0:0|0:0,0:0:0:0:
196,24,17131,1,8,0:0:0:0:
144,88,17275,1,0,0:0:0:0:
224,240,17419,6,0,P|288:228|364:260,1,140.000000596046,4|2,0:0|0:0,0:0:0:0:
440,276,17852,1,0,0:0:0:0:
480,200,17996,2,0,L|472:128,1,70.000000298023,8|0,0:0|0:0,0:0:0:0:
284,136,18284,6,0,P|268:184|276:236,1,105.000000447034,8|0,0:0|0:0,0:0:0:0:
308,264,18573,2,0,L|236:284,1,70.000000298023,8|0,0:0|0:0,0:0:0:0:
396,272,18861,2,8,L|380:352,1,70.000000298023,8|0,0:0|0:0,0:0:0:0:
480,200,19150,6,0,P|420:160|336:184,1,140.000000596046,4|2,0:0|0:0,0:0:0:0:
200,228,19727,1,8,0:0:0:0:
120,200,19871,1,0,0:0:0:0:
128,280,20015,6,2,P|172:312|276:280,1,157.5000066787,2|2,0:0|0:0,0:0:0:0:
324,236,20592,2,0,L|312:168,1,52.5000022262334,2|0,0:0|0:0,0:0:0:0:
472,256,20881,6,0,L|452:348,1,70.000000298023,4|0,0:0|0:0,0:0:0:0:
380,360,21169,1,2,0:0:0:0:
316,304,21313,2,0,P|292:216|320:164,1,140.000000596046,2|0,0:0|0:0,0:0:0:0:
344,96,21746,6,0,L|256:92,2,70.000000298023,2|0|2,0:1|0:0|0:0,0:0:0:0:
428,148,22179,1,0,0:0:0:0:
352,212,22323,2,0,L|284:232,1,70.000000298023,2|0,0:0|0:0,0:0:0:0:
140,232,22611,6,0,P|116:176|164:88,1,140.000000596046,4|2,0:0|0:0,0:0:0:0:
220,304,23044,2,0,P|172:340|84:320,1,140.000000596046,0|0,0:0|0:0,0:0:0:0:
140,232,23477,6,0,P|199:196|267:202,1,140.000000596046,8|2,0:0|0:0,0:0:0:0:
348,228,23909,1,0,0:0:0:0:
424,188,24054,2,0,L|432:116,1,70.000000298023,2|0,0:0|0:0,0:0:0:0:
316,160,24342,6,0,L|296:316,1,140.000000596046,4|0,0:0|0:0,0:0:0:0:
240,360,24775,2,0,P|176:336|96:360,1,140.000000596046,2|0,0:0|0:0,0:0:0:0:
24,344,25207,5,2,0:1:0:0:
16,260,25352,1,0,0:0:0:0:
8,180,25496,2,0,P|0:152|2:110,1,70.000000298023,2|0,0:0|0:0,0:0:0:0:
216,224,25784,2,0,L|112:268,1,105.000000447034,2|0,0:0|0:0,0:0:0:0:
80,252,26073,6,0,L|108:320,1,70.000000298023,4|0,0:0|0:0,0:0:0:0:
312,328,26506,1,0,0:0:0:0:
312,328,26650,2,0,P|376:332|432:272,1,140.000000596046,2|2,0:0|0:0,0:0:0:0:
432,200,27082,5,0,0:0:0:0:
380,136,27227,2,0,L|284:140,2,70.000000298023,8|0|2,0:0|0:0|0:0,0:0:0:0:
168,264,27804,6,0,P|220:324|308:320,1,140.000000596046,4|2,0:0|0:0,0:0:0:0:
348,288,28236,2,0,P|412:272|488:304,1,140.000000596046,0|0,0:0|0:0,0:0:0:0:
504,216,28669,6,0,P|496:176|472:144,1,70.000000298023,8|0,0:0|0:0,0:0:0:0:
436,80,28957,1,2,0:0:0:0:
176,44,29246,1,2,0:0:0:0:
300,272,29534,6,0,P|304:240|300:202,1,70.000000298023,4|0,0:0|0:0,0:0:0:0:
228,156,29823,1,2,0:0:0:0:
244,328,29967,2,0,P|308:352|372:308,1,140.000000596046
468,208,30400,6,0,L|448:368,1,140.000000596046,8|2,0:0|0:0,0:0:0:0:
368,360,30832,1,0,0:0:0:0:
284,360,30977,2,0,L|208:348,1,70.000000298023,8|0,0:0|0:0,0:0:0:0:
68,288,31265,5,4,0:0:0:0:
88,208,31409,2,0,L|88:156,2,35.0000001490115,0|0|0,0:0|0:0|0:0,0:0:0:0:
148,264,31698,2,0,P|180:268|236:256,2,70.000000298023,2|0|2,0:0|0:0|0:0,0:0:0:0:
293,231,32131,6,0,P|296:266|288:300,1,70.000000298023,8|0,0:0|0:0,0:0:0:0:
84,312,32419,2,0,P|60:256|108:176,1,140.000000596046,2|8,0:0|0:0,0:0:0:0:
344,352,32996,6,0,P|268:372|204:316,1,140.000000596046,4|0,0:0|0:0,0:0:0:0:
168,276,33429,1,8,0:0:0:0:
188,140,33573,2,0,L|188:64,1,70.000000298023,2|0,0:0|0:0,0:0:0:0:
268,96,33861,5,8,0:0:0:0:
108,168,34006,2,0,L|104:72,2,70.000000298023,2|8|2,0:0|0:0|0:0,0:0:0:0:
144,244,34438,2,0,P|180:240|224:256,1,70.000000298023,4|0,0:3|0:0,0:0:0:0:
340,328,34727,6,0,P|388:300|412:212,1,140.000000596046,4|2,0:0|0:0,0:0:0:0:
204,176,35159,2,0,P|192:248|240:320,1,140.000000596046
296,152,35592,6,0,P|264:100|228:84,1,70.000000298023,2|0,0:1|0:0,0:0:0:0:
184,52,35881,2,0,B|128:52|128:52|88:36|44:64,1,140.000000596046,2|2,0:0|0:0,0:0:0:0:
24,144,36313,1,0,0:0:0:0:
108,272,36457,6,0,L|116:196,1,70.000000298023,4|0,0:0|0:0,0:0:0:0:
184,52,36890,1,2,0:0:0:0:
184,52,37034,2,0,L|204:140,1,70.000000298023,2|0,0:0|0:0,0:0:0:0:
248,256,37323,6,0,P|312:264|376:212,1,140.000000596046,8|2,0:0|0:0,0:0:0:0:
404,144,37756,1,0,0:0:0:0:
340,80,37900,2,0,L|360:-8,1,70.000000298023,8|0,0:0|0:0,0:0:0:0:
448,112,38188,6,0,L|480:280,1,140.000000596046,4|2,0:0|0:0,0:0:0:0:
432,324,38621,2,0,P|396:320|356:328,1,70.000000298023,0|2,0:0|0:0,0:0:0:0:
284,348,38909,1,0,0:0:0:0:
220,296,39054,6,0,P|216:256|224:220,1,70.000000298023,8|0,0:0|0:0,0:0:0:0:
248,148,39342,2,0,P|304:136|360:164,1,105.000000447034,2|0,0:0|0:0,0:0:0:0:
368,172,39631,2,0,P|432:172|456:160,1,70.000000298023,8|0,0:0|0:0,0:0:0:0:
496,36,39919,5,4,0:0:0:0:
412,48,40063,1,0,0:0:0:0:
412,48,40352,6,0,P|340:28|272:52,1,140.000000596046,2|0,0:0|0:0,0:0:0:0:
216,100,40784,2,0,P|200:68|200:12,1,70.000000298023,8|0,0:0|0:0,0:0:0:0:
316,136,41073,2,0,P|288:188|264:208,1,70.000000298023,8|0,0:0|0:0,0:0:0:0:
172,276,41361,2,0,P|144:232|148:172,1,105.000000447034,4|0,0:3|0:0,0:0:0:0:
144,152,41650,6,0,L|48:168,1,70.000000298023,4|0,0:0|0:0,0:0:0:0:
272,296,42082,1,2,0:0:0:0:
272,296,42227,2,0,L|264:200,1,70.000000298023,0|2,0:0|0:0,0:0:0:0:
372,164,42515,6,0,L|368:233,1,70.000000298023,8|0,0:0|0:0,0:0:0:0:
256,128,42804,2,0,P|160:112|112:148,1,140.000000596046,2|0,0:0|0:0,0:0:0:0:
64,184,43236,1,0,0:0:0:0:
48,268,43381,6,0,L|40:360,2,70.000000298023,4|2|0,0:0|0:0|0:0,0:0:0:0:
144,220,43813,2,0,L|132:384,1,140.000000596046,2|0,0:0|0:0,0:0:0:0:
220,356,44246,6,0,L|289:349,1,70.000000298023,8|0,0:0|0:0,0:0:0:0:
268,268,44534,2,0,L|335:249,1,70.000000298023,2|0,0:0|0:0,0:0:0:0:
308,168,44823,2,0,L|371:138,1,70.000000298023,8|0,0:0|0:0,0:0:0:0:
488,56,45111,5,4,0:0:0:0:
488,56,45256,1,2,0:0:0:0:
456,292,45544,1,2,0:0:0:0:
456,292,45688,1,2,0:0:0:0:
328,328,45977,5,8,0:0:0:0:
36,184,46842,5,4,0:0:0:0:
36,184,46986,1,2,0:0:0:0:
380,108,47275,1,2,0:0:0:0:
380,108,47419,1,2,0:0:0:0:
200,224,47707,5,8,0:0:0:0:
200,224,48140,1,0,0:0:0:0:
272,332,48284,2,0,L|332:324,1,35.0000001490115,8|0,0:0|0:0,0:0:0:0:
376,308,48429,2,0,L|420:284,1,35.0000001490115,8|0,0:0|0:0,0:0:0:0:
468,252,48573,6,0,P|484:200|448:104,1,140.000000596046,4|8,0:0|0:0,0:0:0:0:
392,72,49006,2,0,P|340:56|244:92,1,140.000000596046,2|0,0:0|0:0,0:0:0:0:
184,112,49438,5,8,0:0:0:0:
152,188,49582,1,0,0:0:0:0:
192,260,49727,2,0,B|248:272|288:236|288:236|324:288,1,140.000000596046,2|8,0:0|0:0,0:0:0:0:
492,316,50304,5,2,0:0:0:0:
412,248,50448,2,0,P|408:212|412:164,1,70.000000298023,4|0,0:0|0:0,0:0:0:0:
440,88,50736,2,0,P|476:80|520:92,2,70.000000298023,2|8|0,0:0|0:0|0:0,0:0:0:0:
340,152,51169,6,0,P|268:184|204:160,1,140.000000596046,8|2,0:0|0:0,0:0:0:0:
148,112,51602,1,0,0:0:0:0:
124,32,51746,1,8,0:0:0:0:
340,152,52034,6,0,L|346:221,1,70.000000298023,4|2,0:0|0:0,0:0:0:0:
500,292,52467,2,0,L|496:222,1,70.000000298023,2|2,0:0|0:0,0:0:0:0:
484,140,52756,1,0,0:0:0:0:
456,60,52900,5,8,0:0:0:0:
52,96,53765,5,4,0:0:0:0:
52,96,53909,1,2,0:0:0:0:
276,332,54198,1,2,0:0:0:0:
276,332,54342,1,2,0:0:0:0:
268,248,54486,1,0,0:0:0:0:
224,176,54631,5,8,0:0:0:0:
32,100,55063,1,2,3:0:0:0:
116,56,55207,2,0,L|172:60,3,35.0000001490115,0|0|0|0,0:0|0:0|0:0|0:0,0:0:0:0:
192,60,55496,6,0,P|252:32|328:48,1,140.000000596046,4|8,0:0|0:0,0:0:0:0:
412,168,55929,2,0,P|352:196|276:180,1,140.000000596046,2|0,0:0|0:0,0:0:0:0:
208,140,56361,6,0,P|208:104|192:56,1,70.000000298023,8|0,0:0|0:0,0:0:0:0:
116,56,56650,2,0,L|81:56,2,35.0000001490115,2|0|0,0:0|0:0|0:0,0:0:0:0:
108,152,56938,6,0,P|140:216|228:232,1,140.000000596046,8|2,0:0|0:0,0:0:0:0:
280,272,57371,1,8,0:0:0:0:
396,152,57659,2,0,L|404:68,2,70.000000298023,2|0|2,0:0|0:0|0:0,0:0:0:0:
380,236,58092,6,0,P|313:252|256:204,1,140.000000596046,8|2,0:0|0:0,0:0:0:0:
212,144,58525,2,0,P|212:104|232:64,1,70.000000298023,0|4,3:0|3:0,0:0:0:0:
292,28,58813,1,0,0:0:0:0:
320,108,58957,5,2,0:0:0:0:
240,308,62419,6,0,P|272:326|357:303,1,112.000000476837,4|0,0:0|0:0,0:0:0:0:
392,248,62852,2,0,L|396:176,1,56.0000002384184,2|0,0:0|0:0,0:0:0:0:
180,92,63284,2,0,P|116:80|56:108,2,112.000000476837,8|2|0,0:0|0:0|0:0,0:0:0:0:
344,136,64150,6,0,L|352:60,1,56.0000002384184,2|2,0:0|0:0,0:0:0:0:
488,205,64582,2,0,L|476:268,1,56.0000002384184,2|0,0:0|0:0,0:0:0:0:
324,332,65015,2,0,P|264:356|216:336,1,112.000000476837,8|0,0:0|0:0,0:0:0:0:
144,312,65448,1,2,0:0:0:0:
84,256,65592,2,0,P|84:220|92:192,1,56.0000002384184,8|0,0:0|0:0,0:0:0:0:
136,92,65881,6,0,P|192:84|256:116,1,112.000000476837,2|0,0:0|0:0,0:0:0:0:
292,172,66313,2,0,P|292:100|320:60,1,112.000000476837,2|0,0:0|0:0,0:0:0:0:
384,20,66746,1,8,0:0:0:0:
476,160,67034,1,2,0:0:0:0:
304,292,67323,2,0,L|360:284,1,56.0000002384184,8|0,0:0|0:0,0:0:0:0:
226,244,67611,6,0,P|215:299|232:352,1,112.000000476837,2|0,0:0|0:0,0:0:0:0:
316,360,68044,1,0,0:0:0:0:
380,308,68188,2,0,P|384:280|380:252,1,56.0000002384184,8|0,0:0|0:0,0:0:0:0:
344,176,68477,2,0,B|304:184|268:160|268:160|216:184,2,112.000000476837,2|0|8,0:1|0:0|0:0,0:0:0:0:
420,140,69198,1,2,3:0:0:0:
460,212,69342,6,0,L|452:328,1,112.000000476837,4|0,0:0|0:0,0:0:0:0:
376,360,69775,1,2,0:0:0:0:
220,292,70063,1,2,0:0:0:0:
164,228,70207,2,0,P|160:200|164:172,1,56.0000002384184,8|0,0:0|0:0,0:0:0:0:
216,100,70496,2,0,P|164:120|108:104,1,112.000000476837,2|8,0:0|0:0,0:0:0:0:
304,76,71073,6,0,L|301:132,1,56.0000002384184,2|2,0:0|0:0,0:0:0:0:
384,304,71506,2,0,L|391:249,2,56.0000002384184,2|0|2,0:0|0:0|0:0,0:0:0:0:
296,280,71938,2,0,P|240:272|184:300,1,112.000000476837,8|0,0:0|0:0,0:0:0:0:
116,340,72371,1,0,0:0:0:0:
56,280,72515,2,0,L|40:220,1,56.0000002384184,8|0,0:0|0:0,0:0:0:0:
56,108,72804,6,0,P|96:144|176:136,1,112.000000476837,2|0,0:0|0:0,0:0:0:0:
228,112,73236,2,0,L|236:248,1,112.000000476837,2|0,0:0|0:0,0:0:0:0:
236,308,73669,1,8,0:0:0:0:
484,248,73957,1,2,0:0:0:0:
364,328,74246,1,8,0:0:0:0:
344,112,74534,5,2,0:0:0:0:
344,112,74679,2,0,L|232:116,1,112.000000476837,8|0,0:0|0:0,0:0:0:0:
148,104,75111,2,0,P|144:136|152:176,1,56.0000002384184,8|2,0:0|0:0,0:0:0:0:
316,280,75400,2,0,P|320:248|312:208,1,56.0000002384184,2|0,0:1|0:0,0:0:0:0:
148,104,75688,2,0,L|80:104,1,56.0000002384184,0|2,0:0|0:0,0:0:0:0:
316,280,75977,2,0,L|384:280,1,56.0000002384184,8|8,0:0|0:0,0:0:0:0:
240,216,76265,6,0,P|216:266|225:321,1,112.000000476837,4|0,0:0|0:0,0:0:0:0:
300,360,76698,2,0,L|372:356,1,56.0000002384184,2|0,0:0|0:0,0:0:0:0:
476,180,77131,2,0,L|404:184,1,56.0000002384184,8|0,0:0|0:0,0:0:0:0:
336,184,77419,2,0,P|312:140|328:56,1,112.000000476837,2|0,0:0|0:0,0:0:0:0:
440,208,77996,6,0,P|421:254|347:296,1,112.000000476837,2|0,0:0|0:0,0:0:0:0:
280,328,78429,1,2,0:0:0:0:
252,112,78717,1,2,0:0:0:0:
252,112,78861,2,0,L|244:172,1,56.0000002384184,8|0,0:0|0:0,0:0:0:0:
184,224,79150,2,0,P|236:216|296:248,1,112.000000476837,2|8,0:1|0:0,0:0:0:0:
472,352,79727,6,0,P|420:360|360:328,1,112.000000476837,2|0,0:1|3:0,0:0:0:0:
320,268,80159,2,0,B|312:228|312:228|332:200|324:152,1,112.000000476837,2|2,0:1|0:0,0:0:0:0:
304,76,80592,1,8,0:0:0:0:
144,184,80881,1,2,0:1:0:0:
280,316,81169,2,0,L|344:308,1,56.0000002384184,8|0,0:0|0:0,0:0:0:0:
424,264,81457,6,0,P|428:232|424:192,1,56.0000002384184,2|8,0:0|0:0,0:0:0:0:
312,80,81890,2,0,L|327:133,1,56.0000002384184,2|8,0:0|0:0,0:0:0:0:
172,76,82323,2,0,L|200:192,1,112.000000476837,2|0,0:1|0:0,0:0:0:0:
260,248,82756,1,2,0:0:0:0:
336,204,82900,2,0,P|360:200|400:204,1,56.0000002384184,8|2,0:0|0:0,0:0:0:0:
480,320,83188,6,0,P|416:332|364:296,1,112.000000476837,4|0,0:0|0:0,0:0:0:0:
196,248,83765,2,0,L|124:252,1,56.0000002384184,0|2,0:0|0:0,0:0:0:0:
220,328,84054,2,0,P|276:344|340:312,1,112.000000476837,8|2,0:0|0:0,0:0:0:0:
360,252,84486,1,0,0:0:0:0:
344,168,84631,1,0,0:0:0:0:
96,160,84919,6,0,L|84:92,1,56.0000002384184,2|2,0:0|0:0,0:0:0:0:
236,216,85352,2,0,L|220:288,1,56.0000002384184,2|0,0:0|0:0,0:0:0:0:
368,340,85784,2,0,P|424:356|488:332,1,112.000000476837,8|0,0:0|0:0,0:0:0:0:
508,264,86217,1,2,0:0:0:0:
460,196,86361,2,0,P|452:168|456:136,1,56.0000002384184,8|0,0:0|0:0,0:0:0:0:
484,40,86650,6,0,P|432:72|368:60,1,112.000000476837,2|0,0:0|0:0,0:0:0:0:
308,24,87082,1,2,0:1:0:0:
144,60,87371,1,0,0:0:0:0:
144,60,87515,1,8,0:0:0:0:
240,288,87804,6,0,L|237:177,1,112.000000476837,2|8,0:0|0:0,0:0:0:0:
356,336,88381,1,2,0:0:0:0:
356,336,88525,2,0,L|372:216,1,112.000000476837,8|0,0:0|0:0,0:0:0:0:
380,140,88957,5,8,0:0:0:0:
220,192,89246,2,0,P|160:204|100:168,1,112.000000476837,2|0,0:1|0:0,0:0:0:0:
76,108,89679,1,2,0:0:0:0:
148,64,89823,2,0,P|192:64|216:76,1,56.0000002384184,8|8,0:0|0:0,0:0:0:0:
336,136,90111,6,0,B|352:96|352:96|360:72|344:24,1,112.000000476837,4|0,0:0|0:0,0:0:0:0:
196,104,90688,1,2,0:0:0:0:
304,252,90977,1,8,0:0:0:0:
116,272,91265,1,2,0:0:0:0:
280,356,91554,2,0,L|344:352,1,56.0000002384184,0|0,0:0|0:0,0:0:0:0:
416,324,91842,6,0,P|408:268|444:212,1,112.000000476837,2|2,0:0|0:0,0:0:0:0:
368,168,92275,2,0,P|312:208|256:208,1,112.000000476837,2|0,0:0|0:0,0:0:0:0:
204,160,92707,2,0,L|213:104,1,56.0000002384184,8|0,0:0|0:0,0:0:0:0:
120,160,92996,2,0,L|131:214,1,56.0000002384184,2|0,0:0|0:0,0:0:0:0:
60,260,93284,2,0,L|112:304,1,56.0000002384184,2|0,0:0|0:0,0:0:0:0:
232,344,93573,6,0,P|288:336|352:360,1,112.000000476837,4|2,0:0|0:0,0:0:0:0:
424,360,94006,1,2,0:0:0:0:
476,200,94294,1,2,0:0:0:0:
476,200,94438,1,8,0:0:0:0:
320,128,94727,2,0,P|296:180|308:244,1,112.000000476837,2|0,0:0|0:0,0:0:0:0:
336,308,95159,1,0,0:0:0:0:
252,312,95304,6,0,L|140:312,1,112.000000476837,2|0,0:0|0:0,0:0:0:0:
188,224,95736,2,0,L|64:256,1,112.000000476837,2|2,0:0|0:0,0:0:0:0:
4,312,96169,1,8,0:0:0:0:
132,188,96457,1,2,0:0:0:0:
280,324,96746,2,0,L|344:320,1,56.0000002384184,2|0,0:0|0:0,0:0:0:0:
240,236,97034,6,0,P|184:220|120:244,1,112.000000476837,2|0,0:0|0:0,0:0:0:0:
56,268,97467,2,0,L|48:200,1,56.0000002384184,2|0,0:0|0:0,0:0:0:0:
184,312,97900,2,0,L|164:372,1,56.0000002384184,8|0,0:0|0:0,0:0:0:0:
76,344,98188,1,2,0:0:0:0:
288,360,98477,1,2,0:0:0:0:
168,204,98765,6,0,P|144:152|168:88,1,112.000000476837,2|0,0:0|0:0,0:0:0:0:
224,148,99198,2,0,L|112:164,1,112.000000476837,2|0,0:0|0:0,0:0:0:0:
32,180,99631,1,8,0:0:0:0:
132,316,99919,1,2,0:0:0:0:
296,348,100207,1,8,0:0:0:0:
400,308,100352,1,2,0:0:0:0:
316,232,100496,5,4,0:0:0:0:
316,232,101650,1,0,0:0:0:0:
408,160,101938,1,0,0:0:0:0:
220,240,102227,6,0,P|192:172|236:96,1,140.000000596046,4|2,0:0|0:0,0:0:0:0:
472,136,102804,2,0,L|380:144,1,70.000000298023,8|0,0:0|0:0,0:0:0:0:
320,152,103092,6,0,P|280:139|238:144,1,83.9999977941511,2|0,0:0|0:0,0:0:0:0:
172,180,103525,1,0,0:0:0:0:
100,208,103669,2,0,L|88:152,1,41.9999988970756,2|0,0:0|0:0,0:0:0:0:
192,260,103957,6,0,L|172:352,1,70.000000298023,4|0,0:0|0:0,0:0:0:0:
96,364,104246,1,2,0:0:0:0:
32,304,104390,2,0,P|8:240|36:164,1,140.000000596046,8|2,0:0|0:0,0:0:0:0:
84,92,104823,6,0,L|153:95,2,70.000000298023,8|0|2,0:0|0:0|0:0,0:0:0:0:
100,188,105256,1,0,0:0:0:0:
164,260,105400,2,0,L|244:236,1,70.000000298023,8|0,0:0|0:0,0:0:0:0:
345,156,105688,6,0,P|319:220|344:284,1,140.000000596046,4|0,0:0|0:0,0:0:0:0:
396,368,106121,2,0,P|348:332|260:352,1,140.000000596046,2|0,0:0|0:0,0:0:0:0:
188,360,106554,6,0,P|132:382|52:340,1,140.000000596046,8|2,0:0|0:0,0:0:0:0:
28,276,106986,1,0,0:0:0:0:
40,192,107131,1,8,0:0:0:0:
300,188,107419,6,0,L|292:344,1,140.000000596046,4|0,0:0|0:0,0:0:0:0:
188,360,107852,2,0,L|196:212,1,140.000000596046,2|2,0:0|0:0,0:0:0:0:
204,136,108284,5,8,0:0:0:0:
236,60,108429,1,0,0:0:0:0:
304,112,108573,2,0,P|336:120|376:112,1,70.000000298023,2|0,0:0|0:0,0:0:0:0:
456,72,108861,2,0,L|444:180,1,105.000000447034,8|0,0:0|0:0,0:0:0:0:
400,232,109150,6,0,L|411:300,1,70.000000298023,4|0,0:0|0:0,0:0:0:0:
256,352,109582,1,0,0:0:0:0:
256,352,109727,2,0,P|192:356|136:296,1,140.000000596046,2|8,0:0|0:0,0:0:0:0:
128,224,110159,5,0,0:0:0:0:
156,144,110304,2,0,L|60:148,2,70.000000298023,8|0|2,0:0|0:0|0:3,0:0:0:0:
328,308,110881,6,0,P|384:316|444:264,1,140.000000596046,4|0,0:0|0:0,0:0:0:0:
484,192,111313,2,0,P|480:120|420:56,1,140.000000596046,2|2,0:0|0:0,0:0:0:0:
328,128,111746,6,0,P|360:148|400:152,1,70.000000298023,8|0,0:0|0:0,0:0:0:0:
484,192,112034,1,2,0:0:0:0:
284,352,112323,1,2,0:0:0:0:
104,120,112611,6,0,L|104:190,1,70.000000298023,12|0,0:0|0:0,0:0:0:0:
172,256,112900,1,2,0:0:0:0:
264,220,113044,2,0,B|284:168|284:168|256:136|264:68,1,140.000000596046,2|0,0:0|0:0,0:0:0:0:
376,164,113477,6,0,L|316:316,1,140.000000596046,8|2,0:0|0:0,0:0:0:0:
256,340,113909,1,0,0:0:0:0:
188,288,114054,2,0,P|152:284|116:292,1,70.000000298023,8|0,0:0|0:0,0:0:0:0:
44,328,114342,5,4,0:0:0:0:
20,248,114486,2,0,L|20:196,2,35.0000001490115,2|0|0,0:1|0:0|0:0,0:0:0:0:
100,220,114775,2,0,L|192:212,2,70.000000298023,2|0|2,0:1|0:0|0:1,0:0:0:0:
136,124,115207,6,0,L|228:144,1,70.000000298023,8|0,0:0|0:0,0:0:0:0:
272,204,115496,2,0,P|248:148|296:68,1,140.000000596046,2|8,0:1|0:0,0:0:0:0:
400,328,116073,6,0,P|328:348|264:312,1,140.000000596046,4|0,0:0|0:0,0:0:0:0:
220,256,116506,1,8,0:0:0:0:
192,176,116650,2,0,P|184:144|192:100,1,70.000000298023,2|0,0:1|0:0,0:0:0:0:
276,140,116938,5,8,0:0:0:0:
220,256,117082,2,0,L|140:264,2,70.000000298023,2|8|2,0:0|0:0|0:0,0:0:0:0:
276,340,117515,2,0,L|206:349,1,70.000000298023,4|0,0:3|0:0,0:0:0:0:
359,320,117804,6,0,P|415:281|433:215,1,140.000000596046,4|0,0:0|0:0,0:0:0:0:
248,156,118236,2,0,P|235:223|263:286,1,140.000000596046,2|2,0:0|0:0,0:0:0:0:
334,144,118669,6,0,P|321:112|296:88,1,70.000000298023,8|0,0:0|0:0,0:0:0:0:
168,220,118957,2,2,P|92:205|57:137,1,140.000000596046,0|2,0:0|0:0,0:0:0:0:
116,80,119390,1,0,0:0:0:0:
188,40,119534,6,0,P|224:36|272:52,2,70.000000298023,4|0|2,0:0|0:0|0:0,0:0:0:0:
116,80,119967,1,0,0:0:0:0:
172,144,120111,2,0,L|180:236,1,70.000000298023,2|0,0:0|0:0,0:0:0:0:
192,320,120400,6,0,P|252:344|340:292,1,140.000000596046,8|2,0:0|0:0,0:0:0:0:
348,240,120832,1,0,0:0:0:0:
308,168,120977,2,0,L|328:80,1,70.000000298023,8|0,0:0|0:0,0:0:0:0:
440,188,121265,6,0,L|404:356,1,140.000000596046,4|0,0:0|0:0,0:0:0:0:
336,360,121698,2,0,P|299:351|256:360,1,70.000000298023,2|0,0:0|0:0,0:0:0:0:
184,364,121986,1,2,0:0:0:0:
124,304,122131,6,0,L|128:228,1,70.000000298023,8|0,0:0|0:0,0:0:0:0:
148,152,122419,2,0,P|204:140|260:168,1,105.000000447034,2|0,0:0|0:0,0:0:0:0:
280,180,122707,2,0,P|344:180|368:168,1,70.000000298023,8|0,0:0|0:0,0:0:0:0:
392,104,122996,5,4,0:0:0:0:
444,168,123140,1,2,0:0:0:0:
386,243,123284,1,0,0:0:0:0:
386,243,123429,2,0,P|320:263|252:252,1,140.000000596046,2|0,0:0|0:0,0:0:0:0:
188,196,123861,6,0,P|172:140|172:108,1,70.000000298023,8|0,0:0|0:0,0:0:0:0:
252,252,124150,2,0,P|224:308|204:328,1,70.000000298023,8|0,0:0|0:0,0:0:0:0:
108,360,124438,2,0,P|80:320|80:252,1,105.000000447034,4|0,0:3|0:0,0:0:0:0:
96,228,124727,6,0,L|0:244,1,70.000000298023,4|0,0:0|0:0,0:0:0:0:
252,252,125159,1,2,0:0:0:0:
252,252,125304,2,0,L|260:348,1,70.000000298023,8|0,0:0|0:0,0:0:0:0:
340,232,125592,6,0,L|348:136,1,70.000000298023,8|0,0:0|0:0,0:0:0:0:
352,64,125881,2,0,P|280:48|208:84,1,140.000000596046,2|2,0:0|0:0,0:0:0:0:
164,136,126313,1,0,0:0:0:0:
84,112,126457,6,0,L|72:42,2,70.000000298023,4|0|0,0:0|0:0|0:0,0:0:0:0:
112,212,126890,2,0,P|180:196|260:228,1,140.000000596046,2|2,0:0|0:0,0:0:0:0:
320,256,127323,6,0,L|408:264,1,70.000000298023,8|0,0:0|0:0,0:0:0:0:
276,344,127611,2,0,L|192:344,1,70.000000298023,2|0,0:0|0:0,0:0:0:0:
303,188,127900,2,0,L|320:256,1,70.000000298023,8|0,0:0|0:0,0:0:0:0:
380,344,128188,5,2,0:0:0:0:
140,264,135111,6,0,L|220:264,1,70.000000298023,4|2,0:0|0:0,0:0:0:0:
380,264,135544,1,8,0:0:0:0:
380,264,135688,2,0,P|388:224|380:168,1,70.000000298023,2|0,0:0|0:0,0:0:0:0:
288,228,135977,6,0,P|280:268|288:324,1,70.000000298023,2|0,0:0|0:0,0:0:0:0:
368,360,136265,1,8,0:0:0:0:
192,348,136554,1,8,0:0:0:0:
356,256,136842,5,10,0:0:0:0:
356,256,136986,1,10,0:0:0:0:
112,220,137275,1,10,0:0:0:0:
112,220,137419,1,10,0:0:0:0:
280,200,137707,6,0,L|288:116,1,70.000000298023,8|0,0:0|0:0,0:0:0:0:
360,208,137996,2,0,L|396:131,1,70.000000298023,8|0,0:0|0:0,0:0:0:0:
420,272,138284,2,0,L|480:212,1,70.000000298023,8|0,0:0|0:0,0:0:0:0:
356,328,138573,6,0,P|292:356|224:324,1,140.000000596046,4|2,0:0|0:0,0:0:0:0:
192,256,139006,2,0,L|204:176,2,70.000000298023,8|0|2,0:0|0:0|0:0,0:0:0:0:
284,236,139438,6,0,L|296:156,1,70.000000298023,8|0,0:0|0:0,0:0:0:0:
276,76,139727,2,0,B|224:88|184:64|184:64|128:112,1,140.000000596046,8|2,0:0|0:3,0:0:0:0:
48,320,140304,6,0,P|23:255|45:190,1,140.000000596046,10|2,0:0|0:0,0:0:0:0:
88,120,140736,1,2,0:0:0:0:
172,128,140881,2,0,L|242:128,1,70.000000298023,8|0,0:0|0:0,0:0:0:0:
316,168,141169,6,0,L|385:164,1,70.000000298023,2|0,0:0|0:0,0:0:0:0:
476,220,141457,2,0,L|464:268,3,35.0000001490115,0|0|0|0,0:0|0:0|0:0|0:0,0:0:0:0:
444,288,141746,2,0,L|416:320,3,35.0000001490115,0|0|0|0,0:0|0:0|0:0|0:0,0:0:0:0:
384,336,142034,6,0,L|288:340,2,70.000000298023,4|0|0,0:0|0:0|0:0,0:0:0:0:
328,240,142467,2,0,P|268:224|184:268,1,140.000000596046,2|0,0:0|0:0,0:0:0:0:
132,312,142900,5,10,0:0:0:0:
44,152,143188,1,10,0:0:0:0:
204,68,143477,2,0,P|236:60|276:64,1,70.000000298023,2|0,0:0|0:0,0:0:0:0:
324,192,143765,6,0,P|252:216|188:196,1,140.000000596046,4|0,0:0|0:0,0:0:0:0:
120,144,144198,2,0,L|44:144,2,70.000000298023,2|8|2,0:0|0:0|0:0,0:0:0:0:
204,68,144631,6,0,L|284:68,1,70.000000298023,8|0,0:0|0:0,0:0:0:0:
356,76,144919,2,0,L|408:80,2,35.0000001490115,2|0|0,0:0|0:0|0:0,0:0:0:0:
284,152,145207,2,0,P|248:152|200:164,1,70.000000298023,8|0,0:0|0:0,0:0:0:0:
104,188,145496,6,0,P|108:232|164:296,1,105.000000447034,4|0,0:0|0:0,0:0:0:0:
184,288,145784,2,0,L|100:340,1,70.000000298023,8|0,0:0|0:0,0:0:0:0:
40,316,146073,2,0,L|16:284,2,35.0000001490115,2|0|0,0:0|0:0|0:0,0:0:0:0:
88,248,146361,6,0,L|64:180,1,70.000000298023,8|0,0:0|0:0,0:0:0:0:
40,84,146650,2,0,L|-2:81,2,35.0000001490115,2|0|0,0:0|0:0|0:0,0:0:0:0:
164,172,146938,2,0,P|172:136|160:84,1,70.000000298023,8|0,0:0|0:0,0:0:0:0:
232,28,147227,6,0,P|156:52|96:20,1,140.000000596046,12|0,0:0|0:0,0:0:0:0:
104,28,147804,1,2,0:0:0:0:
84,124,147948,1,0,0:0:0:0:
112,224,148092,6,0,P|168:252|248:212,1,140.000000596046,8|2,0:0|0:0,0:0:0:0:
288,168,148525,1,0,0:0:0:0:
232,104,148669,1,2,0:0:0:0:
312,80,148813,1,0,0:0:0:0:
176,168,148957,6,0,L|176:328,1,140.000000596046,12|2,0:0|0:0,0:0:0:0:
252,344,149390,2,0,L|308:352,2,35.0000001490115,0|0|8,0:0|0:0|0:0,0:0:0:0:
168,360,149679,1,0,0:0:0:0:
108,304,149823,2,0,L|56:296,2,35.0000001490115,2|0|0,0:0|0:0|0:0,0:0:0:0:
200,224,150111,6,0,P|264:212|344:260,1,140.000000596046,8|8,0:0|0:0,0:0:0:0:
428,108,150688,6,0,L|436:44,2,35.0000001490115,2|0|0,0:0|0:0|0:0,0:0:0:0:
340,120,150977,2,0,L|332:60,2,35.0000001490115,2|0|0,0:0|0:0|0:0,0:0:0:0:
424,200,151265,2,0,L|472:180,2,35.0000001490115,2|0|0,0:0|0:0|0:0,0:0:0:0:
356,248,151554,5,8,0:0:0:0:
272,240,151698,2,0,L|228:240,2,35.0000001490115,0|0|2,0:0|0:0|0:0,0:0:0:0:
356,248,151986,1,0,0:0:0:0:
304,156,152131,2,0,L|316:60,1,70.000000298023,8|0,0:0|0:0,0:0:0:0:
388,44,152419,6,0,L|432:36,6,23.3333334326743,6|0|0|0|0|0|2,0:0|0:0|0:0|0:0|0:0|0:0|0:0,0:0:0:0:
420,124,152852,2,0,P|432:200|400:264,1,140.000000596046,2|2,0:0|0:0,0:0:0:0:
272,320,153429,6,0,L|192:300,1,70.000000298023,2|0,0:0|0:0,0:0:0:0:
272,236,153717,2,0,L|204:160,1,70.000000298023,2|8,0:0|0:0,0:0:0:0:
220,100,154006,1,0,0:0:0:0:
320,140,154150,6,0,L|416:248,1,140.000000596046,4|2,0:0|0:0,0:0:0:0:
472,304,154582,1,0,0:0:0:0:
392,336,154727,2,0,P|356:332|312:340,1,70.000000298023,2|0,0:0|0:0,0:0:0:0:
240,356,155015,6,0,P|200:360|152:344,1,70.000000298023,10|0,0:0|0:0,0:0:0:0:
100,304,155304,2,0,P|92:236|136:172,1,140.000000596046,2|8,0:0|0:0,0:0:0:0:
376,168,155881,6,0,P|300:204|232:184,1,140.000000596046,4|8,0:0|0:0,0:0:0:0:
176,148,156313,1,0,0:0:0:0:
104,188,156457,2,0,L|100:276,1,70.000000298023,2|0,0:0|0:0,0:0:0:0:
176,296,156746,6,0,L|180:208,1,70.000000298023,8|0,0:0|0:0,0:0:0:0:
156,120,157034,2,0,P|84:112|24:156,1,140.000000596046,2|8,0:0|0:0,0:0:0:0:
308,144,157611,6,0,L|400:144,1,70.000000298023,2|0,0:0|0:0,0:0:0:0:
424,232,157900,2,0,L|336:232,1,70.000000298023,8|0,0:0|0:0,0:0:0:0:
244,232,158188,6,0,P|220:312|260:376,2,140.000000596046,2|8|2,0:0|0:0|0:0,0:0:0:0:
292,160,158909,2,0,P|324:152|380:168,2,70.000000298023,2|8|2,0:0|0:0|0:0,0:0:0:0:
244,232,159342,6,0,P|176:256|116:228,1,140.000000596046,4|8,0:0|0:0,0:0:0:0:
72,160,159775,1,0,0:0:0:0:
128,100,159919,2,0,P|160:96|200:104,1,70.000000298023,2|0,0:0|0:0,0:0:0:0:
276,128,160207,6,0,L|311:128,2,35.0000001490115,8|0|0,0:0|0:0|0:0,0:0:0:0:
216,208,160496,2,0,P|140:220|84:184,1,140.000000596046,8|2,0:0|0:0,0:0:0:0:
40,124,160929,1,0,0:0:0:0:
88,56,161073,6,0,P|120:48|168:56,1,70.000000298023,2|4,0:0|0:0,0:0:0:0:
244,100,161361,2,0,P|278:103|312:96,1,70.000000298023,2|0,0:0|0:0,0:0:0:0:
408,52,161650,2,0,L|416:136,1,70.000000298023,12|0,0:0|0:0,0:0:0:0:
424,204,161938,5,12,0:0:0:0:
152,220,162227,2,0,L|144:144,1,70.000000298023,8|0,0:0|0:0,0:0:0:0:
248,240,162515,2,0,L|224:316,1,70.000000298023,8|8,0:0|0:0,0:0:0:0:
136,324,162804,5,2,0:0:0:0:
296,340,166265,5,4,0:0:0:0:
296,340,166409,1,8,0:0:0:0:
404,128,166698,1,8,0:0:0:0:
404,128,166842,2,0,P|316:128|256:168,1,140.000000596046,8|2,0:0|0:0,0:0:0:0:
200,196,167275,5,0,0:0:0:0:
132,144,167419,2,0,L|136:64,1,70.000000298023,2|0,0:0|0:0,0:0:0:0:
208,32,167707,1,8,0:0:0:0:
220,120,167852,1,8,0:0:0:0:
240,212,167996,6,0,L|320:208,1,70.000000298023,4|8,0:0|0:0,0:0:0:0:
309,208,168429,1,8,0:0:0:0:
309,208,168573,2,0,P|377:208|437:144,1,140.000000596046,8|8,0:0|0:0,0:0:0:0:
424,76,169006,5,0,0:0:0:0:
328,60,169150,2,0,L|344:136,1,70.000000298023,8|0,0:0|0:0,0:0:0:0:
308,208,169438,2,0,P|260:220|204:208,1,105.000000447034,2|0,0:0|0:0,0:0:0:0:
176,196,169727,6,0,L|168:344,1,140.000000596046,4|0,0:0|0:0,0:0:0:0:
88,296,170159,2,0,L|96:148,1,140.000000596046,2|2,0:0|0:0,0:0:0:0:
164,96,170592,5,8,0:0:0:0:
356,244,170881,1,2,0:0:0:0:
356,244,171025,1,0,0:0:0:0:
376,164,171169,2,0,P|384:128|376:68,1,70.000000298023,8|0,0:0|0:0,0:0:0:0:
340,24,171457,5,2,0:0:0:0:
272,88,171602,2,0,B|216:100|168:76|168:76|124:108,1,140.000000596046,12|0,0:0|0:0,0:0:0:0:
208,196,172034,2,0,B|234:215|234:215|282:191|338:203,1,140.000000596046,12|8,0:0|0:0,0:0:0:0:
484,336,172611,5,2,0:0:0:0:
304,368,172900,1,8,0:0:0:0:
140,288,173188,5,4,0:0:0:0:
140,288,173332,1,8,0:0:0:0:
188,116,173621,1,8,0:0:0:0:
188,116,173765,2,0,P|264:104|336:156,1,140.000000596046,8|8,0:0|0:0,0:0:0:0:
380,188,174198,5,0,0:0:0:0:
452,144,174342,2,0,L|448:64,1,70.000000298023,8|0,0:0|0:0,0:0:0:0:
376,28,174631,1,8,0:0:0:0:
292,32,174775,1,8,0:0:0:0:
256,136,174919,6,0,L|256:228,1,70.000000298023,12|8,0:0|0:0,0:0:0:0:
364,328,175352,1,8,0:0:0:0:
364,328,175496,2,0,P|432:328|492:264,1,140.000000596046,8|8,0:0|0:0,0:0:0:0:
500,200,175929,5,0,0:0:0:0:
460,128,176073,2,0,P|424:124|388:136,1,70.000000298023,8|0,0:0|0:0,0:0:0:0:
280,180,176361,2,0,P|280:244|304:300,1,105.000000447034,10|0,0:0|0:0,0:0:0:0:
320,328,176650,6,0,L|168:344,1,140.000000596046,4|0,0:0|0:0,0:0:0:0:
140,194,177082,2,0,L|280:180,1,140.000000596046,2|2,0:0|0:0,0:0:0:0:
364,168,177515,5,8,0:0:0:0:
476,328,177804,1,2,0:0:0:0:
400,296,177948,1,0,0:0:0:0:
372,216,178092,2,0,L|388:124,1,70.000000298023,8|0,0:0|0:0,0:0:0:0:
456,184,178381,5,2,0:0:0:0:
278,236,178525,2,0,L|308:100,1,140.000000596046,4|0,0:0|0:0,0:0:0:0:
248,40,178957,6,0,P|196:48|144:136,1,140.000000596046,8|8,0:0|0:0,0:0:0:0:
92,292,179390,2,0,P|144:284|196:196,1,140.000000596046,2|0,0:0|0:0,0:0:0:0:
208,136,179823,1,8,0:0:0:0:
180,56,179967,1,8,0:0:0:0:
96,56,180111,5,2,0:0:0:0:
26,127,180256,2,0,L|40:196,1,70.000000298023,4|0,0:0|0:0,0:0:0:0:
100,280,180544,2,0,P|168:256|244:284,1,140.000000596046,2|0,0:0|0:0,0:0:0:0:
296,328,180977,5,10,0:0:0:0:
480,212,181265,2,0,L|488:156,2,35.0000001490115,2|0|0,0:0|0:0|0:0,0:0:0:0:
400,276,181554,2,0,L|411:331,2,35.0000001490115,8|0|0,0:0|0:0|0:0,0:0:0:0:
312,180,181842,6,0,P|304:116|352:40,1,140.000000596046,2|8,0:0|0:0,0:0:0:0:
420,32,182275,1,0,0:0:0:0:
480,92,182419,2,0,L|472:184,1,70.000000298023,8|0,0:0|0:0,0:0:0:0:
386,154,182707,6,0,L|380:224,1,70.000000298023,8|0,0:0|0:0,0:0:0:0:
456,292,182996,2,0,L|500:312,2,35.0000001490115,2|0|0,0:0|0:0|0:0,0:0:0:0:
352,328,183284,2,0,L|340:380,2,35.0000001490115,8|0|0,0:0|0:0|0:0,0:0:0:0:
380,224,183555,5,6,0:0:0:0:
216,284,187510,6,0,P|264:308|328:296,2,105.000004452467,2|0|2,0:0|0:0|0:0,0:0:0:0:
136,180,188532,1,2,0:0:0:0:
208,88,188872,2,0,B|248:92|276:72|276:72|320:80,1,105.000004452467,2|0,0:0|0:0,0:0:0:0:
496,224,189883,5,0,0:0:0:0:
268,352,190557,1,0,0:0:0:0:
248,200,190894,2,0,L|300:204,1,52.5000022262334,2|0,0:0|0:0,0:0:0:0:
176,256,191231,2,0,P|158:191|192:128,1,140.000000596046,2|2,0:0|0:0,0:0:0:0:
364,56,192069,5,2,0:0:0:0:
432,308,192595,1,0,0:0:0:0:
432,308,192797,1,2,0:0:0:0:
76,304,193515,1,0,0:0:0:0:
380,176,194978,5,0,0:0:0:0:
240,264,197200,1,2,0:0:0:0:
256,192,197406,12,0,199261,0:0:0:0:
280,348,217172,5,0,0:0:0:0:
176,208,217478,2,0,P|188:152|280:100,2,157.5000066787,2|0|2,0:0|0:0|0:0,0:0:0:0:
388,340,219009,1,0,0:0:0:0:
444,228,219315,6,0,L|424:108,1,105.000004452467,2|0,0:0|0:0,0:0:0:0:
332,124,219774,2,0,L|312:244,1,105.000004452467,2|0,0:0|0:0,0:0:0:0:
380,320,220233,1,2,0:0:0:0:
144,232,220846,2,0,L|84:236,1,52.5000022262334
224,304,221152,6,0,P|248:244|212:144,1,157.5000066787,2|0,0:0|0:0,0:0:0:0:
128,340,222070,2,0,L|16:324,1,105.000004452467,2|0,0:0|0:0,0:0:0:0:
64,176,222682,1,2,0:0:0:0:
208,240,222989,6,0,P|268:224|320:248,1,105.000004452467,2|0,0:0|0:0,0:0:0:0:
392,264,223448,2,0,P|376:204|384:152,1,105.000004452467,2|0,0:0|0:0,0:0:0:0:
416,92,223907,1,2,0:0:0:0:
416,92,224519,1,0,0:0:0:0:
404,264,224825,6,0,L|300:272,1,105.000004452467,2|0,0:0|0:0,0:0:0:0:
208,188,225285,2,0,L|312:180,1,105.000004452467,2|0,0:0|0:0,0:0:0:0:
213,90,225744,2,0,P|126:140|132:240,1,210.000008904934,2|0,0:0|0:0,0:0:0:0:
292,320,226662,6,0,P|354:274|372:199,2,157.5000066787,2|0|2,0:0|0:0|0:0,0:0:0:0:
172,352,227887,1,2,0:0:0:0:
184,124,228516,5,4,0:0:0:0:
184,124,228660,2,0,P|252:172|308:164,1,140.000000596046,10|0,0:0|0:0,0:0:0:0:
380,128,229092,2,0,L|380:198,1,70.000000298023,8|0,0:0|0:0,0:0:0:0:
424,272,229381,6,0,P|443:268|458:269,2,35.0000001490115,8|0|0,0:0|0:0|0:0,0:0:0:0:
324,312,229669,2,0,P|304:316|289:314,2,35.0000001490115,8|0|0,0:0|0:0|0:0,0:0:0:0:
360,224,229958,2,0,L|352:164,1,52.5000022262334,2|0,0:0|0:0,0:0:0:0:
424,272,230246,6,0,L|404:364,1,70.000000298023,4|0,0:0|0:0,0:0:0:0:
324,340,230535,1,2,0:0:0:0:
280,268,230679,2,0,B|256:232|256:232|248:180|284:128,1,140.000000596046,8|0,0:0|0:0,0:0:0:0:
332,72,231112,6,0,P|296:60|244:68,2,70.000000298023,8|0|2,0:0|0:0|0:0,0:0:0:0:
392,132,231544,1,0,0:0:0:0:
420,212,231689,2,0,L|408:288,1,70.000000298023,8|0,0:0|0:0,0:0:0:0:
240,336,231977,6,0,P|216:280|264:192,1,140.000000596046,4|0,0:0|0:0,0:0:0:0:
288,140,232410,2,0,P|240:176|152:156,1,140.000000596046,2|0,0:0|0:0,0:0:0:0:
76,72,232842,6,0,P|135:36|203:42,1,140.000000596046,8|2,0:0|0:0,0:0:0:0:
284,64,233275,1,0,0:0:0:0:
356,104,233419,2,0,L|359:173,1,70.000000298023,8|0,0:0|0:0,0:0:0:0:
452,56,233708,6,0,L|456:220,1,140.000000596046,4|0,0:0|0:0,0:0:0:0:
440,280,234141,2,0,P|364:264|292:304,1,140.000000596046,2|0,0:0|0:0,0:0:0:0:
244,340,234573,5,8,0:0:0:0:
168,300,234717,1,0,0:0:0:0:
136,224,234862,2,0,P|136:184|148:152,1,70.000000298023,2|0,0:0|0:0,0:0:0:0:
276,280,235150,2,0,L|172:324,1,105.000000447034,8|0,0:0|0:0,0:0:0:0:
140,332,235439,6,0,P|112:316|88:284,1,70.000000298023,4|0,0:0|0:0,0:0:0:0:
80,204,235727,1,0,0:0:0:0:
140,120,235871,1,2,0:0:0:0:
196,204,236016,2,0,P|260:208|316:148,1,140.000000596046,8|8,0:0|0:0,0:0:0:0:
320,76,236448,5,0,0:0:0:0:
248,28,236592,2,0,L|152:32,1,70.000000298023,8|0,0:0|0:0,0:0:0:0:
288,128,236881,2,0,L|372:128,1,70.000000298023,8|0,0:0|0:0,0:0:0:0:
252,248,237169,6,0,P|180:280|116:256,1,140.000000596046,4|0,0:0|0:0,0:0:0:0:
40,160,237602,2,0,P|112:128|176:152,1,140.000000596046,2|0,0:0|0:0,0:0:0:0:
264,184,238035,6,0,P|282:154|287:119,1,70.000000298023,8|0,0:0|0:0,0:0:0:0:
168,248,238323,2,0,P|215:296|284:300,1,140.000000596046,2|2,0:0|0:0,0:0:0:0:
360,264,238756,1,0,0:0:0:0:
460,176,238900,6,0,P|464:141|460:106,1,70.000000298023,4|0,0:0|0:0,0:0:0:0:
400,48,239189,1,2,0:0:0:0:
348,116,239333,2,0,P|276:144|204:112,1,140.000000596046
104,84,239765,6,0,L|116:240,1,140.000000596046,8|2,0:0|0:0,0:0:0:0:
104,348,240198,1,0,0:0:0:0:
104,348,240342,2,0,P|64:352|28:336,1,70.000000298023,8|0,0:0|0:0,0:0:0:0:
8,264,240631,5,4,0:0:0:0:
60,200,240775,2,0,L|48:152,2,35.0000001490115,2|0|0,0:1|0:0|0:0,0:0:0:0:
144,196,241064,2,0,L|236:188,2,70.000000298023,2|8|0,0:1|0:0|0:0,0:0:0:0:
188,272,241496,6,0,L|280:292,1,70.000000298023,8|0,0:0|0:0,0:0:0:0:
356,264,241785,2,0,B|360:232|380:208|380:208|356:172|356:116,1,140.000000596046,2|2,0:0|0:0,0:0:0:0:
116,320,242362,6,0,P|168:356|240:341,1,140.000000596046,4|0,0:0|0:0,0:0:0:0:
296,276,242794,1,8,0:0:0:0:
272,196,242939,2,0,P|268:156|272:120,1,70.000000298023,2|0,0:0|0:0,0:0:0:0:
316,56,243227,5,8,0:0:0:0:
384,108,243371,2,0,L|453:111,2,70.000000298023,2|8|0,0:0|0:0|0:0,0:0:0:0:
360,188,243804,2,0,L|444:192,1,70.000000298023,8|0,0:0|0:0,0:0:0:0:
264,116,244092,6,0,P|244:180|276:252,1,140.000000596046,4|0,0:0|0:0,0:0:0:0:
424,352,244525,2,0,P|444:288|412:216,1,140.000000596046,2|2,0:0|0:0,0:0:0:0:
384,144,244958,6,0,P|417:133|451:133,1,70.000000298023,8|0,0:0|0:0,0:0:0:0:
290,231,245246,2,0,L|280:92,1,140.000000596046,2|0,0:0|0:0,0:0:0:0:
236,20,245679,1,0,0:0:0:0:
180,84,245823,6,0,L|110:84,1,70.000000298023,4|0,0:0|0:0,0:0:0:0:
60,300,246256,1,2,0:0:0:0:
60,300,246400,2,0,P|92:292|144:304,1,70.000000298023,8|0,0:0|0:0,0:0:0:0:
216,348,246689,6,0,P|272:364|364:320,1,140.000000596046,8|2,0:0|0:0,0:0:0:0:
396,268,247121,1,0,0:0:0:0:
356,196,247265,2,0,L|376:108,1,70.000000298023,8|0,0:0|0:0,0:0:0:0:
224,128,247554,6,0,L|192:296,1,140.000000596046,4|0,0:0|0:0,0:0:0:0:
132,320,247987,2,0,P|112:288|108:232,1,70.000000298023,2|0,0:0|0:0,0:0:0:0:
88,176,248275,1,2,0:0:0:0:
104,92,248419,6,0,L|180:68,1,70.000000298023,8|0,0:0|0:0,0:0:0:0:
284,44,248708,2,0,P|336:36|396:60,1,105.000000447034,2|0,0:0|0:0,0:0:0:0:
412,84,248996,2,0,P|476:84|500:72,1,70.000000298023,8|0,0:0|0:0,0:0:0:0:
344,176,249285,5,4,0:0:0:0:
280,100,249429,1,0,0:0:0:0:
412,84,249573,1,2,0:0:0:0:
396,268,249717,2,0,P|340:300|264:272,1,140.000000596046,10|0,0:0|0:0,0:0:0:0:
208,216,250150,6,0,P|192:160|192:128,1,70.000000298023,8|0,0:0|0:0,0:0:0:0:
308,108,250439,2,0,P|280:164|260:184,1,70.000000298023,8|0,0:0|0:0,0:0:0:0:
144,272,250727,2,0,P|124:212|124:148,1,105.000000447034,8|0,0:0|0:0,0:0:0:0:
148,136,251015,6,0,L|52:152,1,70.000000298023,4|0,0:0|0:0,0:0:0:0:
280,324,251448,1,0,0:0:0:0:
280,324,251592,2,0,L|260:232,1,70.000000298023,8|0,0:0|0:0,0:0:0:0:
388,148,251881,6,0,L|381:218,1,70.000000298023,8|0,0:0|0:0,0:0:0:0:
292,92,252169,2,0,P|196:76|148:112,1,140.000000596046,2|2,0:0|0:0,0:0:0:0:
108,156,252602,1,0,0:0:0:0:
48,216,252746,6,0,P|40:264|52:304,2,70.000000298023,4|0|0,0:0|0:0|0:0,0:0:0:0:
124,252,253179,2,0,L|264:256,1,140.000000596046,2|0,0:0|0:0,0:0:0:0:
404,160,253612,6,0,L|316:168,1,70.000000298023,8|0,0:0|0:0,0:0:0:0:
424,264,253900,2,0,L|509:286,1,70.000000298023,8|0,0:0|0:0,0:0:0:0:
324,348,254189,2,0,L|292:272,1,70.000000298023,8|0,0:0|0:0,0:0:0:0:
328,104,254477,6,0,P|268:148|196:136,1,140.000000596046,4|8,0:0|0:0,0:0:0:0:
128,108,254910,1,0,0:0:0:0:
84,180,255054,2,0,P|76:224|84:250,1,70.000000298023,2|0,0:0|0:0,0:0:0:0:
140,308,255342,6,0,L|209:311,2,70.000000298023,8|0|2,0:0|0:0|0:0,0:0:0:0:
60,332,255775,1,0,0:0:0:0:
148,228,255919,2,0,L|228:204,1,70.000000298023,8|0,0:0|0:0,0:0:0:0:
320,128,256208,6,0,P|294:192|319:256,1,140.000000596046,4|0,0:0|0:0,0:0:0:0:
387,304,256640,2,0,P|339:340|251:320,1,140.000000596046,2|0,0:0|0:0,0:0:0:0:
191,284,257073,6,0,P|103:284|55:324,1,140.000000596046,8|8,0:0|0:0,0:0:0:0:
140,364,257506,1,0,0:0:0:0:
32,284,257650,2,0,L|24:196,1,70.000000298023,8|0,0:0|0:0,0:0:0:0:
256,220,257939,6,0,L|232:376,1,140.000000596046,4|0,0:0|0:0,0:0:0:0:
132,292,258371,2,0,L|156:136,1,140.000000596046,2|0,0:0|0:0,0:0:0:0:
152,40,258804,5,8,0:0:0:0:
224,96,258948,1,0,0:0:0:0:
72,100,259092,2,0,L|80:196,1,70.000000298023,8|0,0:0|0:0,0:0:0:0:
176,240,259381,2,0,L|171:171,1,70.000000298023,8|0,0:0|0:0,0:0:0:0:
236,44,259669,6,0,L|244:140,1,70.000000298023,8|0,0:0|0:0,0:0:0:0:
336,200,259958,2,0,L|328:104,1,70.000000298023,8|0,0:0|0:0,0:0:0:0:
420,272,260246,6,0,P|372:320|304:318,1,140.000000596046,8|2,0:0|0:0,0:0:0:0:
236,268,260679,1,0,0:0:0:0:
168,220,260823,2,0,L|72:224,2,70.000000298023,8|0|2,0:0|0:0|0:0,0:0:0:0:
432,344,261400,6,0,P|452:288|432:200,1,140.000000596046,4|0,0:0|0:0,0:0:0:0:
364,132,261833,2,0,B|384:100|384:100|436:124|484:108,1,140.000000596046,2|0,0:0|0:0,0:0:0:0:
312,36,262265,6,0,P|294:66|289:101,1,70.000000298023,2|0,0:0|0:0,0:0:0:0:
401,257,262554,2,0,P|419:227|424:192,1,70.000000298023,8|0,0:0|0:0,0:0:0:0:
340,144,262842,2,0,P|292:132|228:152,1,105.000000447034,8|0,0:0|0:0,0:0:0:0:
212,160,263131,6,0,L|132:156,2,70.000000298023,4|0|0,0:0|0:0|0:0,0:0:0:0:
340,232,263564,2,0,P|360:176|328:84,1,140.000000596046,8|0,0:0|0:0,0:0:0:0:
272,48,263996,6,0,L|420:44,1,140.000000596046,8|2,0:0|0:0,0:0:0:0:
464,112,264429,1,0,0:0:0:0:
440,192,264573,2,0,P|404:208|368:208,1,70.000000298023,8|0,0:0|0:0,0:0:0:0:
248,204,264862,5,4,0:0:0:0:
248,204,265006,2,0,L|188:196,2,35.0000001490115,0|0|8,0:0|0:0|0:0,0:0:0:0:
312,128,265294,2,0,P|344:124|404:140,2,70.000000298023,2|0|2,0:0|0:0|0:0,0:0:0:0:
248,204,265727,6,0,L|256:300,1,70.000000298023,8|0,0:0|0:0,0:0:0:0:
384,352,266015,2,0,P|408:300|376:216,1,140.000000596046,2|8,0:0|0:0,0:0:0:0:
148,320,266592,6,0,P|209:352|277:342,1,140.000000596046,4|2,0:0|0:0,0:0:0:0:
352,296,267025,1,0,0:0:0:0:
424,240,267169,2,0,L|420:164,1,70.000000298023,8|0,0:0|0:0,0:0:0:0:
500,200,267458,5,8,0:0:0:0:
340,196,267602,2,0,L|336:100,2,70.000000298023,2|8|0,0:0|0:0|0:0,0:0:0:0:
284,264,268035,2,0,L|214:260,1,70.000000298023,8|0,0:0|0:0,0:0:0:0:
336,360,268323,6,0,P|384:332|408:244,1,140.000000596046,4|0,0:0|0:0,0:0:0:0:
376,176,268756,2,0,P|424:220|496:208,1,140.000000596046,2|0,0:0|0:0,0:0:0:0:
488,124,269189,6,0,P|460:88|412:68,1,70.000000298023,8|0,0:0|0:0,0:0:0:0:
280,136,269477,2,0,L|292:300,1,140.000000596046,2|8,0:0|0:0,0:0:0:0:
328,348,269910,1,0,0:0:0:0:
184,200,270054,6,0,L|195:339,1,140.000000596046,4|2,0:0|0:0,0:0:0:0:
112,356,270487,1,0,0:0:0:0:
44,308,270631,2,0,P|40:268|52:232,1,70.000000298023,8|0,0:0|0:0,0:0:0:0:
72,160,270919,6,0,P|132:128|208:156,1,140.000000596046,8|8,0:0|0:0,0:0:0:0:
268,196,271352,1,8,0:0:0:0:
336,148,271496,2,0,L|356:60,1,70.000000298023,8|8,0:0|0:0,0:0:0:0:
268,196,271785,6,0,L|300:364,1,140.000000596046,4|8,0:0|0:0,0:0:0:0:
204,316,272217,2,0,L|184:220,1,70.000000298023,0|8,0:0|0:0,0:0:0:0:
112,312,272506,1,0,0:0:0:0:
64,232,272650,6,0,L|68:156,1,70.000000298023,4|0,0:0|0:0,0:0:0:0:
76,80,272939,2,8,P|132:68|192:88,1,105.000000447034,8|0,0:0|0:0,0:0:0:0:
216,92,273227,2,0,L|308:92,1,70.000000298023,10|0,0:0|0:0,0:0:0:0:
408,140,273515,6,0,L|384:296,1,140.000000596046,6|0,0:0|0:0,0:0:0:0:
324,336,273948,2,0,P|268:360|184:340,1,140.000000596046,2|0,0:0|0:0,0:0:0:0:
136,284,274381,6,0,P|120:228|120:196,1,70.000000298023,4|0,0:0|0:0,0:0:0:0:
204,224,274669,2,0,P|208:165|219:135,1,70.000000298023,8|0,0:0|0:0,0:0:0:0:
288,192,274958,2,0,P|311:138|348:100,1,105.000000447034,8|0,0:0|0:0,0:0:0:0:
372,76,275246,6,0,L|288:64,1,70.000000298023,4|0,0:0|0:0,0:0:0:0:
220,52,275535,2,0,P|152:44|72:100,1,140.000000596046,8|2,0:0|0:0,0:0:0:0:
48,152,275967,1,0,0:0:0:0:
76,232,276112,2,0,L|136:272,1,70.000000298023,8|0,0:0|0:0,0:0:0:0:
224,324,276400,6,0,P|264:252|260:192,1,140.000000596046,2|8,0:0|0:0,0:0:0:0:
117,145,276977,2,0,L|48:152,1,70.000000298023,2|4,0:0|0:0,0:0:0:0:
96,240,277265,2,0,L|166:230,1,70.000000298023,8|0,0:0|0:0,0:0:0:0:
228,140,277554,6,0,P|312:144|364:200,1,140.000000596046,2|8,0:0|0:0,0:0:0:0:
396,252,277987,1,0,0:0:0:0:
364,332,278131,2,0,P|320:340|284:336,1,70.000000298023,2|0,0:0|0:0,0:0:0:0:
220,300,278419,2,0,P|176:292|140:296,1,70.000000298023,8|0,0:0|0:0,0:0:0:0:
72,316,278708,6,0,L|64:236,1,70.000000298023,4|8,0:0|0:0,0:0:0:0:
248,72,279140,2,0,L|244:156,2,70.000000298023,8|8|0,0:0|0:0|0:0,0:0:0:0:
324,108,279573,6,0,L|412:100,1,70.000000298023,8|0,0:0|0:0,0:0:0:0:
488,176,279862,2,0,L|416:184,1,70.000000298023,8|0,0:0|0:0,0:0:0:0:
264,216,280150,1,8,0:0:0:0:
264,216,280294,1,8,0:0:0:0:
140,124,280439,6,0,L|140:32,1,70.000000298023,4|8,0:0|0:0,0:0:0:0:
304,168,280871,1,8,0:0:0:0:
304,168,281015,6,0,P|360:192|440:156,1,140.000000596046,8|8,0:0|0:0,0:0:0:0:
468,92,281448,1,0,0:0:0:0:
404,36,281592,2,0,P|368:32|320:48,1,70.000000298023,8|0,0:0|0:0,0:0:0:0:
316,128,281881,2,0,P|352:132|400:116,1,70.000000298023,8|0,0:0|0:0,0:0:0:0:
404,36,282169,1,4,0:0:0:0:
256,192,282241,12,2,285919,0:0:0:0:
