osu file format v14

[General]
AudioFilename: Hanatan - If.MP3
AudioLeadIn: 0
PreviewTime: 229958
Countdown: 0
SampleSet: Soft
StackLeniency: 0.7
Mode: 0
LetterboxInBreaks: 0
WidescreenStoryboard: 0

[Editor]
DistanceSpacing: 1.2
BeatDivisor: 2
GridSize: 4
TimelineZoom: 1.2

[Metadata]
Title:If
TitleUnicode:If
Artist:Hanatan
ArtistUnicode:花たん
Creator:Rakuen
Version:Normal
Source:
Tags:Flower ユリカ YURiCa Yurika 無力P MuryokuP Vocaloid Megurine Luka Kawaiwkyik kakifly Xinely
BeatmapID:535250
BeatmapSetID:230050

[Difficulty]
HPDrainRate:3
CircleSize:3
OverallDifficulty:4
ApproachRate:5
SliderMultiplier:0.800000005960464
SliderTickRate:1

[Events]
//Background and Video events
0,0,"8eba70d737.jpg",0,0
Video,-10,"If [Hanatan].avi"
//Break Periods
2,59157,61219
2,128388,133911
2,163004,165065
2,197400,201585
//Storyboard Layer 0 (Background)
//Storyboard Layer 1 (Fail)
//Storyboard Layer 2 (Pass)
//Storyboard Layer 3 (Foreground)
//Storyboard Sound Samples

[TimingPoints]
13958,288.461538461538,3,2,1,70,1,0
20015,-100,3,2,1,40,0,0
20881,-100,3,2,1,70,0,1
45111,-100,3,2,1,60,0,0
58957,-100,3,2,1,40,0,0
62419,-100,3,2,2,50,0,0
90111,-100,3,2,2,60,0,0
101650,-100,3,2,1,30,0,0
102227,-100,3,2,1,60,0,0
103957,-100,3,2,1,70,0,1
128188,-100,3,2,1,40,0,0
135111,-100,3,2,1,60,0,0
142034,-100,3,2,1,70,0,1
162804,-100,3,2,1,40,0,0
166265,-100,3,2,1,60,0,0
169727,-100,3,2,1,70,0,0
173188,-100,3,2,1,60,0,0
176650,-100,3,2,1,70,0,0
183555,275.229357798165,4,2,1,60,1,0
184655,303.030303030303,4,2,1,40,1,0
185867,309.278350515464,4,2,1,20,1,0
186485,333.333333333333,4,2,1,20,1,8
187151,359.281437125748,4,2,1,20,1,8
187510,355.029585798817,4,2,1,20,1,0
188532,340.909090909091,4,2,1,20,1,8
188872,337.078651685393,4,2,1,20,1,0
191231,428.571428571429,3,2,1,20,1,0
191659,410.958904109589,3,2,1,20,1,8
192069,526.315789473684,3,2,1,20,1,8
192797,359.281437125748,3,2,1,20,1,0
193515,487.80487804878,3,2,1,20,1,0
194978,740.740740740741,3,2,1,20,1,0
197200,824.515597086712,3,2,1,20,1,0
202147,319.148936170213,3,2,1,20,1,0
202785,306.122448979592,3,2,1,20,1,0
228516,288.461538461538,3,2,1,60,1,0
230246,-100,3,2,1,70,0,1
271785,-100,3,2,1,60,0,0
275246,-100,3,2,1,70,0,1
282169,-100,3,2,1,60,0,0
282314,-100,3,2,1,40,0,0
289092,-100,3,2,1,20,0,0

[Colours]
Combo1 : 128,64,0
Combo2 : 157,255,255
Combo3 : 255,243,179
Combo4 : 170,0,0

[HitObjects]
132,240,13958,6,0,L|216:92,1,160.000001192093,4|8,0:0|0:0,0:0:0:0:
304,124,14823,2,0,P|352:136|404:128,1,80.0000005960464,8|8,0:0|0:0,0:0:0:0:
460,192,15400,1,8,0:0:0:0:
396,264,15688,2,0,P|336:288|248:344,1,160.000001192093,4|8,0:0|0:0,0:0:0:0:
160,344,16554,1,8,0:0:0:0:
72,304,16842,2,0,L|44:212,1,80.0000005960464,8|8,0:0|0:0,0:0:0:0:
120,164,17419,6,0,P|192:196|284:152,1,160.000001192093,4|8,0:0|0:0,0:0:0:0:
196,104,18284,1,8,0:0:0:0:
108,68,18573,2,0,P|68:80|24:140,1,80.0000005960464,8|8,0:0|0:0,0:0:0:0:
120,164,19150,2,0,L|176:324,1,160.000001192093,4|8,0:0|0:0,0:0:0:0:
256,268,20015,1,2,0:0:0:0:
388,128,20592,5,0,0:0:0:0:
388,128,20881,2,0,P|312:96|236:136,1,160.000001192093,6|0,1:2|0:0,0:0:0:0:
316,192,21746,1,8,0:0:0:0:
396,244,22034,2,0,P|412:284|408:336,1,80.0000005960464,0|8,1:0|0:0,0:0:0:0:
316,300,22611,2,0,B|208:300|208:300|160:268,1,160.000001192093,6|0,1:2|0:0,0:0:0:0:
104,196,23477,2,0,P|108:152|128:112,1,80.0000005960464,8|0,0:0|1:0,0:0:0:0:
208,72,24054,1,8,0:0:0:0:
300,96,24342,6,0,B|348:108|420:68|420:68|434:98,1,160.000001192093,6|0,1:2|0:0,0:0:0:0:
460,192,25207,1,8,0:0:0:0:
364,200,25496,2,0,P|324:212|292:232,1,80.0000005960464,0|8,1:0|0:0,0:0:0:0:
212,288,26073,2,0,B|164:276|92:316|92:316|78:286,1,160.000001192093,6|0,1:2|0:0,0:0:0:0:
100,192,26938,1,8,0:0:0:0:
40,116,27227,2,0,P|64:80|100:52,1,80.0000005960464,8|0,0:0|1:0,0:0:0:0:
188,44,27804,6,0,L|304:168,1,160.000001192093,6|0,1:2|0:0,0:0:0:0:
392,172,28669,2,0,P|320:188|256:252,1,160.000001192093,8|8,0:0|0:0,0:0:0:0:
164,232,29534,2,0,P|152:192|148:132,1,80.0000005960464,6|0,1:2|0:0,0:0:0:0:
108,124,29967,2,0,P|184:124|248:100,1,120.00000089407,0|8,0:0|0:0,0:0:0:0:
308,64,30688,2,0,P|348:51|408:47,1,80.0000005960464,0|8,1:0|0:0,0:0:0:0:
432,132,31265,6,0,B|464:172|468:212|468:212|432:236|419:262,1,160.000001192093,6|0,1:2|0:0,0:0:0:0:
336,312,32131,1,8,0:0:0:0:
256,256,32419,2,0,L|256:172,1,80.0000005960464,0|8,1:0|0:0,0:0:0:0:
176,120,32996,6,0,L|120:76,1,40.0000002980232,14|0,0:0|1:0,0:0:0:0:
64,152,33429,2,0,L|-6:160,1,40.0000002980232,14|0,0:0|1:0,0:0:0:0:
40,252,33861,2,0,L|71:276,1,40.0000002980232,14|0,0:0|1:0,0:0:0:0:
208,328,34438,5,8,0:0:0:0:
296,292,34727,2,0,P|252:244|176:240,2,120.00000089407,6|0|8,1:2|0:0|0:0,0:0:0:0:
368,356,35881,2,0,P|388:316|384:256,1,80.0000005960464,0|8,1:0|0:0,0:0:0:0:
452,208,36457,2,0,P|408:164|372:104,2,120.00000089407,6|0|8,1:2|0:0|0:0,0:0:0:0:
389,281,37611,2,0,L|297:293,1,80.0000005960464,0|8,1:0|0:0,0:0:0:0:
236,232,38188,6,0,B|264:199|264:199|288:102,2,120.00000089407,6|0|8,1:2|0:0|0:0,0:0:0:0:
180,312,39342,2,0,P|148:276|137:220,1,80.0000005960464,0|8,1:0|0:0,0:0:0:0:
52,200,39919,2,0,P|76:140|140:88,2,120.00000089407,6|0|8,1:2|0:0|0:0,0:0:0:0:
56,296,41073,1,8,0:0:0:0:
140,248,41361,1,0,1:0:0:0:
216,192,41650,6,0,B|252:172|288:180|288:180|320:216|384:220,1,160.000001192093,6|0,1:2|0:0,0:0:0:0:
448,172,42515,2,0,P|408:220|392:332,1,160.000001192093,8|8,0:0|0:0,0:0:0:0:
296,288,43381,2,0,P|256:280|196:300,1,80.0000005960464,6|0,1:2|0:0,0:0:0:0:
172,296,43813,2,0,L|92:192,1,120.00000089407,0|8,0:0|0:0,0:0:0:0:
160,124,44534,2,0,L|213:191,1,80.0000005960464,0|8,1:0|0:0,0:0:0:0:
304,196,45111,6,0,P|368:196|428:176,1,120.00000089407,6|6,0:0|0:0,0:0:0:0:
452,140,45688,1,6,0:0:0:0:
396,60,45977,1,8,0:0:0:0:
112,116,46842,6,0,L|88:240,1,120.00000089407,6|6,0:0|0:0,0:0:0:0:
56,272,47419,1,6,0:0:0:0:
124,340,47707,1,8,0:0:0:0:
392,240,48573,6,0,B|445:267|445:267|458:293,2,80.0000005960464,6|0|2,0:0|0:0|0:0,0:0:0:0:
296,232,49438,1,10,0:0:0:0:
260,140,49727,1,0,0:0:0:0:
312,60,50015,2,0,P|376:64|440:36,2,120.00000089407,10|14|10,0:0|0:0|0:0,0:0:0:0:
224,20,51169,1,10,0:0:0:0:
172,100,51457,2,0,P|132:104|84:132,1,80.0000005960464,10|10,0:0|0:0,0:0:0:0:
160,196,52034,6,0,B|176:240|160:288|160:288|184:276,1,120.00000089407,6|6,0:0|0:0,0:0:0:0:
232,284,52611,1,6,0:0:0:0:
308,344,52900,1,8,0:0:0:0:
488,120,53765,6,0,B|420:64|420:64|408:100,1,120.00000089407,6|6,0:0|0:0,0:0:0:0:
400,140,54342,1,6,0:0:0:0:
328,204,54631,1,8,0:0:0:0:
84,52,55496,6,0,L|20:204,1,160.000001192093,6|2,0:0|0:0,0:0:0:0:
68,284,56361,1,10,0:0:0:0:
156,320,56650,1,0,0:0:0:0:
240,268,56938,2,0,P|296:264|384:296,2,120.00000089407,10|14|10,0:0|0:0|0:0,0:0:0:0:
184,192,58092,1,10,0:0:0:0:
260,132,58381,2,0,B|288:132|288:132|334:109,1,80.0000005960464,10|10,0:0|0:0,0:0:0:0:
380,192,58957,5,6,0:0:0:0:
104,192,62419,5,4,0:0:0:0:
276,276,62996,1,0,0:0:0:0:
364,236,63284,2,0,P|400:204|420:162,1,80.0000005960464,8|0,0:0|0:0,0:0:0:0:
324,148,63861,1,0,0:0:0:0:
228,144,64150,2,0,P|248:88|320:52,2,120.00000089407,0|0|8,0:0|0:0|0:0,0:0:0:0:
324,148,65304,1,0,0:0:0:0:
364,236,65592,1,8,0:0:0:0:
332,328,65881,6,0,B|408:316|408:316|452:284,2,120.00000089407,4|0|8,0:0|0:0|0:0,0:0:0:0:
176,216,67323,1,8,0:0:0:0:
188,120,67611,2,0,P|264:92|360:128,1,160.000001192093,0|8,0:0|0:0,0:0:0:0:
360,204,68477,1,0,0:0:0:0:
287,263,68765,2,0,P|270:228|266:188,1,80.0000005960464,0|8,0:0|0:0,0:0:0:0:
176,216,69342,6,0,B|148:272|148:272|36:332,1,160.000001192093,4|0,0:0|0:0,0:0:0:0:
16,232,70207,1,8,0:0:0:0:
72,156,70496,2,0,P|88:108|88:64,1,80.0000005960464
184,60,71073,2,0,B|228:48|228:48|260:64|304:64,2,120.00000089407,0|0|8,0:0|0:0|0:0,0:0:0:0:
180,156,72227,1,0,0:0:0:0:
252,216,72515,1,8,0:0:0:0:
348,216,72804,6,0,L|424:328,2,120.00000089407,4|0|8,0:0|0:0|0:0,0:0:0:0:
428,164,73957,2,0,P|436:124|424:76,1,80.0000005960464,0|8,0:0|0:0,0:0:0:0:
335,68,74534,2,0,P|258:84|179:69,1,160.000001192093,0|8,0:0|0:0,0:0:0:0:
184,168,75400,2,0,P|262:182|340:166,1,160.000001192093,0|8,0:0|0:0,0:0:0:0:
380,256,76265,6,0,B|304:332|304:332|252:339,1,160.000001192093,4|0,0:0|0:0,0:0:0:0:
160,316,77131,2,0,P|116:276|60:188,1,160.000001192093,8|0,0:0|0:0,0:0:0:0:
12,108,77996,2,0,B|48:90|82:98|82:98|96:76|120:56,2,120.00000089407,0|0|8,0:0|0:0|0:0,0:0:0:0:
61,191,79150,2,0,P|99:201|130:226,1,80.0000005960464,0|8,0:0|0:0,0:0:0:0:
104,320,79727,6,0,P|156:256|248:232,1,160.000001192093,4|0,0:0|0:0,0:0:0:0:
308,284,80592,1,8,0:0:0:0:
400,260,80881,2,0,L|436:188,1,80.0000005960464,0|8,0:0|0:0,0:0:0:0:
420,96,81457,2,0,L|253:149,1,160.000001192093,0|8,0:0|0:0,0:0:0:0:
228,232,82323,1,0,0:0:0:0:
171,155,82611,2,0,P|176:116|194:81,1,80.0000005960464,0|8,0:0|0:0,0:0:0:0:
267,145,83188,6,0,B|308:168|352:160|352:160|392:172|416:232,1,160.000001192093,4|0,0:0|0:0,0:0:0:0:
320,252,84054,2,0,P|240:236|168:184,1,160.000001192093,8|0,0:0|0:0,0:0:0:0:
80,200,84919,2,0,B|60:276|60:276|80:340,2,120.00000089407,0|0|8,0:0|0:0|0:0,0:0:0:0:
32,116,86073,2,0,P|72:104|120:112,1,80.0000005960464,0|8,0:0|0:0,0:0:0:0:
176,180,86650,6,0,P|232:196|316:180,2,120.00000089407,4|0|8,0:0|0:0|0:0,0:0:0:0:
112,252,87804,2,0,P|100:292|104:340,1,80.0000005960464,0|8,0:0|0:0,0:0:0:0:
192,300,88381,2,0,B|248:292|300:324|300:324|325:310|339:298,1,160.000001192093,0|8,0:0|0:0,0:0:0:0:
296,212,89246,2,0,P|264:144|324:52,1,160.000001192093,0|8,0:0|0:0,0:0:0:0:
360,141,90111,5,4,0:0:0:0:
444,188,90400,2,0,L|465:264,1,80.0000005960464
416,348,90977,2,0,L|346:309,1,80.0000005960464,8|0,0:0|0:0,0:0:0:0:
256,272,91554,1,0,0:0:0:0:
187,203,91842,2,0,P|110:187|32:202,1,160.000001192093,0|0,0:0|0:0,0:0:0:0:
104,263,92707,2,0,P|117:186|76:120,1,160.000001192093,8|8,0:0|0:0,0:0:0:0:
128,40,93573,6,0,P|166:49|205:44,1,80.0000005960464,4|0,0:0|0:0,0:0:0:0:
304,40,94150,2,0,P|343:35|381:44,1,80.0000005960464,0|8,0:0|0:0,0:0:0:0:
336,128,94727,1,0,0:0:0:0:
260,184,95015,1,0,0:0:0:0:
176,232,95304,2,0,P|164:172|196:112,2,120.00000089407,0|0|8,0:0|0:0|0:0,0:0:0:0:
236,308,96457,2,0,L|316:328,1,80.0000005960464
400,288,97034,6,0,B|428:248|424:208|424:208|384:196|366:162,1,160.000001192093,4|0,0:0|0:0,0:0:0:0:
352,68,97900,1,8,0:0:0:0:
160,68,98477,1,0,0:0:0:0:
145,162,98765,2,0,B|128:196|88:208|88:208|84:248|112:288,1,160.000001192093
179,356,99631,2,0,P|255:335|332:355,1,160.000001192093,8|8,0:0|0:0,0:0:0:0:
412,304,100496,1,4,0:0:0:0:
100,80,101650,5,2,0:0:0:0:
44,160,101938,1,2,0:0:0:0:
96,240,102227,2,0,P|134:248|174:240,1,80.0000005960464,6|0,0:0|0:0,0:0:0:0:
268,268,102804,2,0,P|294:238|307:200,1,80.0000005960464,10|0,0:0|0:0,0:0:0:0:
380,136,103381,2,0,P|367:98|341:68,1,80.0000005960464,10|10,0:0|0:0,0:0:0:0:
248,40,103957,6,0,L|136:104,2,120.00000089407,6|0|8,1:2|1:0|0:0,0:0:0:0:
276,132,105111,2,0,L|192:180,1,80.0000005960464,0|8,1:0|0:0,0:0:0:0:
272,244,105688,2,0,P|320:256|388:312,2,120.00000089407,6|0|8,1:2|1:0|0:0,0:0:0:0:
192,296,106842,2,0,P|156:320|104:328,1,80.0000005960464,0|8,1:0|0:0,0:0:0:0:
120,232,107419,6,0,B|156:160|156:160|200:144,2,120.00000089407,6|0|8,1:2|1:0|0:0,0:0:0:0:
48,168,108573,2,0,P|40:124|48:76,1,80.0000005960464,0|8,1:0|0:0,0:0:0:0:
128,48,109150,2,0,P|185:30|264:68,2,120.00000089407,6|0|8,1:2|1:0|0:0,0:0:0:0:
185,125,110304,1,8,0:0:0:0:
256,192,110592,1,0,1:0:0:0:
324,124,110881,6,0,B|356:84|356:84|416:104|480:80,1,160.000001192093,6|0,1:2|0:0,0:0:0:0:
476,180,111746,2,0,L|476:368,1,160.000001192093,8|8,0:0|0:0,0:0:0:0:
384,312,112611,2,0,B|384:248|384:248|352:248|324:236,2,120.00000089407,6|0|8,1:2|1:0|0:0,0:0:0:0:
295,348,113765,2,0,P|257:355|218:348,1,80.0000005960464,0|8,1:0|0:0,0:0:0:0:
132,304,114342,6,0,B|161:255|217:253|217:253|239:201,1,160.000001192093,6|0,1:2|0:0,0:0:0:0:
332,172,115207,2,0,P|370:179|409:171,2,80.0000005960464,8|0|8,0:0|1:0|0:0,0:0:0:0:
370,83,116073,2,0,B|448:68|448:68|496:88,2,120.00000089407,14|14|14,0:0|0:0|0:0,0:0:0:0:
276,96,117227,1,8,0:0:0:0:
276,192,117515,1,8,1:2:0:0:
215,264,117804,6,0,P|284:226|363:227,1,160.000001192093,6|0,1:2|0:0,0:0:0:0:
440,288,118669,2,0,P|402:218|403:139,1,160.000001192093,8|8,0:0|0:0,0:0:0:0:
479,79,119534,2,0,P|410:44|336:69,1,160.000001192093,6|0,1:2|0:0,0:0:0:0:
256,120,120400,2,0,P|182:144|112:109,1,160.000001192093,8|8,0:0|0:0,0:0:0:0:
189,51,121265,5,6,1:2:0:0:
284,28,121554,2,0,P|320:48|352:96,1,80.0000005960464,0|0,0:0|0:0,0:0:0:0:
436,108,122131,2,0,L|360:252,1,160.000001192093,8|8,0:0|0:0,0:0:0:0:
408,336,122996,2,0,L|266:261,1,160.000001192093,6|0,1:2|0:0,0:0:0:0:
171,245,123861,2,0,P|195:197|243:169,1,80.0000005960464,8|8,0:0|0:0,0:0:0:0:
312,176,124438,1,0,1:0:0:0:
404,203,124727,6,0,P|393:126|331:80,1,160.000001192093,6|0,1:2|0:0,0:0:0:0:
236,88,125592,2,0,B|192:96|156:80|156:80|116:92|95:127,1,160.000001192093,8|8,0:0|0:0,0:0:0:0:
47,210,126457,2,0,P|103:224|171:188,2,120.00000089407,6|0|8,1:2|1:0|0:0,0:0:0:0:
95,126,127611,2,0,P|134:107|181:108,1,80.0000005960464,0|8,1:0|0:0,0:0:0:0:
256,148,128188,5,2,0:0:0:0:
188,124,135111,6,0,B|136:64|136:64|98:79,2,120.00000089407,6|10|10,0:0|0:0|0:0,0:0:0:0:
256,192,136265,1,10,0:0:0:0:
324,260,136554,2,0,B|376:320|376:320|413:304,2,120.00000089407,14|10|10,0:0|0:0|0:0,0:0:0:0:
392,192,137707,1,10,0:0:0:0:
408,96,137996,2,0,P|360:101|326:121,1,80.0000005960464,10|10,0:0|0:0,0:0:0:0:
240,96,138573,6,0,P|177:83|112:45,2,120.00000089407,14|10|10,0:0|0:0|0:0,0:0:0:0:
256,192,139727,1,10,0:0:0:0:
272,288,140015,2,0,P|334:300|399:338,2,120.00000089407,14|10|10,0:0|0:0|0:0,0:0:0:0:
176,272,141169,2,0,L|96:320,2,80.0000005960464,2|2|10,0:0|0:0|0:0,0:0:0:0:
124,192,142034,6,0,P|104:96|200:56,1,200.000001490116,6|0,0:0|0:0,0:0:0:0:
228,64,142900,2,0,B|260:64|288:52|288:52|332:72,2,80.0000005960464,10|8|8,0:0|0:0|0:0,0:0:0:0:
264,152,143765,2,0,P|296:228|248:308,1,160.000001192093,6|8,0:0|0:0,0:0:0:0:
199,224,144631,2,0,P|176:192|167:141,2,80.0000005960464,2|0|8,0:0|0:0|0:0,0:0:0:0:
264,152,145496,6,0,L|448:192,1,160.000001192093,6|0,0:0|0:0,0:0:0:0:
460,100,146361,1,8,0:0:0:0:
384,44,146650,2,0,P|344:51|305:47,1,80.0000005960464,2|8,0:0|0:0,0:0:0:0:
212,76,147227,2,0,P|190:109|158:133,1,80.0000005960464,6|0,0:0|0:0,0:0:0:0:
88,200,147804,2,0,P|83:239|91:278,1,80.0000005960464,2|8,0:0|0:0,0:0:0:0:
184,304,148381,2,0,P|215:327|253:340,1,80.0000005960464,2|8,0:0|0:0,0:0:0:0:
340,300,148957,6,0,B|380:268|380:268|412:268|440:280|440:280|476:224,2,160.000001192093,14|14|10,0:0|0:0|0:0,0:0:0:0:
256,252,150400,1,12,0:0:0:0:
168,216,150688,2,0,P|152:158|167:101,1,120.00000089407,6|8,0:0|0:0,0:0:0:0:
216,104,151265,2,0,B|101:94|101:94|64:128,1,160.000001192093,10|8,0:0|0:0,0:0:0:0:
48,220,152131,1,8,0:0:0:0:
108,296,152419,6,0,B|152:312|196:296|196:296|216:340|272:360,1,160.000001192093,6|0,0:0|0:0,0:0:0:0:
284,260,153284,2,0,P|272:216|276:176,2,80.0000005960464,10|0|8,0:0|0:0|0:0,0:0:0:0:
367,210,154150,2,0,B|435:102|435:102|463:154,1,160.000001192093,6|0,0:0|0:0,0:0:0:0:
452,226,155015,2,0,L|288:120,1,160.000001192093,10|0,0:0|0:0,0:0:0:0:
223,158,155881,6,0,P|240:82|307:43,1,160.000001192093,6|0,0:0|0:0,0:0:0:0:
318,139,156746,2,0,P|300:214|233:253,1,160.000001192093,2|8,0:0|0:0,0:0:0:0:
220,348,157611,2,0,L|144:184,1,160.000001192093,2|8,0:0|0:0,0:0:0:0:
131,109,158477,2,0,L|76:260,1,160.000001192093,10|0,0:0|0:0,0:0:0:0:
130,338,159342,6,0,B|182:302|250:302|250:302|275:281,1,160.000001192093,6|0,0:0|0:0,0:0:0:0:
360,232,160207,2,0,P|384:157|361:81,1,160.000001192093,10|0,0:0|0:0,0:0:0:0:
276,40,161073,1,2,0:0:0:0:
183,59,161361,2,0,P|144:55|106:65,1,80.0000005960464,0|12,0:0|0:0,0:0:0:0:
152,152,161938,2,0,P|127:226|150:302,1,160.000001192093,14|12,0:0|0:0,0:0:0:0:
240,340,162804,5,2,0:0:0:0:
368,192,166265,6,0,P|389:136|359:60,2,120.00000089407,6|6|10,0:0|0:0|0:0,0:0:0:0:
294,130,167419,2,0,P|255:122|216:129,1,80.0000005960464,2|10,0:0|0:0,0:0:0:0:
144,192,167996,2,0,P|123:136|153:60,2,120.00000089407,6|6|10,0:0|0:0|0:0,0:0:0:0:
217,253,169150,2,0,P|255:260|294:252,1,80.0000005960464,10|10,0:0|0:0,0:0:0:0:
376,308,169727,6,0,L|468:160,1,160.000001192093,6|2,0:0|0:0,0:0:0:0:
400,96,170592,2,0,P|360:100|316:88,1,80.0000005960464,10|0,0:0|0:0,0:0:0:0:
228,108,171169,2,0,P|264:164|335:186,2,120.00000089407,10|14|14,0:0|0:0|0:0,0:0:0:0:
148,52,172323,2,0,L|80:95,1,80.0000005960464,10|10,0:0|0:0,0:0:0:0:
64,192,172900,1,10,0:0:0:0:
80,288,173188,6,0,B|148:332|148:332|192:332,2,120.00000089407,4|6|10,0:0|0:0|0:0,0:0:0:0:
64,192,174342,2,0,P|108:192|152:220,1,80.0000005960464,2|10,0:0|0:0,0:0:0:0:
232,236,174919,2,0,B|272:252|312:236|312:236|340:276,2,120.00000089407,6|6|10,0:0|0:0|0:0,0:0:0:0:
272,148,176073,2,0,P|288:112|288:68,1,80.0000005960464,10|10,0:0|0:0,0:0:0:0:
194,89,176650,6,0,B|157:91|120:66|120:66|78:69|55:110,1,160.000001192093,6|2,0:0|0:0,0:0:0:0:
108,192,177515,1,10,0:0:0:0:
55,274,177804,1,8,0:0:0:0:
132,332,178092,2,0,B|180:336|208:328|208:328|240:296,2,120.00000089407,10|14|10,0:0|0:0|0:0,0:0:0:0:
55,274,179246,1,10,0:0:0:0:
108,192,179534,2,0,L|64:92,1,80.0000005960464,10|10,0:0|0:0,0:0:0:0:
148,52,180111,6,0,L|212:205,1,160.000001192093,6|10,0:0|0:0,0:0:0:0:
300,232,180977,1,10,0:0:0:0:
380,180,181265,2,0,P|418:172|464:185,1,80.0000005960464,0|10,0:0|0:0,0:0:0:0:
416,268,181842,2,0,L|344:320,1,80.0000005960464,4|2,0:0|0:0,0:0:0:0:
300,232,182419,1,10,0:0:0:0:
291,136,182707,2,0,P|251:148|220:181,2,80.0000005960464,14|0|10,0:0|0:0|0:0,0:0:0:0:
380,180,183555,5,6,0:0:0:0:
256,192,183692,12,2,187510,0:0:0:0:
360,248,188872,6,0,L|396:176,1,80.0000005960464,2|2,0:0|0:0,0:0:0:0:
320,120,189546,2,0,P|276:128|232:124,1,80.0000005960464,0|2,0:0|0:0,0:0:0:0:
52,92,190557,1,2,0:0:0:0:
12,180,190894,1,0,0:0:0:0:
12,180,191231,6,0,P|56:192|100:220,1,80.0000005960464,2|2,0:0|0:0,0:0:0:0:
160,196,192069,2,0,L|176:284,1,80.0000005960464,2|2,0:0|0:0,0:0:0:0:
220,300,192797,2,0,P|295:275|380:280,1,160.000001192093,2|2,0:0|0:0,0:0:0:0:
484,124,194978,6,0,P|376:160|280:256,1,240.000001788139,2|2,0:0|0:0,0:0:0:0:
340,240,202785,6,0,P|388:232|468:200,2,120.00000089407,2|2|2,0:0|0:0|0:0,0:0:0:0:
256,192,204009,1,0,0:0:0:0:
256,96,204315,1,2,0:0:0:0:
176,40,204621,2,0,L|48:24,2,120.00000089407,2|2|2,0:0|0:0|0:0,0:0:0:0:
344,132,206152,1,2,0:0:0:0:
360,228,206458,6,0,P|412:200|440:144,2,120.00000089407,2|2|2,0:0|0:0|0:0,0:0:0:0:
268,204,207682,1,0,0:0:0:0:
192,264,207989,1,2,0:0:0:0:
96,248,208295,2,0,L|48:136,2,120.00000089407,2|2|2,0:0|0:0|0:0,0:0:0:0:
276,312,209825,1,2,0:0:0:0:
372,316,210131,6,0,L|456:164,1,160.000001192093,2|0,0:0|0:0,0:0:0:0:
455,80,211050,2,0,P|376:87|300:111,1,160.000001192093,2|0,0:0|0:0,0:0:0:0:
212,152,211968,2,0,B|136:124|136:124|112:76,2,120.00000089407,2|2|2,0:0|0:0|0:0,0:0:0:0:
240,244,213193,2,0,P|284:240|328:220,1,80.0000005960464,0|2,0:0|0:0,0:0:0:0:
376,152,213805,5,2,0:0:0:0:
200,80,214417,2,0,L|144:232,1,160.000001192093,2|2,0:0|0:0,0:0:0:0:
180,320,215336,1,2,0:0:0:0:
344,220,215948,1,2,0:0:0:0:
276,152,216254,1,0,0:0:0:0:
284,56,216560,2,0,P|368:32|448:48,1,160.000001192093,2|2,0:0|0:0,0:0:0:0:
440,140,217478,6,0,L|468:272,2,120.00000089407,2|2|2,0:0|0:0|0:0,0:0:0:0:
344,132,218703,1,0,0:0:0:0:
280,204,219009,1,2,0:0:0:0:
188,232,219315,2,0,P|136:212|76:164,2,120.00000089407,2|2|2,0:0|0:0|0:0,0:0:0:0:
340,348,220846,1,2,0:0:0:0:
408,284,221152,6,0,B|427:243|416:196|416:196|448:208,2,120.00000089407,2|2|2,0:0|0:0|0:0,0:0:0:0:
328,232,222376,1,0,0:0:0:0:
256,168,222682,1,2,0:0:0:0:
272,72,222989,2,0,B|348:96|348:96|384:76,2,120.00000089407,2|2|2,0:0|0:0|0:0,0:0:0:0:
88,128,224519,1,2,0:0:0:0:
176,92,224825,6,0,B|264:180|264:180|216:168,1,160.000001192093,2|0,0:0|0:0,0:0:0:0:
172,248,225744,2,0,P|103:238|144:180,1,160.000001192093,2|0,0:0|0:0,0:0:0:0:
176,92,226662,2,0,L|304:120,2,120.00000089407,2|2|2,0:0|0:0|0:0,0:0:0:0:
80,108,227887,1,0,0:0:0:0:
136,308,228516,6,0,P|180:292|248:236,1,120.00000089407,4|0,0:0|0:0,0:0:0:0:
284,252,229092,2,0,L|292:168,2,80.0000005960464,8|8|0,0:0|0:0|0:0,0:0:0:0:
360,312,229958,1,2,0:0:0:0:
408,228,230246,6,0,L|424:44,1,160.000001192093,6|0,1:2|0:0,0:0:0:0:
328,48,231112,2,0,P|296:32|236:36,1,80.0000005960464,8|0,0:0|1:0,0:0:0:0:
272,124,231689,1,8,0:0:0:0:
324,204,231977,2,0,P|396:252|448:328,1,160.000001192093,6|0,1:2|0:0,0:0:0:0:
344,328,232842,2,0,P|300:336|256:360,1,80.0000005960464,8|0,0:0|1:0,0:0:0:0:
172,340,233419,1,8,0:0:0:0:
116,264,233708,6,0,B|148:168|148:168|108:100,1,160.000001192093,6|0,1:2|0:0,0:0:0:0:
32,72,234573,2,0,P|23:112|31:158,1,80.0000005960464,8|0,0:0|1:0,0:0:0:0:
20,244,235150,1,8,0:0:0:0:
116,264,235439,2,0,L|288:228,1,160.000001192093,6|0,1:2|0:0,0:0:0:0:
348,292,236304,2,0,B|392:324|392:324|400:352,2,80.0000005960464,8|8|0,0:0|0:0|1:0,0:0:0:0:
368,196,237169,6,0,P|332:124|378:38,1,160.000001192093,6|0,1:2|0:0,0:0:0:0:
427,121,238035,1,8,0:0:0:0:
464,208,238323,2,0,P|448:251|414:283,1,80.0000005960464,0|8,1:0|0:0,0:0:0:0:
340,320,238900,2,0,B|276:296|276:296|252:324|216:336,2,120.00000089407,6|0|8,1:2|1:0|0:0,0:0:0:0:
348,224,240054,2,0,L|308:139,1,80.0000005960464,0|8,1:0|0:0,0:0:0:0:
220,168,240631,6,0,P|144:144|60:176,1,160.000001192093,6|0,1:2|0:0,0:0:0:0:
108,256,241496,2,0,B|124:280|156:292|156:292|168:332,2,80.0000005960464,8|0|8,0:0|1:0|0:0,0:0:0:0:
70,168,242362,2,0,P|100:108|160:84,2,120.00000089407,14|12|12,1:2|0:0|0:0,0:0:0:0:
164,180,243515,1,8,0:0:0:0:
256,160,243804,1,0,1:0:0:0:
344,200,244092,6,0,L|404:304,2,120.00000089407,6|0|8,1:2|1:0|0:0,0:0:0:0:
420,140,245246,2,0,P|428:96|416:48,1,80.0000005960464,0|8,1:0|0:0,0:0:0:0:
332,97,245823,2,0,P|272:97|192:69,2,120.00000089407,6|0|8,1:2|1:0|0:0,0:0:0:0:
420,140,246977,2,0,L|392:244,1,80.0000005960464,0|8,1:0|0:0,0:0:0:0:
364,308,247554,6,0,B|323:289|310:257|310:257|288:264|272:279,2,120.00000089407,6|0|8,1:2|1:0|0:0,0:0:0:0:
460,288,248708,2,0,P|480:248|484:204,1,80.0000005960464,0|8,1:0|0:0,0:0:0:0:
420,140,249285,2,0,L|288:92,2,120.00000089407,6|0|8,1:2|1:0|0:0,0:0:0:0:
364,220,250439,2,0,P|320:224|264:252,1,80.0000005960464,8|0,0:0|1:0,0:0:0:0:
223,311,251015,6,0,P|146:293|79:251,1,160.000001192093,6|0,1:2|0:0,0:0:0:0:
164,204,251881,2,0,P|122:136|104:58,1,160.000001192093,8|8,0:0|0:0,0:0:0:0:
199,71,252746,2,0,P|256:56|312:72,2,120.00000089407,14|0|8,1:2|1:0|0:0,0:0:0:0:
256,148,253900,2,0,L|256:236,1,80.0000005960464,8|8,0:0|0:0,0:0:0:0:
324,296,254477,6,0,B|368:276|384:240|384:240|356:208|356:168,1,160.000001192093,6|0,1:2|0:0,0:0:0:0:
452,172,255342,2,0,P|476:148|504:104,1,80.0000005960464,8|0,0:0|1:0,0:0:0:0:
428,44,255919,1,8,0:0:0:0:
331,60,256208,2,0,P|273:114|232:182,1,160.000001192093,6|0,1:2|0:0,0:0:0:0:
260,276,257073,2,0,P|205:217|137:176,1,160.000001192093,8|8,0:0|0:0,0:0:0:0:
40,180,257939,6,0,P|20:212|5:257,1,80.0000005960464,6|0,1:2|0:0,0:0:0:0:
16,300,258371,2,0,L|164:324,1,120.00000089407,0|8,0:0|0:0,0:0:0:0:
224,287,259092,2,0,P|262:278|301:286,1,80.0000005960464,0|8,1:0|0:0,0:0:0:0:
396,276,259669,2,0,L|328:120,1,160.000001192093,6|8,1:2|0:0,0:0:0:0:
236,144,260535,2,0,B|196:156|196:156|156:156,1,80.0000005960464,8|0,0:0|1:0,0:0:0:0:
88,92,261112,1,8,0:0:0:0:
36,172,261400,6,0,L|72:300,2,120.00000089407,6|0|8,1:2|1:0|0:0,0:0:0:0:
88,92,262554,2,0,P|125:78|184:84,1,80.0000005960464,8|0,0:0|1:0,0:0:0:0:
236,144,263131,2,0,P|292:180|336:236,2,120.00000089407,6|0|8,1:2|1:0|0:0,0:0:0:0:
152,188,264285,2,0,P|136:232|136:284,1,80.0000005960464,8|0,0:0|1:0,0:0:0:0:
196,340,264862,6,0,B|248:340|284:308|284:308|316:332|368:328,1,160.000001192093,6|0,1:2|0:0,0:0:0:0:
340,232,265727,2,0,P|312:200|296:160,1,80.0000005960464,8|0,0:0|1:0,0:0:0:0:
292,68,266304,1,8,0:0:0:0:
367,127,266592,2,0,L|218:205,1,160.000001192093,6|0,1:2|0:0,0:0:0:0:
140,156,267458,2,0,P|88:140|56:116,2,80.0000005960464,8|8|0,0:0|0:0|1:0,0:0:0:0:
140,252,268323,6,0,B|92:316|92:316|40:340,2,120.00000089407,6|0|8,1:2|1:0|0:0,0:0:0:0:
217,309,269477,2,0,P|256:317|295:309,1,80.0000005960464,8|0,0:0|1:0,0:0:0:0:
372,252,270054,2,0,B|420:316|420:316|472:340,2,120.00000089407,6|0|8,1:2|1:0|0:0,0:0:0:0:
444,188,271208,2,0,L|454:108,1,80.0000005960464,8|8,0:0|0:0,0:0:0:0:
360,96,271785,6,0,B|336:80|320:60|320:60|294:56,2,80.0000005960464,6|0|8,1:2|0:0|0:0,0:0:0:0:
284,152,272650,2,0,B|255:157|230:154|230:154|209:170,2,80.0000005960464,6|0|8,1:2|0:0|0:0,0:0:0:0:
268,248,273515,2,0,B|252:272|232:288|232:288|228:313,2,80.0000005960464,6|0|8,1:2|0:0|0:0,0:0:0:0:
360,276,274381,2,0,P|398:284|437:276,1,80.0000005960464,6|8,1:2|0:0,0:0:0:0:
488,192,274958,1,8,0:0:0:0:
440,108,275246,6,0,L|324:44,2,120.00000089407,6|0|14,1:2|0:0|0:0,0:0:0:0:
392,192,276400,2,0,B|344:212|300:200|300:200|264:220|240:276,1,160.000001192093,0|0,0:0|0:0,0:0:0:0:
219,284,277121,2,0,P|162:299|105:284,1,120.00000089407,14|6,0:0|0:0,0:0:0:0:
36,220,277842,1,0,1:0:0:0:
75,131,278131,2,0,P|67:93|76:54,1,80.0000005960464,10|10,0:0|0:0,0:0:0:0:
172,44,278708,6,0,B|252:60|252:60|316:44,2,120.00000089407,6|2|10,1:2|0:0|0:0,0:0:0:0:
172,140,279862,2,0,L|256:156,1,80.0000005960464,2|10,0:0|0:0,0:0:0:0:
308,231,280439,2,0,P|342:184|342:125,2,120.00000089407,6|2|10,1:2|0:0|0:0,0:0:0:0:
211,228,281592,2,0,P|181:252|164:288,1,80.0000005960464,2|10,0:0|0:0,0:0:0:0:
256,312,282169,5,4,0:0:0:0:
256,192,282314,12,2,289092,0:0:0:0:
