osu file format v14

[General]
AudioFilename: Hanatan - If.MP3
AudioLeadIn: 0
PreviewTime: 229958
Countdown: 0
SampleSet: Soft
StackLeniency: 0.7
Mode: 0
LetterboxInBreaks: 0
WidescreenStoryboard: 0

[Editor]
Bookmarks: 217478
DistanceSpacing: 1.2
BeatDivisor: 4
GridSize: 4
TimelineZoom: 1.5

[Metadata]
Title:If
TitleUnicode:If
Artist:Hanatan
ArtistUnicode:花たん
Creator:Rakuen
Version:Insane
Source:
Tags:Flower ユリカ YURiCa Yurika 無力P MuryokuP Vocaloid Megurine Luka Kawaiwkyik kakifly Xinely
BeatmapID:539384
BeatmapSetID:230050

[Difficulty]
HPDrainRate:7
CircleSize:4
OverallDifficulty:7
ApproachRate:9
SliderMultiplier:1.60000000596046
SliderTickRate:1

[Events]
//Background and Video events
0,0,"8eba70d737.jpg",0,0
Video,-10,"If [Hanatan].avi"
//Break Periods
2,59157,61819
2,128388,134511
2,163004,165665
2,197400,201547
//Storyboard Layer 0 (Background)
//Storyboard Layer 1 (Fail)
//Storyboard Layer 2 (Pass)
//Storyboard Layer 3 (Foreground)
//Storyboard Sound Samples

[TimingPoints]
13958,288.461538461538,3,2,1,70,1,0
19943,-100,3,2,1,20,0,0
20015,-133.333333333333,3,2,1,40,0,0
20520,-133.333333333333,3,2,1,20,0,0
20592,-200,3,2,1,40,0,0
20808,-200,3,2,1,20,0,0
20881,-133.333333333333,3,2,1,70,0,1
45111,-133.333333333333,3,2,1,60,0,0
45977,-200,3,2,1,60,0,0
46842,-133.333333333333,3,2,1,60,0,0
48573,-100,3,2,1,60,0,0
52034,-133.333333333333,3,2,1,60,0,0
52900,-200,3,2,1,60,0,0
53765,-133.333333333333,3,2,1,60,0,0
55496,-100,3,2,1,60,0,0
58957,-100,3,2,1,40,0,0
62419,-166.666666666667,3,2,2,50,0,0
90111,-142.857142857143,3,2,2,60,0,0
101650,-200,3,2,1,30,0,0
101866,-200,3,2,1,5,0,0
101938,-200,3,2,1,30,0,0
102155,-200,3,2,1,5,0,0
102227,-100,3,2,1,60,0,0
103669,-200,3,2,1,60,0,0
103885,-200,3,2,1,20,0,0
103957,-133.333333333333,3,2,1,70,0,1
128188,-133.333333333333,3,2,1,40,0,0
135111,-100,3,2,1,60,0,0
142034,-100,3,2,1,70,0,1
162804,-100,3,2,1,40,0,0
166265,-133.333333333333,3,2,1,60,0,0
169727,-100,3,2,1,70,0,0
173188,-133.333333333333,3,2,1,60,0,0
176650,-100,3,2,1,70,0,0
183555,275.229357798165,4,2,1,60,1,0
184655,303.030303030303,4,2,1,40,1,0
185867,309.278350515464,4,2,1,20,1,0
186485,333.333333333333,4,2,1,20,1,8
187151,359.281437125748,4,2,1,20,1,8
187510,355.029585798817,4,2,1,20,1,0
187865,-133.333333333333,4,2,1,20,0,0
188532,340.909090909091,4,2,1,20,1,8
188872,337.078651685393,4,2,1,20,1,0
189546,-133.333333333333,4,2,1,20,0,0
191231,428.571428571429,3,2,1,20,1,0
191231,-133.333333333333,3,2,1,20,0,0
191659,410.958904109589,3,2,1,20,1,8
192069,526.315789473684,3,2,1,20,1,8
192797,359.281437125748,3,2,1,20,1,0
193515,487.80487804878,3,2,1,20,1,0
194978,740.740740740741,3,2,1,20,1,0
197200,824.515597086712,3,2,1,20,1,0
202147,319.148936170213,3,2,1,20,1,0
202147,-200,3,2,1,20,0,0
202785,306.122448979592,3,2,1,20,1,0
202785,-200,3,2,1,20,0,0
228516,288.461538461538,3,2,1,60,1,0
229958,-200,3,2,1,60,0,0
230174,-200,3,2,1,20,0,0
230246,-133.333333333333,3,2,1,70,0,1
271785,-133.333333333333,3,2,1,60,0,0
275246,-100,3,2,1,70,0,1
282169,-133.333333333333,3,2,1,60,0,0
282314,-133.333333333333,3,2,1,40,0,0
289092,-133.333333333333,3,2,1,20,0,0

[Colours]
Combo1 : 128,64,0
Combo2 : 157,255,255
Combo3 : 255,243,179
Combo4 : 170,0,0

[HitObjects]
64,140,13958,6,0,B|122:263|122:263|176:272,1,160.000000596046,4|0,0:0|0:0,0:0:0:0:
228,220,14390,1,0,0:0:0:0:
280,139,14534,2,0,P|316:124|356:124,1,80.000000298023,8|0,0:0|0:0,0:0:0:0:
404,208,14823,2,0,P|440:223|469:250,1,80.000000298023,8|0,0:0|0:0,0:0:0:0:
328,264,15111,2,0,L|236:328,1,80.000000298023,8|0,0:0|0:0,0:0:0:0:
149,205,15400,2,0,L|228:220,1,80.000000298023,8|0,0:0|0:0,0:0:0:0:
68,256,15688,6,0,P|61:168|138:109,1,160.000000596046,4|0,0:0|0:0,0:0:0:0:
204,128,16121,1,0,0:0:0:0:
149,205,16265,2,0,P|167:241|193:271,1,80.000000298023,8|0,0:0|0:0,0:0:0:0:
288,80,16554,2,0,P|269:44|244:14,1,80.000000298023,8|0,0:0|0:0,0:0:0:0:
280,232,16842,2,0,P|319:234|359:226,1,80.000000298023,8|0,0:0|0:0,0:0:0:0:
157,53,17131,2,0,P|117:50|77:58,1,80.000000298023,8|0,0:0|0:0,0:0:0:0:
288,80,17419,6,0,B|336:60|400:80|400:80|376:140,1,160.000000596046,4|0,0:0|0:0,0:0:0:0:
448,192,17852,1,0,0:0:0:0:
380,260,17996,2,0,L|426:325,1,80.000000298023,8|0,0:0|0:0,0:0:0:0:
284,252,18284,2,0,L|297:173,1,80.000000298023,8|0,0:0|0:0,0:0:0:0:
192,284,18573,2,0,L|238:349,1,80.000000298023,8|0,0:0|0:0,0:0:0:0:
96,276,18861,2,0,L|109:197,1,80.000000298023,8|0,0:0|0:0,0:0:0:0:
296,58,19150,6,0,P|271:132|200:164,1,160.000000596046,4|0,0:0|0:0,0:0:0:0:
199,66,19582,1,0,0:0:0:0:
116,116,19727,2,0,B|92:76|48:64|48:64|48:31,1,120.000000447034,8|0,0:0|0:0,0:0:0:0:
36,151,20015,6,0,P|11:232|89:200,1,210.000008793175,2|0,0:0|0:0,0:0:0:0:
172,184,20592,6,0,P|196:201|214:224,1,60.0000002235172,2|0,0:0|0:0,0:0:0:0:
228,300,20881,6,0,L|304:204,1,120.000005024671,6|0,1:2|0:0,0:0:0:0:
301,110,21313,1,0,1:0:0:0:
204,104,21457,2,0,L|140:80,1,60.0000025123357,0|0,0:0|1:0,0:0:0:0:
388,64,21746,2,0,P|410:83|428:107,1,60.0000025123357,8|0,0:0|0:0,0:0:0:0:
368,184,22034,2,0,P|369:213|365:243,1,60.0000025123357,0|0,1:0|0:0,0:0:0:0:
428,320,22323,2,0,P|404:338|384:360,1,60.0000025123357,8|0,0:0|0:0,0:0:0:0:
180,260,22611,6,0,B|207:225|255:209|255:209|223:193,1,120.000005024671,6|0,1:2|0:0,0:0:0:0:
204,104,23044,1,0,1:0:0:0:
124,156,23188,2,0,P|100:175|81:198,1,60.0000025123357,0|0,0:0|1:0,0:0:0:0:
51,327,23477,2,0,P|80:332|109:328,1,60.0000025123357,8|0,0:0|0:0,0:0:0:0:
238,261,23765,2,0,P|209:255|180:260,1,60.0000025123357,0|0,1:0|0:0,0:0:0:0:
320,316,24054,2,0,P|344:299|362:275,1,60.0000025123357,8|0,0:0|0:0,0:0:0:0:
436,120,24342,6,0,B|388:124|344:108|344:108|308:136,1,120.000005024671,6|0,1:2|0:0,0:0:0:0:
256,192,24775,1,0,1:0:0:0:
176,140,24919,2,0,P|160:112|152:72,1,60.0000025123357,0|0,0:0|1:0,0:0:0:0:
59,272,25207,2,0,P|44:297|36:326,1,60.0000025123357,8|0,0:0|0:0,0:0:0:0:
156,288,25496,2,0,P|185:287|214:279,1,60.0000025123357,0|0,1:0|0:0,0:0:0:0:
116,200,25784,2,0,P|100:174|79:153,1,60.0000025123357,8|0,0:0|0:0,0:0:0:0:
352,64,26073,6,0,L|308:188,1,120.000005024671,6|0,1:2|0:0,0:0:0:0:
312,272,26506,1,0,1:0:0:0:
380,340,26650,2,0,P|400:312|408:284,1,60.0000025123357,0|0,0:0|1:0,0:0:0:0:
216,212,26938,2,0,L|192:144,1,60.0000025123357,8|0,0:0|0:0,0:0:0:0:
84,127,27227,2,0,L|104:184,1,60.0000025123357,8|0,0:0|0:0,0:0:0:0:
35,276,27515,2,0,L|16:220,1,60.0000025123357,0|0,1:0|0:0,0:0:0:0:
228,304,27804,6,0,B|276:288|300:248|300:248|311:271,1,120.000005024671,6|0,1:2|0:0,0:0:0:0:
408,280,28236,2,0,B|377:213|377:213|400:160,1,120.000005024671,0|0,1:0|1:0,0:0:0:0:
424,80,28669,2,0,P|384:84|352:76,1,60.0000025123357,8|0,0:0|0:0,0:0:0:0:
213,50,28957,2,0,P|243:46|273:50,1,60.0000025123357,0|0,1:0|0:0,0:0:0:0:
140,112,29246,1,8,0:0:0:0:
140,112,29534,6,0,B|44:112|44:112|72:80,1,120.000005024671,6|0,1:2|0:0,0:0:0:0:
52,208,29967,2,0,P|112:196|188:220,1,120.000005024671,0|0,1:0|1:0,0:0:0:0:
108,283,30400,2,0,P|80:295|56:314,1,60.0000025123357,8|0,0:0|0:0,0:0:0:0:
264,296,30688,2,0,P|275:268|278:238,1,60.0000025123357,0|0,1:0|0:0,0:0:0:0:
140,112,30977,2,0,P|129:139|125:169,1,60.0000025123357,8|0,0:0|0:0,0:0:0:0:
288,52,31265,6,0,B|328:40|328:40|345:43,2,60.0000025123357,6|8|2,1:2|0:0|0:0,0:0:0:0:
256,144,31698,5,2,1:2:0:0:
352,144,31842,1,0,0:0:0:0:
448,144,31986,1,2,1:2:0:0:
448,240,32131,5,10,0:0:0:0:
352,240,32275,1,0,0:0:0:0:
256,240,32419,1,2,1:2:0:0:
168,272,32563,5,2,1:2:0:0:
140,180,32707,1,8,0:0:0:0:
116,88,32852,1,2,0:0:0:0:
29,126,32996,6,0,L|12:192,1,60.0000025123357,12|0,0:0|1:0,0:0:0:0:
483,258,33429,2,0,L|500:192,1,60.0000025123357,12|0,0:0|1:0,0:0:0:0:
116,88,33861,6,0,P|104:61|97:32,1,60.0000025123357,12|0,0:0|1:0,0:0:0:0:
140,180,34150,2,0,P|129:208|113:233,1,60.0000025123357,8|0,0:0|1:0,0:0:0:0:
88,328,34438,2,0,P|117:323|147:324,1,60.0000025123357,0|0,1:0|0:0,0:0:0:0:
417,277,34727,6,0,P|358:265|299:275,1,120.000005024671,6|0,1:2|0:0,0:0:0:0:
240,348,35159,1,0,1:0:0:0:
148,324,35304,2,0,L|128:252,1,60.0000025123357,0|0,0:0|1:0,0:0:0:0:
320,184,35592,2,0,P|352:180|380:168,1,60.0000025123357,8|0,0:0|0:0,0:0:0:0:
324,88,35881,2,0,P|296:76|273:57,1,60.0000025123357,0|0,1:0|0:0,0:0:0:0:
196,116,36169,2,0,P|172:133|144:144,1,60.0000025123357,8|0,0:0|0:0,0:0:0:0:
23,262,36457,6,0,B|99:230|99:230|119:238|136:240,1,120.000005024671,6|0,1:2|0:0,0:0:0:0:
208,304,36890,1,0,1:0:0:0:
280,244,37034,2,0,P|292:212|292:168,1,60.0000025123357,0|0,0:0|1:0,0:0:0:0:
68,100,37323,2,0,L|52:168,1,60.0000025123357,8|0,0:0|0:0,0:0:0:0:
144,188,37611,2,0,L|128:256,1,60.0000025123357,0|0,1:0|0:0,0:0:0:0:
208,304,37900,2,0,L|192:372,1,60.0000025123357,8|0,0:0|0:0,0:0:0:0:
416,272,38188,6,0,P|440:216|424:152,1,120.000005024671,6|0,1:2|0:0,0:0:0:0:
344,208,38621,1,0,1:0:0:0:
272,267,38765,2,0,P|264:296|265:326,1,60.0000025123357,0|0,0:0|1:0,0:0:0:0:
32,288,39054,2,0,P|52:266|78:250,1,60.0000025123357,8|0,0:0|0:0,0:0:0:0:
64,156,39342,2,0,P|93:154|122:162,1,60.0000025123357,0|0,1:0|0:0,0:0:0:0:
176,84,39631,2,0,P|197:104|213:130,1,60.0000025123357,8|0,0:0|0:0,0:0:0:0:
344,208,39919,6,0,B|364:168|396:144|396:144|424:166,1,120.000005024671,6|0,1:2|0:0,0:0:0:0:
456,256,40352,1,0,1:0:0:0:
371,300,40496,2,0,P|342:304|313:297,1,60.0000025123357,0|0,0:0|1:0,0:0:0:0:
175,84,40784,2,0,P|168:112|169:142,1,60.0000025123357,8|0,0:0|0:0,0:0:0:0:
93,270,41073,2,0,P|92:240|100:211,1,60.0000025123357,8|0,0:0|0:0,0:0:0:0:
50,73,41361,2,0,P|51:103|44:132,1,60.0000025123357,0|0,1:0|0:0,0:0:0:0:
196,252,41650,6,0,L|312:328,1,120.000005024671,6|0,1:2|0:0,0:0:0:0:
276,168,42082,2,0,L|221:60,1,120.000005024671,0|0,1:0|1:0,0:0:0:0:
348,68,42515,2,0,P|400:52|480:92,1,120.000005024671,8|0,0:0|1:0,0:0:0:0:
401,148,42948,1,0,0:0:0:0:
352,232,43092,2,0,L|352:300,1,60.0000025123357,8|0,0:0|0:0,0:0:0:0:
128,228,43381,6,0,P|111:170|126:113,1,120.000005024671,6|0,1:2|0:0,0:0:0:0:
184,280,43813,2,0,P|126:265|69:281,1,120.000005024671,0|0,1:0|1:0,0:0:0:0:
256,172,44246,2,0,P|288:176|328:168,1,60.0000025123357,8|0,0:0|0:0,0:0:0:0:
363,89,44534,2,0,P|387:70|406:47,1,60.0000025123357,0|0,1:0|0:0,0:0:0:0:
464,124,44823,2,0,P|460:157|468:196,1,60.0000025123357,8|0,0:0|0:0,0:0:0:0:
296,316,45111,5,6,0:0:0:0:
296,316,45256,2,0,P|240:308|168:268,1,120.000005024671,6|0,0:0|0:0,0:0:0:0:
128,204,45688,1,6,0:0:0:0:
48,260,45832,1,0,0:0:0:0:
68,92,45977,6,0,L|232:92,1,160.000000596046,10|2,0:0|0:0,0:0:0:0:
460,152,46842,5,6,0:0:0:0:
460,152,46986,2,0,P|400:164|336:156,1,120.000000447034,6|0,0:0|0:0,0:0:0:0:
284,236,47419,1,6,0:0:0:0:
244,124,47563,1,0,0:0:0:0:
115,256,47707,6,0,P|56:276|84:196,1,180.000007537007,10|0,0:0|1:0,0:0:0:0:
244,124,48284,5,8,0:0:0:0:
264,140,48357,1,8,0:0:0:0:
284,156,48429,1,0,1:0:0:0:
304,172,48501,1,0,1:0:0:0:
328,192,48573,6,0,B|376:224|376:224|424:216,2,80.000000298023,6|0|2,0:0|0:0|0:0,0:0:0:0:
256,316,49006,2,0,B|208:284|208:284|160:292,2,80.000000298023,2|0|2,0:0|0:0|0:0,0:0:0:0:
116,192,49438,5,10,0:0:0:0:
244,124,49582,1,0,0:0:0:0:
244,124,49727,1,2,1:2:0:0:
328,192,49871,1,2,0:0:0:0:
256,316,50015,1,8,0:0:0:0:
328,172,50159,1,2,0:0:0:0:
184,60,50304,6,0,P|145:64|105:57,2,80.000000298023,2|12|2,0:0|0:0|0:0,0:0:0:0:
328,152,50736,2,0,P|367:156|407:149,2,80.000000298023,2|8|2,0:0|0:0|0:0,0:0:0:0:
256,316,51169,5,12,0:0:0:0:
256,220,51313,1,8,0:0:0:0:
256,124,51457,1,8,0:0:0:0:
136,192,51602,1,8,0:0:0:0:
256,316,51746,1,8,0:0:0:0:
376,192,51890,1,8,0:0:0:0:
347,307,52034,5,6,0:0:0:0:
347,307,52179,2,0,B|300:316|256:292|256:292|256:328,1,120.000005024671,6|0,0:0|0:0,0:0:0:0:
168,352,52611,1,6,0:0:0:0:
84,300,52756,1,0,0:0:0:0:
36,148,52900,6,0,B|88:128|152:152|152:152|128:104,1,160.000000596046,10|2,0:0|0:0,0:0:0:0:
424,100,53765,5,6,0:0:0:0:
424,100,53909,2,0,B|412:148|412:148|432:172|432:172|448:224,1,120.000005024671,6|0,0:0|0:0,0:0:0:0:
396,292,54342,1,6,0:0:0:0:
324,124,54486,1,0,0:0:0:0:
140,192,54631,6,0,P|74:149|80:223,1,180.000007537007,10|0,0:0|1:0,0:0:0:0:
260,188,55207,5,8,0:0:0:0:
276,172,55280,1,8,0:0:0:0:
292,156,55352,1,0,1:0:0:0:
308,140,55424,1,0,1:0:0:0:
324,124,55496,6,0,L|380:67,2,80.000000298023,6|0|2,0:0|0:0|0:0,0:0:0:0:
292,268,55929,2,0,L|212:268,2,80.000000298023,2|0|2,0:0|0:0|0:0,0:0:0:0:
452,192,56361,5,10,0:0:0:0:
408,312,56506,1,0,0:0:0:0:
324,124,56650,1,2,1:2:0:0:
324,124,56794,2,0,B|272:104|272:104|244:116,1,80.000000298023,2|8,0:0|0:0,0:0:0:0:
148,192,57082,1,2,0:0:0:0:
148,192,57227,6,0,P|108:208|60:212,2,80.000000298023,2|12|2,0:0|0:0|0:0,0:0:0:0:
256,260,57659,2,0,P|299:267|343:287,2,80.000000298023,2|8|2,0:0|0:0|0:0,0:0:0:0:
148,328,58092,5,12,0:0:0:0:
256,260,58236,1,8,0:0:0:0:
148,192,58381,1,8,0:0:0:0:
256,124,58525,1,8,0:0:0:0:
148,56,58669,1,8,0:0:0:0:
256,260,58813,1,8,0:0:0:0:
364,56,58957,5,6,0:0:0:0:
56,108,62419,6,0,P|79:103|102:96,1,47.9999987139701,6|0,0:0|0:0,0:0:0:0:
167,136,62707,2,0,P|188:146|208:160,1,47.9999987139701,0|2,0:0|0:0,0:0:0:0:
264,212,62996,2,0,L|253:258,1,47.9999987139701,0|2,0:0|0:0,0:0:0:0:
336,184,63284,2,0,P|383:176|430:185,1,95.9999974279402,8|0,0:0|0:0,0:0:0:0:
296,80,63861,1,0,0:0:0:0:
296,80,64006,1,0,0:0:0:0:
296,80,64150,6,0,B|240:64|240:64|212:100|212:100|168:120,2,143.99999614191,2|2|8,0:0|0:0|0:0,0:0:0:0:
364,220,65304,1,0,0:0:0:0:
316,280,65448,1,0,0:0:0:0:
240,296,65592,2,0,P|204:264|184:236,1,71.9999980709551,8|0,0:0|0:0,0:0:0:0:
152,252,65881,6,0,L|176:136,1,95.9999974279402,6|0,0:0|0:0,0:0:0:0:
111,112,66313,2,0,P|92:125|69:134,1,47.9999987139701,2|0,0:0|0:0,0:0:0:0:
164,56,66602,1,2,0:0:0:0:
164,56,66746,2,0,L|228:68,1,47.9999987139701,8|0,0:0|0:0,0:0:0:0:
292,148,67034,2,0,L|356:143,1,47.9999987139701,2|0,0:0|0:0,0:0:0:0:
440,204,67323,2,0,L|501:182,1,47.9999987139701,8|0,0:0|0:0,0:0:0:0:
456,24,67611,6,0,B|424:120|424:120|399:84,2,143.99999614191,2|2|0,0:0|0:0|0:0,0:0:0:0:
256,36,68765,1,0,0:0:0:0:
184,60,68909,1,0,0:0:0:0:
116,92,69054,2,0,P|104:116|84:140,1,47.9999987139701,8|0,0:0|0:0,0:0:0:0:
20,156,69342,6,0,P|68:176|108:220,1,95.9999974279402,6|0,0:0|0:0,0:0:0:0:
172,344,69919,2,0,P|196:316|204:296,1,47.9999987139701,0|2,0:0|0:0,0:0:0:0:
236,240,70207,2,0,B|308:208|308:208|308:236,1,95.9999974279402,8|0,0:0|0:0,0:0:0:0:
408,344,70784,1,0,0:0:0:0:
456,284,70929,1,0,0:0:0:0:
408,224,71073,6,0,P|387:181|381:134,1,95.9999974279402,2|0,0:0|0:0,0:0:0:0:
288,103,71506,2,0,P|304:58|333:20,1,95.9999974279402,2|2,0:0|0:0,0:0:0:0:
192,124,71938,2,0,L|80:124,2,95.9999974279402,8|0|8,0:0|0:0|0:0,0:0:0:0:
204,316,72804,6,0,B|258:252|258:252|258:200,1,119.999996784925,6|0,0:0|0:0,0:0:0:0:
230,188,73236,2,0,P|274:180|338:192,1,95.9999974279402,2|2,0:0|0:0,0:0:0:0:
372,248,73669,2,0,P|395:251|419:251,1,47.9999987139701,8|0,0:0|0:0,0:0:0:0:
452,132,73957,2,0,P|467:113|478:92,1,47.9999987139701,2|0,0:0|0:0,0:0:0:0:
332,100,74246,2,0,P|308:96|284:96,1,47.9999987139701,8|0,0:0|0:0,0:0:0:0:
160,108,74534,5,2,0:0:0:0:
160,108,74679,2,0,L|112:144,1,47.9999987139701,8|0,0:0|0:0,0:0:0:0:
100,288,74967,1,2,0:0:0:0:
100,288,75111,2,0,L|148:252,1,47.9999987139701,8|2,0:0|0:0,0:0:0:0:
256,320,75400,2,0,P|289:331|325:333,1,71.9999980709551
356,356,75688,2,0,L|400:284,1,71.9999980709551
404,256,75977,1,8,0:0:0:0:
504,176,76121,1,8,0:0:0:0:
392,116,76265,5,6,0:0:0:0:
430,182,76409,1,0,0:0:0:0:
404,256,76554,2,0,L|353:233,1,47.9999987139701,0|2,0:0|0:0,0:0:0:0:
392,116,76842,2,0,L|372:64,1,47.9999987139701,0|2,0:0|0:0,0:0:0:0:
304,100,77131,2,0,P|272:144|256:196,1,95.9999974279402,8|2,0:0|0:0,0:0:0:0:
344,308,77707,1,0,0:0:0:0:
344,308,77852,1,0,0:0:0:0:
344,308,77996,6,0,B|392:312|432:272|432:272|472:308,2,143.99999614191,2|2|8,0:0|0:0|0:0,0:0:0:0:
196,268,79150,1,0,0:0:0:0:
120,136,79438,2,0,L|180:92,1,71.9999980709551,8|0,0:0|0:0,0:0:0:0:
180,56,79727,6,0,L|248:148,1,95.9999974279402,6|0,0:0|0:0,0:0:0:0:
348,168,80159,1,2,0:0:0:0:
348,167,80304,2,0,P|360:147|380:128,1,47.9999987139701,0|2,0:0|0:0,0:0:0:0:
452,220,80592,2,0,P|448:256|432:304,1,71.9999980709551,8|0,0:0|0:0,0:0:0:0:
400,300,80881,2,0,B|368:296|368:296|344:284|312:276,1,71.9999980709551
264,324,81169,2,0,P|240:329|213:329,1,47.9999987139701,8|0,0:0|0:0,0:0:0:0:
132,236,81457,5,2,0:0:0:0:
132,236,81602,2,0,L|104:132,1,95.9999974279402,8|2,0:0|0:0,0:0:0:0:
56,84,82034,2,0,P|96:68|144:76,1,71.9999980709551,8|0,0:0|0:0,0:0:0:0:
160,88,82323,2,0,P|208:96|256:88,2,95.9999974279402,0|0|8,0:0|0:0|0:0,0:0:0:0:
120,192,83044,1,8,0:0:0:0:
56,84,83188,5,6,0:0:0:0:
48,160,83332,1,0,0:0:0:0:
120,192,83477,1,0,0:0:0:0:
180,240,83621,2,0,P|203:236|227:235,1,47.9999987139701,2|0,0:0|0:0,0:0:0:0:
284,288,83909,1,2,0:0:0:0:
348,332,84054,2,0,L|444:332,1,95.9999974279402,8|2,0:0|0:0,0:0:0:0:
472,260,84486,1,0,0:0:0:0:
428,196,84631,2,0,L|364:196,1,47.9999987139701
472,132,84919,5,2,0:0:0:0:
472,132,85063,2,0,P|439:125|395:97,1,71.9999980709551,2|0,0:0|0:0,0:0:0:0:
371,121,85352,2,0,B|327:129|295:113|295:113|279:137,1,95.9999974279402,2|2,0:0|0:0,0:0:0:0:
332,240,85784,2,0,P|354:247|378:249,1,47.9999987139701,8|0,0:0|0:0,0:0:0:0:
280,343,86073,2,0,P|256:345|232:342,1,47.9999987139701,0|2,0:0|0:0,0:0:0:0:
133,249,86361,2,0,P|157:247|179:240,1,47.9999987139701,8|0,0:0|0:0,0:0:0:0:
128,136,86650,5,6,0:0:0:0:
128,136,86794,2,0,L|72:40,1,95.9999974279402,2|2,0:0|0:0,0:0:0:0:
152,152,87371,1,2,0:0:0:0:
152,151,87515,2,0,P|175:148|199:148,1,47.9999987139701,8|0,0:0|0:0,0:0:0:0:
271,240,87804,2,0,P|291:254|307:271,1,47.9999987139701,2|0,0:0|0:0,0:0:0:0:
420,244,88092,2,0,P|425:220|426:196,1,47.9999987139701,8|0,0:0|0:0,0:0:0:0:
336,44,88381,5,2,0:0:0:0:
336,44,88525,2,0,B|296:104|296:104|256:92,1,95.9999974279402,10|2,0:0|0:0,0:0:0:0:
200,72,88957,2,0,P|156:68|112:76,1,71.9999980709551,8|0,0:0|0:0,0:0:0:0:
96,96,89246,2,0,P|76:136|76:192,1,95.9999974279402
132,328,89823,1,8,0:0:0:0:
80,208,89967,1,8,0:0:0:0:
208,276,90111,6,0,P|236:276|276:284,1,55.9999984996318,6|0,0:0|0:0,0:0:0:0:
344,316,90400,1,0,0:0:0:0:
336,228,90544,2,0,B|356:160|356:160|400:136,1,111.999996999264,2|2,0:0|0:0,0:0:0:0:
336,72,90977,2,0,L|279:103,1,55.9999984996318,8|0,0:0|0:0,0:0:0:0:
200,84,91265,2,0,P|156:76|104:88,1,83.9999977494476
100,124,91554,2,0,P|58:130|17:122,1,83.9999977494476
17,122,91842,6,0,B|27:173|8:211|8:211|26:204,1,111.999996999264,2|0,0:0|0:0,0:0:0:0:
222,223,92275,2,0,P|169:209|115:221,1,111.999996999264,2|2,0:0|0:0,0:0:0:0:
272,296,92707,2,0,P|291:276|306:252,1,55.9999984996318,8|0,0:0|0:0,0:0:0:0:
412,168,92996,2,0,P|404:140|391:116,1,55.9999984996318
432,301,93284,2,0,P|439:328|452:352,1,55.9999984996318,8|2,0:0|0:0,0:0:0:0:
192,316,93573,6,0,B|160:236|160:236|128:260,1,111.999996999264,6|0,0:0|0:0,0:0:0:0:
0,227,94006,2,0,P|52:207|95:172,1,111.999996999264,2|2,0:0|0:0,0:0:0:0:
67,288,94438,2,0,P|52:311|44:337,1,55.9999984996318,8|0,0:0|0:0,0:0:0:0:
184,168,94727,2,0,P|178:140|165:115,1,55.9999984996318
288,300,95015,1,0,0:0:0:0:
288,300,95304,6,0,B|296:272|296:252|296:252|316:236|352:232|352:232|356:204|384:176,2,167.999995498895,2|2|8,0:0|0:0|0:0,0:0:0:0:
111,279,96457,2,0,P|91:243|85:202,1,83.9999977494476
128,184,96746,2,0,P|139:143|164:110,1,83.9999977494476
208,127,97034,6,0,P|257:103|312:107,2,111.999996999264,6|0|0,0:0|0:0|0:0,0:0:0:0:
317,223,97756,1,2,0:0:0:0:
317,223,97900,2,0,P|297:203|274:189,1,55.9999984996318,8|0,0:0|0:0,0:0:0:0:
394,69,98188,2,0,P|400:96|400:124,1,55.9999984996318
480,244,98477,2,0,P|444:276|416:320,1,83.9999977494476
384,328,98765,6,0,L|272:292,1,111.999996999264,2|0,0:0|0:0,0:0:0:0:
192,320,99198,1,2,0:0:0:0:
108,288,99342,2,0,P|96:264|88:216,1,55.9999984996318,0|2,0:0|0:0,0:0:0:0:
16,184,99631,2,0,P|48:144|64:104,1,83.9999977494476,8|0,0:0|0:0,0:0:0:0:
60,68,99919,2,0,L|116:68,1,55.9999984996318
172,164,100207,2,0,L|228:164,1,55.9999984996318,8|0,0:0|0:0,0:0:0:0:
312,88,100496,5,6,0:0:0:0:
312,87,101650,6,0,P|308:117|310:147,1,60.0000002235172,2|0,0:0|0:0,0:0:0:0:
372,203,101938,2,0,P|374:233|370:263,1,60.0000002235172,2|0,0:0|0:0,0:0:0:0:
416,328,102227,5,4,0:0:0:0:
416,328,102371,2,0,B|304:292|304:292|256:340,1,160.000000596046,8|0,0:0|1:0,0:0:0:0:
180,352,102804,1,8,0:0:0:0:
164,148,102948,1,0,0:0:0:0:
98,217,103092,2,0,P|91:257|100:296,1,80.000000298023,0|0,1:0|0:0,0:0:0:0:
256,180,103381,2,0,P|288:157|310:124,1,80.000000298023,0|0,1:0|0:0,0:0:0:0:
284,293,103669,6,0,B|256:285|256:285|227:293,1,60.0000002235172,2|0,0:0|0:0,0:0:0:0:
348,351,103957,6,0,P|370:297|353:240,1,120.000005024671,6|0,1:2|0:0,0:0:0:0:
158,240,104390,2,0,P|141:297|163:351,1,120.000005024671,0|0,1:0|1:0,0:0:0:0:
296,154,104823,2,0,P|299:124|295:94,1,60.0000025123357,8|0,0:0|0:0,0:0:0:0:
144,104,105111,2,0,P|120:122|102:146,1,60.0000025123357,0|0,1:0|0:0,0:0:0:0:
188,184,105400,1,8,0:0:0:0:
232,100,105544,1,0,0:0:0:0:
188,184,105688,6,0,B|264:184|264:184|304:148,1,120.000005024671,6|0,1:2|0:0,0:0:0:0:
437,156,106121,2,0,L|348:236,1,120.000005024671,0|0,1:0|1:0,0:0:0:0:
439,279,106554,2,0,L|484:240,1,60.0000025123357,8|0,0:0|0:0,0:0:0:0:
340,116,106842,2,0,L|296:156,1,60.0000025123357,0|0,1:0|0:0,0:0:0:0:
292,304,107131,1,8,0:0:0:0:
376,348,107275,1,0,1:0:0:0:
292,304,107419,6,0,B|252:292|216:304|216:304|182:277,1,120.000005024671,6|0,1:2|0:0,0:0:0:0:
182,106,107852,2,0,B|216:80|216:80|252:92|292:80,1,120.000005024671,0|0,1:0|1:0,0:0:0:0:
115,175,108284,2,0,P|97:150|87:122,1,60.0000025123357,8|0,0:0|0:0,0:0:0:0:
32,224,108573,2,0,P|18:250|14:280,1,60.0000025123357,0|0,1:0|0:0,0:0:0:0:
181,246,108861,1,8,0:0:0:0:
104,304,109006,1,0,0:0:0:0:
181,246,109150,6,0,B|220:236|220:236|256:248|256:248|283:216,1,120.000005024671,6|0,1:2|0:0,0:0:0:0:
176,152,109582,2,0,B|97:174|97:174|65:138,1,120.000005024671,0|0,1:0|1:0,0:0:0:0:
88,268,110015,2,0,L|83:347,1,60.0000025123357,8|0,0:0|0:0,0:0:0:0:
176,152,110304,2,0,L|179:92,1,60.0000025123357,8|0,0:0|0:0,0:0:0:0:
304,220,110592,2,0,L|301:280,1,60.0000025123357,0|0,1:0|0:0,0:0:0:0:
424,140,110881,6,0,B|392:112|380:72|380:72|344:88,1,120.000005024671,6|0,1:2|0:0,0:0:0:0:
256,120,111313,1,0,1:0:0:0:
171,71,111457,2,0,P|154:48|144:19,1,60.0000025123357,0|0,0:0|1:0,0:0:0:0:
88,120,111746,2,0,B|47:207|47:207|85:188,1,120.000005024671,8|0,0:0|1:0,0:0:0:0:
149,249,112179,1,0,0:0:0:0:
224,308,112323,2,0,P|256:304|292:312,1,60.0000025123357,8|0,0:0|0:0,0:0:0:0:
442,257,112611,6,0,B|416:224|416:224|376:240|340:228,1,120.000005024671,6|0,1:2|0:0,0:0:0:0:
372,135,113044,2,0,P|392:80|368:8,1,120.000005024671,0|0,1:0|1:0,0:0:0:0:
296,75,113477,2,0,P|280:101|274:130,1,60.0000025123357,8|0,0:0|0:0,0:0:0:0:
203,193,113765,2,0,P|187:168|180:140,1,60.0000025123357,0|0,1:0|0:0,0:0:0:0:
104,80,114054,2,0,P|88:105|82:134,1,60.0000025123357,8|0,0:0|0:0,0:0:0:0:
36,216,114342,5,6,0:0:0:0:
84,300,114486,2,0,L|160:300,1,60.0000025123357,8|2,1:2|0:0,0:0:0:0:
324,152,114775,1,2,1:2:0:0:
276,236,114919,2,0,L|216:236,1,60.0000025123357,0|2,0:0|1:2,0:0:0:0:
104,80,115207,2,0,P|140:72|188:72,1,60.0000025123357,10|0,0:0|0:0,0:0:0:0:
324,152,115496,2,0,P|298:136|275:116,1,60.0000025123357,2|2,1:2|1:2,0:0:0:0:
432,248,115784,1,8,0:0:0:0:
312,332,115929,1,2,0:0:0:0:
167,327,116073,6,0,P|144:309|127:284,1,60.0000025123357,12|0,0:0|1:0,0:0:0:0:
344,56,116506,2,0,P|367:74|384:99,1,60.0000025123357,12|0,0:0|1:0,0:0:0:0:
52,224,116938,6,0,P|56:194|68:167,1,60.0000025123357,12|0,0:0|1:0,0:0:0:0:
76,72,117227,2,0,P|103:61|133:58,1,60.0000025123357,8|0,0:0|1:0,0:0:0:0:
228,40,117515,2,0,L|268:120,1,90.0000037685036,8|0,0:0|0:0,0:0:0:0:
288,164,117804,6,0,L|174:126,1,120.000005024671,6|0,1:2|0:0,0:0:0:0:
332,248,118236,2,0,L|445:210,1,120.000005024671,0|0,1:0|1:0,0:0:0:0:
254,306,118669,2,0,P|225:304|195:310,1,60.0000025123357,8|0,0:0|0:0,0:0:0:0:
67,312,118957,2,0,P|90:291|108:268,1,60.0000025123357,0|0,1:0|0:0,0:0:0:0:
88,140,119246,1,8,0:0:0:0:
88,140,119390,1,0,0:0:0:0:
88,140,119534,6,0,B|128:128|164:136|164:136|197:109,1,120.000005024671,6|0,1:2|0:0,0:0:0:0:
424,140,119967,2,0,B|384:128|348:136|348:136|314:109,1,120.000005024671,0|0,1:0|1:0,0:0:0:0:
380,224,120400,2,0,P|412:236|440:256,1,60.0000025123357,8|0,0:0|0:0,0:0:0:0:
310,342,120688,2,0,P|335:326|364:316,1,60.0000025123357,0|0,1:0|0:0,0:0:0:0:
256,264,120977,1,8,0:0:0:0:
256,264,121121,1,0,0:0:0:0:
255,264,121265,6,0,P|196:268|141:247,1,120.000005024671,6|0,1:2|0:0,0:0:0:0:
256,119,121698,2,0,P|315:115|370:136,1,120.000005024671,0|0,1:0|1:0,0:0:0:0:
164,92,122131,2,0,L|132:36,1,60.0000025123357,8|0,0:0|0:0,0:0:0:0:
6,88,122419,2,0,L|64:104,1,60.0000025123357,0|0,1:0|0:0,0:0:0:0:
124,180,122707,1,8,0:0:0:0:
124,180,122852,1,0,0:0:0:0:
124,180,122996,6,0,B|100:260|100:260|117:292,1,120.000005024671,6|0,1:2|0:0,0:0:0:0:
394,292,123429,2,0,B|412:260|412:260|388:180,1,120.000005024671,0|0,1:0|1:0,0:0:0:0:
308,128,123861,2,0,P|272:136|248:152,1,60.0000025123357,8|0,0:0|0:0,0:0:0:0:
256,244,124150,2,0,P|236:275|230:303,1,60.0000025123357,8|0,0:0|0:0,0:0:0:0:
140,268,124438,2,0,P|92:260|48:228,1,90.0000037685036,0|0,1:0|0:0,0:0:0:0:
12,248,124727,6,0,L|80:136,1,120.000005024671,6|0,1:2|0:0,0:0:0:0:
160,100,125159,1,0,1:0:0:0:
248,144,125304,2,0,P|264:176|268:208,1,60.0000025123357,0|0,0:0|1:0,0:0:0:0:
224,284,125592,2,0,P|280:292|344:256,1,120.000005024671,8|0,0:0|1:0,0:0:0:0:
388,184,126025,1,0,0:0:0:0:
376,88,126169,2,0,L|340:32,1,60.0000025123357,8|0,0:0|0:0,0:0:0:0:
160,100,126457,6,0,B|112:104|72:80|72:80|80:106,1,120.000005024671,6|0,1:2|0:0,0:0:0:0:
140,196,126890,2,0,B|188:200|228:176|228:176|219:202,1,120.000005024671,0|0,1:0|1:0,0:0:0:0:
164,280,127323,2,0,P|138:294|116:314,1,60.0000025123357,8|0,0:0|0:0,0:0:0:0:
293,144,127611,2,0,P|301:115|302:85,1,60.0000025123357,0|0,1:0|0:0,0:0:0:0:
381,312,127900,2,0,P|395:338|415:360,1,60.0000025123357,8|0,0:0|0:0,0:0:0:0:
441,172,128188,5,2,0:0:0:0:
378,121,135111,6,0,P|408:193|376:264,1,160.000000596046,6|0,0:0|0:0,0:0:0:0:
155,202,135544,2,0,B|228:164|228:232|309:193,1,160.000000596046,10|0,0:0|0:0,0:0:0:0:
164,300,135977,2,0,P|124:296|89:276,1,80.000000298023,10|0,0:0|0:0,0:0:0:0:
103,119,136265,2,0,P|138:99|178:96,1,80.000000298023,10|0,0:0|0:0,0:0:0:0:
309,193,136554,2,0,P|328:227|332:267,1,80.000000298023,10|0,0:0|0:0,0:0:0:0:
289,25,136842,6,0,L|272:104,1,80.000000298023,2|8,0:0|0:0,0:0:0:0:
364,324,137131,1,0,0:0:0:0:
280,128,137275,1,2,0:0:0:0:
352,344,137419,2,0,B|292:336|292:336|260:368,1,80.000000298023,8|0,0:0|0:0,0:0:0:0:
208,284,137707,2,0,P|188:227|192:168,1,120.000000447034,10|0,0:0|0:0,0:0:0:0:
237,149,137996,2,0,P|180:168|121:164,1,120.000000447034,10|0,0:0|0:0,0:0:0:0:
76,184,138284,2,0,L|48:48,1,120.000000447034,10|0,0:0|0:0,0:0:0:0:
28,108,138573,6,0,L|60:269,1,160.000000596046,6|0,0:0|0:0,0:0:0:0:
168,348,139006,2,0,B|144:231|144:231|173:259,1,160.000000596046,10|0,0:0|0:0,0:0:0:0:
236,188,139438,2,0,L|175:129,1,80.000000298023,10|0,0:0|0:0,0:0:0:0:
28,108,139727,2,0,L|85:163,1,80.000000298023,10|0,0:0|0:0,0:0:0:0:
256,64,140015,2,0,L|198:8,1,80.000000298023,10|0,0:0|0:0,0:0:0:0:
256,88,140304,5,2,0:0:0:0:
372,140,140448,2,0,P|428:128|456:108,2,80.000000298023,8|0|2,0:0|0:0|0:0,0:0:0:0:
240,320,140881,1,8,0:0:0:0:
220,172,141025,1,0,0:0:0:0:
224,328,141169,6,0,L|188:344,3,40.0000001490115,2|0|0|0,1:2|1:0|1:0|1:0,0:0:0:0:
137,265,141457,2,0,L|100:251,3,40.0000001490115,2|0|0|0,1:2|1:0|1:0|1:0,0:0:0:0:
119,160,141746,2,0,L|104:124,3,40.0000001490115,10|8|0|0,0:0|0:0|1:0|1:0,0:0:0:0:
182,73,142034,6,0,B|204:48|224:40|224:40|224:13,2,80.000000298023,6|0|2,0:0|0:0|0:0,0:0:0:0:
264,128,142467,2,0,B|296:134|313:147|313:147|336:134,2,80.000000298023,2|0|2,0:0|0:0|0:0,0:0:0:0:
256,224,142900,2,0,P|263:263|259:302,1,80.000000298023,10|0,0:0|0:0,0:0:0:0:
37,184,143188,2,0,P|29:144|33:105,1,80.000000298023,10|0,0:0|0:0,0:0:0:0:
137,266,143477,2,0,P|107:292|70:308,1,80.000000298023,10|0,0:0|0:0,0:0:0:0:
144,44,143765,6,0,B|192:64|192:64|198:91,2,80.000000298023,6|8|2,0:0|0:0|0:0,0:0:0:0:
37,184,144198,2,0,B|43:156|43:156|91:136,2,80.000000298023,2|8|2,0:0|0:0|0:0,0:0:0:0:
137,266,144631,2,0,P|163:275|188:279,3,40.0000001490115,10|8|0|0,0:0|0:0|1:0|1:0,0:0:0:0:
260,332,144919,2,0,P|281:314|297:294,3,40.0000001490115,10|8|0|0,0:0|0:0|1:0|1:0,0:0:0:0:
379,258,145207,2,0,P|374:231|365:207,3,40.0000001490115,10|8|0|0,0:0|0:0|1:0|1:0,0:0:0:0:
375,117,145496,5,6,0:0:0:0:
320,40,145640,2,0,P|292:36|248:40,1,40.0000001490115,8|0,0:0|0:0,0:0:0:0:
239,61,145784,2,0,P|201:68|140:55,1,80.000000298023,2|0,0:0|0:0,0:0:0:0:
88,128,146073,6,0,L|40:128,2,40.0000001490115,2|0|0,0:0|0:0|1:0,0:0:0:0:
160,192,146361,1,10,0:0:0:0:
88,256,146506,1,0,0:0:0:0:
160,316,146650,2,0,L|160:360,2,40.0000001490115,2|0|0,1:2|0:0|1:0,0:0:0:0:
232,256,146938,2,0,L|272:256,2,40.0000001490115,10|0|0,0:0|0:0|0:0,0:0:0:0:
88,256,147227,6,0,L|108:221,3,40.0000001490115,6|0|0|0,1:2|0:0|1:0|0:0,0:0:0:0:
137,141,147515,2,0,L|175:131,3,40.0000001490115,2|0|0|0,0:0|0:0|1:0|0:0,0:0:0:0:
220,56,147804,2,0,L|254:76,3,40.0000001490115,2|0|0|0,0:0|0:0|1:0|0:0,0:0:0:0:
326,121,148092,1,10,0:0:0:0:
357,118,148164,1,0,0:0:0:0:
388,108,148236,1,0,1:0:0:0:
416,93,148308,1,0,0:0:0:0:
440,72,148380,1,2,1:2:0:0:
460,48,148453,5,0,0:0:0:0:
460,64,148525,1,0,1:0:0:0:
460,80,148597,1,0,0:0:0:0:
460,96,148669,1,2,1:2:0:0:
460,112,148741,1,0,0:0:0:0:
460,128,148813,1,0,1:0:0:0:
460,144,148885,1,0,0:0:0:0:
460,160,148957,6,0,L|460:256,1,80.000000298023,14|0,0:0|0:0,0:0:0:0:
212,176,149390,1,0,1:0:0:0:
212,176,149462,1,0,1:0:0:0:
212,176,149534,2,0,L|212:92,1,80.000000298023,10|0,0:0|0:0,0:0:0:0:
120,288,149823,2,0,P|135:276|152:265,3,40.0000001490115,10|8|0|0,0:0|0:0|1:0|1:0,0:0:0:0:
252,292,150111,2,0,P|271:293|291:297,3,40.0000001490115,10|8|0|0,0:0|0:0|1:0|1:0,0:0:0:0:
388,348,150400,2,0,B|432:276|432:276|420:232,1,120.000000447034,10|0,0:0|0:0,0:0:0:0:
420,192,150688,6,0,P|434:178|450:165,2,40.0000001490115,6|0|8,0:0|0:0|0:0,0:0:0:0:
332,236,150977,2,0,P|312:235|292:233,2,40.0000001490115,2|0|8,0:0|0:0|0:0,0:0:0:0:
384,100,151265,2,0,P|398:86|414:73,2,40.0000001490115,10|0|8,0:0|0:0|0:0,0:0:0:0:
296,143,151554,2,0,P|276:142|256:140,2,40.0000001490115,2|0|0,0:0|0:0|1:0,0:0:0:0:
280,48,151842,1,10,0:0:0:0:
152,160,151986,1,0,1:0:0:0:
32,80,152131,1,10,0:0:0:0:
80,300,152275,1,0,0:0:0:0:
152,160,152419,6,0,P|136:172|120:192,5,26.6666667660077,4|0|8|0|0|0,0:0|0:0|0:0|0:0|0:0|0:0,0:0:0:0:
112,212,152707,1,2,0:0:0:0:
152,356,152852,2,0,L|264:280,1,120.000000447034,2|0,0:0|0:0,0:0:0:0:
300,288,153140,2,0,P|288:240|292:192,1,80.000000298023,2|8,0:0|0:0,0:0:0:0:
348,136,153429,1,2,0:0:0:0:
444,148,153573,2,0,P|456:196|452:244,1,80.000000298023,0|2,0:0|0:0,0:0:0:0:
396,304,153861,1,10,0:0:0:0:
156,356,154006,1,2,0:0:0:0:
300,288,154150,5,6,0:0:0:0:
300,288,154294,2,0,B|248:264|248:264|212:280,1,80.000000298023
132,264,154582,1,0,0:0:0:0:
188,184,154727,2,0,L|261:151,1,80.000000298023,2|0,0:0|0:0,0:0:0:0:
135,103,155015,2,0,P|96:96|61:78,1,80.000000298023,10|0,0:0|0:0,0:0:0:0:
220,56,155304,2,0,P|253:33|290:20,1,80.000000298023,10|0,0:0|0:0,0:0:0:0:
188,184,155592,2,0,P|170:219|162:258,1,80.000000298023,10|0,0:0|0:0,0:0:0:0:
228,332,155881,5,6,0:0:0:0:
308,280,156025,1,0,0:0:0:0:
404,292,156169,2,0,L|468:240,1,80.000000298023,2|0,0:0|0:0,0:0:0:0:
428,76,156457,2,0,L|420:156,1,80.000000298023,2|0,0:0|0:0,0:0:0:0:
249,196,156746,2,0,L|328:184,1,80.000000298023,2|0,0:0|0:0,0:0:0:0:
377,20,157034,2,0,L|330:84,1,80.000000298023,10|0,0:0|0:0,0:0:0:0:
236,56,157323,1,10,0:0:0:0:
152,104,157467,1,8,0:0:0:0:
79,167,157611,6,0,P|61:132|56:93,1,80.000000298023,2|0,0:0|0:0,0:0:0:0:
136,244,157900,2,0,P|134:283|118:320,1,80.000000298023,2|0,0:0|0:0,0:0:0:0:
224,204,158188,2,0,P|232:180|236:152,3,40.0000001490115,10|8|0|0,0:0|0:0|1:0|1:0,0:0:0:0:
200,128,158477,2,0,L|276:72,1,80.000000298023,10|0,0:0|0:0,0:0:0:0:
404,92,158765,2,0,L|340:140,1,80.000000298023,10|0,0:0|0:0,0:0:0:0:
316,232,159054,2,0,P|380:220|440:232,1,120.000000447034,2|0,0:0|0:0,0:0:0:0:
444,276,159342,6,0,P|408:304|376:348,1,80.000000298023,6|0,0:0|0:0,0:0:0:0:
212,309,159631,2,0,P|252:306|292:312,1,80.000000298023,2|0,0:0|0:0,0:0:0:0:
120,332,159919,1,2,0:0:0:0:
60,256,160063,1,0,0:0:0:0:
60,160,160207,2,0,B|84:104|84:104|120:84,1,80.000000298023,10|0,0:0|0:0,0:0:0:0:
204,85,160496,2,0,B|180:29|180:29|164:20,1,80.000000298023,10|0,0:0|0:0,0:0:0:0:
296,52,160784,2,0,L|343:162,1,120.000000447034,2|0,0:0|0:0,0:0:0:0:
304,192,161073,6,0,P|264:180|224:180,1,80.000000298023,2|8,0:0|0:0,0:0:0:0:
187,268,161361,2,0,P|158:295|138:329,1,80.000000298023,2|0,0:0|0:0,0:0:0:0:
132,188,161650,1,10,0:0:0:0:
56,132,161794,2,0,L|36:80,2,40.0000001490115,0|0|10,1:0|1:0|0:0,0:0:0:0:
132,188,162082,2,0,L|109:238,2,40.0000001490115,0|0|10,1:0|1:0|0:0,0:0:0:0:
132,72,162371,2,0,L|154:21,2,40.0000001490115,0|0|10,1:0|1:0|0:0,0:0:0:0:
228,156,162659,1,8,0:0:0:0:
324,48,162804,5,2,0:0:0:0:
384,264,166265,5,6,0:0:0:0:
384,264,166409,2,0,P|404:212|392:140,1,120.000005024671,14|0,0:0|0:0,0:0:0:0:
336,76,166842,1,14,0:0:0:0:
256,132,166986,1,0,0:0:0:0:
164,108,167131,2,0,L|124:88,2,30.0000012561679,10|8|0,0:0|0:0|1:0,0:0:0:0:
131,197,167419,2,0,L|89:211,2,30.0000012561679,10|8|0,0:0|0:0|1:0,0:0:0:0:
172,284,167707,2,0,L|152:324,2,30.0000012561679,10|8|0,0:0|0:0|1:0,0:0:0:0:
256,328,167996,5,6,0:0:0:0:
256,328,168140,2,0,B|336:280|336:280|344:316,1,120.000005024671,6|0,0:0|0:0,0:0:0:0:
433,310,168573,2,0,L|420:252,1,60.0000025123357,14|0,0:0|0:0,0:0:0:0:
372,172,168861,1,10,0:0:0:0:
276,192,169006,1,0,0:0:0:0:
372,152,169150,1,10,0:0:0:0:
305,78,169294,1,0,0:0:0:0:
372,196,169438,2,0,P|412:204|448:196,1,60.0000025123357,10|8,0:0|0:0,0:0:0:0:
256,288,169727,6,0,B|208:308|208:308|172:296,2,80.000000298023,6|0|2,0:0|0:0|0:0,0:0:0:0:
256,96,170159,2,0,B|304:76|304:76|340:88,2,80.000000298023,2|0|2,0:0|0:0|0:0,0:0:0:0:
164,188,170592,5,10,0:0:0:0:
52,112,170736,1,0,0:0:0:0:
103,248,170881,2,0,P|100:267|99:287,2,40.0000001490115,10|8|0,0:0|0:0|1:0,0:0:0:0:
116,60,171169,2,0,P|119:40|120:20,2,40.0000001490115,10|8|0,0:0|0:0|1:0,0:0:0:0:
24,260,171457,5,2,0:0:0:0:
164,340,171602,2,0,B|224:332|264:284|264:284|256:332,1,160.000000596046,14|0,0:0|0:0,0:0:0:0:
422,356,172034,2,0,P|384:342|352:320,1,80.000000298023,10|0,0:0|0:0,0:0:0:0:
428,260,172323,5,12,0:0:0:0:
460,172,172467,1,8,0:0:0:0:
376,128,172611,2,0,P|359:91|351:52,1,80.000000298023,8|8,0:0|0:0,0:0:0:0:
208,80,172900,2,8,P|171:96|132:104,1,80.000000298023,8|8,0:0|0:0,0:0:0:0:
36,192,173188,5,6,0:0:0:0:
36,192,173332,2,0,L|172:192,1,120.000005024671,14|0,0:0|0:0,0:0:0:0:
173,310,173765,2,0,P|192:286|216:268,1,60.0000025123357,10|0,0:0|0:0,0:0:0:0:
308,300,174054,2,0,L|356:320,2,30.0000012561679,10|8|0,0:0|0:0|1:0,0:0:0:0:
360,220,174342,2,0,L|401:188,2,30.0000012561679,10|8|0,0:0|0:0|1:0,0:0:0:0:
288,156,174631,2,0,P|258:159|228:156,1,60.0000025123357,10|8,0:0|0:0,0:0:0:0:
140,316,174919,5,6,0:0:0:0:
140,316,175063,2,0,P|123:259|140:202,1,120.000005024671,6|0,0:0|0:0,0:0:0:0:
48,180,175496,2,0,P|68:144|96:120,1,60.0000025123357,10|0,0:0|0:0,0:0:0:0:
213,86,175784,2,0,L|156:68,1,60.0000025123357,10|0,0:0|0:0,0:0:0:0:
248,176,176073,2,0,L|260:234,1,60.0000025123357,10|0,0:0|0:0,0:0:0:0:
308,100,176361,2,0,L|352:59,1,60.0000025123357,10|8,0:0|0:0,0:0:0:0:
436,156,176650,6,0,P|456:200|456:248,2,80.000000298023,6|0|2,0:0|0:0|0:0,0:0:0:0:
294,296,177082,2,8,P|319:265|332:228,2,80.000000298023,2|0|2,0:0|0:0|0:0,0:0:0:0:
164,204,177515,1,10,0:0:0:0:
56,344,177659,1,0,0:0:0:0:
100,140,177804,2,0,L|84:96,2,40.0000001490115,10|8|0,0:0|0:0|1:0,0:0:0:0:
248,176,178092,2,0,L|264:220,2,40.0000001490115,10|8|0,0:0|0:0|1:0,0:0:0:0:
328,44,178381,5,2,0:0:0:0:
328,44,178525,2,0,B|364:64|400:68|444:52|444:52|420:112,1,160.000000596046,14|0,0:0|0:0,0:0:0:0:
356,192,178957,1,10,0:0:0:0:
428,300,179102,1,0,0:0:0:0:
255,328,179246,2,0,P|217:337|181:356,1,80.000000298023,14|8,0:0|0:0,0:0:0:0:
17,235,179534,2,0,P|56:245|92:264,1,80.000000298023,10|8,0:0|0:0,0:0:0:0:
246,131,179823,2,0,P|207:141|172:160,1,80.000000298023,10|8,0:0|0:0,0:0:0:0:
356,192,180111,5,2,0:0:0:0:
356,192,180256,2,0,P|348:116|392:44,1,160.000000596046,14|0,0:0|0:0,0:0:0:0:
472,144,180688,2,0,B|488:200|488:200|481:220,1,80.000000298023,10|0,0:0|0:0,0:0:0:0:
358,356,180977,2,0,B|352:336|352:336|368:280,1,80.000000298023,10|0,0:0|0:0,0:0:0:0:
256,192,181265,6,0,L|256:232,2,40.0000001490115,10|8|0,0:0|0:0|1:0,0:0:0:0:
148,344,181554,2,0,L|148:304,2,40.0000001490115,10|8|0,0:0|0:0|1:0,0:0:0:0:
44,232,181842,2,0,L|44:192,2,40.0000001490115,14|8|0,0:0|0:0|1:0,0:0:0:0:
148,40,182131,2,0,L|148:80,2,40.0000001490115,10|8|0,0:0|0:0|1:0,0:0:0:0:
256,192,182419,6,0,P|294:185|334:190,1,80.000000298023,10|0,0:0|0:0,0:0:0:0:
392,76,182707,2,0,P|425:97|448:129,1,80.000000298023,10|0,0:0|0:0,0:0:0:0:
256,192,182996,2,0,P|218:199|178:194,1,80.000000298023,10|0,0:0|0:0,0:0:0:0:
120,308,183284,2,0,P|87:287|64:255,1,80.000000298023,10|8,0:0|0:0,0:0:0:0:
256,52,183555,5,6,0:0:0:0:
256,192,183692,12,2,187510,0:0:0:0:
220,224,187865,6,0,B|264:228|312:200|312:200|305:222,1,120.000005024671,2|2,0:0|0:0,0:0:0:0:
224,64,188532,5,2,0:0:0:0:
392,156,188872,1,2,0:0:0:0:
200,136,189209,1,2,0:0:0:0:
336,92,189546,2,0,P|392:72|456:96,1,120.000005024671,0|2,0:0|0:0,0:0:0:0:
96,280,190557,5,2,0:0:0:0:
108,292,190894,5,2,0:0:0:0:
184,232,191063,1,2,0:0:0:0:
268,288,191231,6,0,B|296:260|296:260|352:264|352:264|332:228,1,120.000005024671,2|2,0:0|0:0,0:0:0:0:
280,104,192069,5,2,0:0:0:0:
108,192,192595,6,0,L|40:192,1,60.0000002235172,0|2,0:0|0:0,0:0:0:0:
192,312,193515,5,2,0:0:0:0:
424,216,194978,5,2,0:0:0:0:
256,248,197200,5,2,0:0:0:0:
120,208,202147,6,0,B|172:208|172:208|204:192|204:192|256:192,1,140.00000052154,2|0,0:0|0:0,0:0:0:0:
256,192,202785,6,0,L|256:328,2,120.000000447034,2|2|2,0:0|0:0|0:0,0:0:0:0:
328,128,204009,1,0,0:0:0:0:
392,200,204315,1,2,0:0:0:0:
328,128,204621,6,0,P|272:112|216:68,2,120.000000447034,2|2|2,0:0|0:0|0:0,0:0:0:0:
404,68,205846,1,0,0:0:0:0:
480,128,206152,1,2,0:0:0:0:
432,212,206458,6,0,L|432:296,1,80.000000298023,2|0,0:0|0:0,0:0:0:0:
400,328,206917,2,0,L|400:248,1,80.000000298023,2|0,0:0|0:0,0:0:0:0:
351,244,207376,2,0,P|312:252|273:252,1,80.000000298023,2|0,0:0|0:0,0:0:0:0:
212,180,207989,1,2,0:0:0:0:
116,168,208295,6,0,P|87:196|65:229,1,80.000000298023,2|0,0:0|0:0,0:0:0:0:
96,268,208754,2,0,P|106:306|124:342,1,80.000000298023,2|0,0:0|0:0,0:0:0:0:
172,348,209213,2,0,B|224:324|224:324|260:344,1,80.000000298023,2|0,0:0|0:0,0:0:0:0:
340,348,209825,1,2,0:0:0:0:
412,284,210131,6,0,P|423:225|411:167,2,120.000000447034,2|2|2,0:0|0:0|0:0,0:0:0:0:
340,348,211356,1,0,0:0:0:0:
256,300,211662,1,2,0:0:0:0:
172,252,211968,6,0,B|200:212|248:204|248:204|221:194,2,120.000000447034,2|2|2,0:0|0:0|0:0,0:0:0:0:
88,300,213193,2,0,P|48:300|4:288,1,80.000000298023,0|2,0:0|0:0,0:0:0:0:
60,208,213805,5,2,0:0:0:0:
120,132,214111,1,0,0:0:0:0:
208,172,214417,2,0,L|368:172,1,160.000000596046,2|0,0:0|0:0,0:0:0:0:
456,208,215336,1,2,0:0:0:0:
463,111,215642,6,0,P|426:97|394:74,1,80.000000298023,0|2,0:0|0:0,0:0:0:0:
304,48,216254,2,0,P|264:54|228:70,1,80.000000298023,0|2,0:0|0:0,0:0:0:0:
184,156,216866,1,0,0:0:0:0:
236,236,217172,1,2,0:0:0:0:
328,208,217478,6,0,B|420:208|420:208|404:231,2,120.000000447034,2|2|2,0:0|0:0|0:0,0:0:0:0:
268,132,218703,1,0,0:0:0:0:
184,176,219009,1,2,0:0:0:0:
184,176,219315,6,0,B|92:176|92:176|107:152,2,120.000000447034,2|2|2,0:0|0:0|0:0,0:0:0:0:
244,252,220540,1,0,0:0:0:0:
324,304,220846,1,2,0:0:0:0:
420,283,221152,6,0,P|440:249|450:211,1,80.000000298023,2|0,0:0|0:0,0:0:0:0:
476,172,221611,2,0,P|456:137|446:98,1,80.000000298023,2|0,0:0|0:0,0:0:0:0:
460,52,222070,2,0,L|369:37,1,80.000000298023,2|0,0:0|0:0,0:0:0:0:
296,80,222682,1,2,0:0:0:0:
211,123,222989,6,0,P|172:121|132:113,1,80.000000298023,2|0,0:0|0:0,0:0:0:0:
136,160,223448,2,0,P|162:189|184:223,1,80.000000298023,2|0,0:0|0:0,0:0:0:0:
196,268,223907,2,0,L|108:268,1,80.000000298023,2|0,0:0|0:0,0:0:0:0:
48,200,224519,1,2,0:0:0:0:
136,160,224825,6,0,B|168:144|204:152|204:152|204:180|232:204,2,120.000000447034,2|2|2,0:0|0:0|0:0,0:0:0:0:
44,132,226050,1,0,0:0:0:0:
108,60,226356,1,2,0:0:0:0:
204,80,226662,5,2,0:0:0:0:
264,208,227121,1,2,0:0:0:0:
400,160,227580,1,2,0:0:0:0:
312,124,227887,1,0,0:0:0:0:
164,264,228516,5,4,0:0:0:0:
164,264,228660,2,0,B|112:156|112:156|89:164|60:192,1,160.000000596046,8|0,0:0|1:0,0:0:0:0:
68,188,229020,1,0,1:0:0:0:
60,200,229092,2,0,P|48:238|44:277,1,80.000000298023,8|0,0:0|1:0,0:0:0:0:
200,135,229381,2,0,P|206:117|211:97,2,40.0000001490115,8|8|0,0:0|0:0|1:0,0:0:0:0:
164,264,229669,2,0,P|172:282|183:298,2,40.0000001490115,8|8|0,0:0|0:0|1:0,0:0:0:0:
280,216,229958,6,0,P|312:216|356:204,1,60.0000002235172,10|0,0:0|0:0,0:0:0:0:
404,260,230246,6,0,P|420:204|388:144,1,120.000005024671,6|0,1:2|0:0,0:0:0:0:
320,88,230679,1,0,1:0:0:0:
224,84,230823,2,0,L|185:37,1,60.0000025123357,0|0,0:0|1:0,0:0:0:0:
34,158,231112,2,0,B|74:141|118:158|118:158|140:132,1,120.000005024671,8|0,0:0|1:0,0:0:0:0:
76,244,231544,1,0,0:0:0:0:
140,316,231689,2,0,P|169:311|199:315,1,60.0000025123357,8|0,0:0|0:0,0:0:0:0:
378,244,231977,6,0,B|344:220|312:224|312:224|292:248|272:252,1,120.000005024671,6|0,1:2|0:0,0:0:0:0:
448,308,232410,2,0,P|472:252|448:180,1,120.000005024671,0|0,1:0|1:0,0:0:0:0:
379,143,232842,2,0,P|350:139|320:144,1,60.0000025123357,8|0,0:0|0:0,0:0:0:0:
200,72,233131,2,0,P|230:67|260:72,1,60.0000025123357,0|0,1:0|0:0,0:0:0:0:
132,140,233419,2,0,P|102:144|72:140,1,60.0000025123357,8|0,0:0|0:0,0:0:0:0:
144,236,233708,6,0,B|192:320|192:320|216:288,1,120.000005024671,6|0,1:2|0:0,0:0:0:0:
256,220,234141,1,0,1:0:0:0:
348,251,234285,2,0,P|371:270|389:294,1,60.0000025123357,0|0,0:0|1:0,0:0:0:0:
328,160,234573,2,0,P|384:148|448:104,1,120.000005024671,8|0,0:0|1:0,0:0:0:0:
488,196,235006,1,0,0:0:0:0:
368,48,235150,2,0,P|340:64|296:68,1,60.0000025123357,8|0,0:0|0:0,0:0:0:0:
140,116,235439,6,0,B|151:70|173:53|222:22|198:64,1,120.000005024671,6|0,1:2|0:0,0:0:0:0:
172,268,235871,2,0,B|160:313|138:330|89:361|113:319,1,120.000005024671,0|0,1:0|1:0,0:0:0:0:
84,228,236304,2,0,P|66:203|54:176,1,60.0000025123357,8|0,0:0|0:0,0:0:0:0:
256,128,236592,2,0,P|267:100|286:76,1,60.0000025123357,8|0,0:0|0:0,0:0:0:0:
452,200,236881,2,0,P|463:227|468:296,1,90.0000037685036,0|0,1:0|0:0,0:0:0:0:
492,328,237169,6,0,B|424:312|424:312|392:324|368:356,1,120.000005024671,6|0,1:2|0:0,0:0:0:0:
292,304,237602,2,0,B|320:264|364:240|364:240|341:235,1,120.000005024671,0|0,1:0|1:0,0:0:0:0:
196,324,238035,2,0,P|193:294|201:265,1,60.0000025123357,8|0,0:0|0:0,0:0:0:0:
121,214,238323,2,0,P|140:191|166:176,1,60.0000025123357,0|0,1:0|0:0,0:0:0:0:
256,144,238612,1,8,0:0:0:0:
256,144,238900,6,0,B|336:176|336:176|365:158,1,120.000005024671,6|0,1:2|0:0,0:0:0:0:
256,48,239333,2,0,B|176:80|176:80|146:62,1,120.000005024671,0|0,1:0|1:0,0:0:0:0:
149,165,239765,2,0,P|113:138|71:120,1,90.0000037685036,8|0,0:0|0:0,0:0:0:0:
44,80,240054,2,0,L|28:204,1,120.000005024671,0|8,1:0|0:0,0:0:0:0:
92,272,240487,1,0,0:0:0:0:
256,144,240631,6,0,P|284:124|332:112,1,60.0000025123357,6|8,1:2|0:0,0:0:0:0:
352,251,240919,2,0,P|347:281|335:309,1,60.0000025123357,2|0,0:0|1:0,0:0:0:0:
256,164,241208,1,2,0:0:0:0:
324,324,241352,1,0,1:0:0:0:
184,88,241496,2,0,L|208:16,1,60.0000025123357,10|0,0:0|0:0,0:0:0:0:
45,164,241785,2,0,L|64:108,1,60.0000025123357,2|0,1:2|1:0,0:0:0:0:
256,184,242073,1,10,0:0:0:0:
116,228,242217,1,0,0:0:0:0:
376,59,242362,6,0,P|406:59|435:69,1,60.0000025123357,12|0,0:0|1:0,0:0:0:0:
135,324,242794,2,0,P|105:324|76:314,1,60.0000025123357,12|0,0:0|1:0,0:0:0:0:
97,171,243227,6,0,L|116:228,1,60.0000025123357,8|0,0:0|0:0,0:0:0:0:
188,140,243515,2,0,L|169:83,1,60.0000025123357,8|0,0:0|0:0,0:0:0:0:
212,232,243804,2,0,P|252:244|316:240,1,90.0000037685036,8|0,0:0|0:0,0:0:0:0:
316,288,244092,6,0,P|360:240|384:176,1,120.000005024671,6|0,1:2|0:0,0:0:0:0:
344,100,244525,1,0,1:0:0:0:
256,64,244669,2,0,P|224:60|188:68,1,60.0000025123357,0|0,0:0|1:0,0:0:0:0:
116,228,244958,2,0,L|94:284,1,60.0000025123357,8|0,0:0|0:0,0:0:0:0:
40,172,245246,2,0,L|61:115,1,60.0000025123357,0|0,1:0|0:0,0:0:0:0:
233,175,245535,2,0,L|212:232,1,60.0000025123357,8|0,0:0|0:0,0:0:0:0:
328,156,245823,6,0,P|354:103|335:27,1,120.000005024671,6|0,1:2|0:0,0:0:0:0:
256,88,246256,1,0,1:0:0:0:
160,104,246400,2,0,P|128:84|108:64,1,60.0000025123357,0|0,0:0|1:0,0:0:0:0:
232,232,246689,2,0,L|290:245,1,60.0000025123357,8|0,0:0|0:0,0:0:0:0:
386,142,246977,2,0,L|328:156,1,60.0000025123357,0|0,1:0|0:0,0:0:0:0:
135,253,247265,2,0,L|168:304,1,60.0000025123357,8|0,0:0|0:0,0:0:0:0:
40,244,247554,6,0,P|64:188|136:156,1,120.000005024671,6|0,1:2|0:0,0:0:0:0:
208,176,247987,1,0,1:0:0:0:
296,136,248131,2,0,B|316:96|316:96|312:64,1,60.0000025123357,0|0,0:0|1:0,0:0:0:0:
379,267,248419,2,0,P|387:296|386:326,1,60.0000025123357,8|0,0:0|0:0,0:0:0:0:
256,356,248708,2,0,L|256:288,1,60.0000025123357,0|0,1:0|0:0,0:0:0:0:
132,267,248996,2,0,P|124:296|125:326,1,60.0000025123357,8|0,0:0|0:0,0:0:0:0:
64,200,249285,6,0,P|88:144|76:64,1,120.000005024671,6|0,1:2|0:0,0:0:0:0:
4,32,249717,1,0,1:0:0:0:
179,96,249862,2,0,P|177:66|166:38,1,60.0000025123357,0|0,0:0|1:0,0:0:0:0:
154,212,250150,2,0,L|132:268,1,60.0000025123357,8|0,0:0|0:0,0:0:0:0:
256,296,250439,2,0,L|256:356,1,60.0000025123357,8|0,0:0|0:0,0:0:0:0:
357,212,250727,2,0,L|380:268,1,60.0000025123357,0|0,1:0|0:0,0:0:0:0:
408,132,251015,6,0,B|364:136|328:116|328:116|300:144,1,120.000005024671,6|0,1:2|0:0,0:0:0:0:
104,132,251448,2,0,B|148:136|184:116|184:116|210:142,1,120.000005024671,0|0,1:0|1:0,0:0:0:0:
63,219,251881,2,0,P|39:203|20:180,1,60.0000025123357,8|0,0:0|0:0,0:0:0:0:
108,304,252169,2,0,P|137:298|167:301,1,60.0000025123357,0|0,1:0|0:0,0:0:0:0:
295,295,252458,2,0,P|279:320|256:340,1,60.0000025123357,8|0,0:0|0:0,0:0:0:0:
136,192,252746,6,0,P|120:134|136:78,1,120.000005024671,6|0,1:2|0:0,0:0:0:0:
375,78,253179,2,0,P|391:134|376:191,1,120.000005024671,2|0,1:2|1:0,0:0:0:0:
136,192,253612,2,0,P|115:170|89:155,1,60.0000025123357,10|0,0:0|0:0,0:0:0:0:
183,276,253900,2,0,P|183:305|191:334,1,60.0000025123357,2|0,1:2|0:0,0:0:0:0:
232,192,254189,2,0,P|253:171|268:145,1,60.0000025123357,10|0,0:0|0:0,0:0:0:0:
356,188,254477,6,0,B|420:268|420:268|448:240,1,120.000005024671,6|0,1:2|0:0,0:0:0:0:
496,184,254910,1,0,1:0:0:0:
448,100,255054,2,0,P|443:70|449:41,1,60.0000025123357,0|0,0:0|1:0,0:0:0:0:
356,188,255342,2,0,P|337:211|313:228,1,60.0000025123357,8|0,0:0|0:0,0:0:0:0:
195,176,255631,2,0,P|166:172|139:159,1,60.0000025123357,0|0,1:0|0:0,0:0:0:0:
256,64,255919,2,0,P|279:45|307:36,1,60.0000025123357,8|0,0:0|0:0,0:0:0:0:
60,228,256208,6,0,L|12:104,1,120.000005024671,6|0,1:2|0:0,0:0:0:0:
88,52,256640,1,0,1:0:0:0:
176,96,256785,2,0,P|208:96|240:84,1,60.0000025123357,0|0,0:0|1:0,0:0:0:0:
432,96,257073,2,0,L|408:160,1,60.0000025123357,8|0,0:0|0:0,0:0:0:0:
258,272,257362,2,0,L|280:216,1,60.0000025123357,0|0,1:0|0:0,0:0:0:0:
176,96,257650,2,0,L|154:152,1,60.0000025123357,8|0,0:0|0:0,0:0:0:0:
256,296,257939,6,0,B|296:304|344:280|344:280|360:303,1,120.000005024671,6|0,1:2|0:0,0:0:0:0:
432,116,258371,2,0,B|392:107|344:132|344:132|327:108,1,120.000005024671,0|0,1:0|1:0,0:0:0:0:
172,76,258804,2,0,P|142:75|113:84,1,60.0000025123357,8|0,0:0|0:0,0:0:0:0:
92,176,259092,2,0,P|70:196|56:223,1,60.0000025123357,0|0,1:0|0:0,0:0:0:0:
112,304,259381,2,0,P|111:333|120:362,1,60.0000025123357,8|0,0:0|0:0,0:0:0:0:
391,362,259669,6,0,P|400:333|400:304,1,60.0000025123357,6|8,1:2|0:0,0:0:0:0:
455,223,259958,2,0,P|441:196|420:176,1,60.0000025123357,0|0,0:0|1:0,0:0:0:0:
398,84,260246,2,0,P|369:75|339:76,1,60.0000025123357,0|0,0:0|1:0,0:0:0:0:
216,152,260535,2,0,L|172:172,2,30.0000012561679,8|8|0,0:0|0:0|1:0,0:0:0:0:
296,232,260823,2,0,L|340:212,2,30.0000012561679,8|8|0,0:0|0:0|1:0,0:0:0:0:
268,342,261112,2,0,L|240:354,2,30.0000012561679,8|8|0,0:0|0:0|1:0,0:0:0:0:
152,280,261400,6,0,P|92:272|32:240,1,120.000005024671,6|0,1:2|0:0,0:0:0:0:
36,148,261833,1,0,1:0:0:0:
123,108,261977,2,0,P|139:82|146:53,1,60.0000025123357,8|0,0:0|1:0,0:0:0:0:
207,155,262265,2,0,P|222:159|237:160,2,30.0000012561679,8|8|0,0:0|0:0|1:0,0:0:0:0:
320,211,262554,2,0,P|332:204|343:194,2,30.0000012561679,8|8|0,0:0|0:0|1:0,0:0:0:0:
436,172,262842,2,0,P|439:157|440:142,2,30.0000012561679,8|8|0,0:0|0:0|1:0,0:0:0:0:
392,60,263131,6,0,B|360:40|328:44|328:44|308:72|287:76,1,120.000005024671,6|0,1:2|0:0,0:0:0:0:
192,64,263564,1,0,1:0:0:0:
112,116,263708,2,0,L|72:192,1,60.0000025123357,8|8,0:0|0:0,0:0:0:0:
173,289,263996,2,0,L|156:232,1,60.0000025123357,8|0,0:0|1:0,0:0:0:0:
256,240,264213,1,0,1:0:0:0:
256,240,264285,2,0,L|283:186,1,60.0000025123357,8|0,0:0|1:0,0:0:0:0:
348,264,264501,1,0,1:0:0:0:
348,264,264573,2,0,L|373:346,1,60.0000025123357,8|0,0:0|0:0,0:0:0:0:
456,192,264862,5,6,1:2:0:0:
456,192,265006,2,0,B|400:144|400:144|392:108,1,90.0000037685036,8|0,0:0|0:0,0:0:0:0:
432,96,265294,2,0,P|384:96|312:132,1,120.000005024671,0|0,1:0|1:0,0:0:0:0:
240,72,265727,2,0,P|208:60|172:32,1,60.0000025123357,8|0,0:0|0:0,0:0:0:0:
62,138,266015,2,0,P|90:128|116:111,1,60.0000025123357,0|0,1:0|0:0,0:0:0:0:
339,69,266304,2,0,P|332:98|319:125,1,60.0000025123357,8|0,0:0|0:0,0:0:0:0:
264,256,266592,5,6,1:2:0:0:
264,256,266737,2,0,P|308:220|364:200,1,90.0000037685036,8|0,0:0|0:0,0:0:0:0:
376,232,267025,2,0,L|315:117,1,120.000005024671,0|0,1:0|1:0,0:0:0:0:
204,184,267458,2,0,P|183:206|170:232,1,60.0000025123357,8|0,0:0|0:0,0:0:0:0:
432,308,267746,2,0,P|452:285|465:259,1,60.0000025123357,8|0,0:0|0:0,0:0:0:0:
264,256,268035,2,0,P|265:285|274:314,1,60.0000025123357,8|0,0:0|0:0,0:0:0:0:
376,232,268323,6,0,B|408:148|408:148|392:116,1,120.000005024671,6|0,1:2|0:0,0:0:0:0:
316,68,268756,1,0,1:0:0:0:
256,144,268900,2,0,L|256:192,2,30.0000012561679,8|8|0,0:0|0:0|1:0,0:0:0:0:
196,68,269189,2,0,L|196:38,2,30.0000012561679,8|8|0,0:0|0:0|1:0,0:0:0:0:
360,232,269477,1,0,1:0:0:0:
240,144,269621,1,0,0:0:0:0:
332,68,269765,2,0,P|368:72|416:64,1,60.0000025123357,8|0,0:0|0:0,0:0:0:0:
344,232,270054,6,0,L|248:320,1,120.000005024671,6|0,1:2|0:0,0:0:0:0:
79,313,270487,2,0,L|168:232,1,120.000005024671,0|0,1:0|1:0,0:0:0:0:
132,103,270919,2,0,L|88:144,1,60.0000025123357,8|0,0:0|1:0,0:0:0:0:
240,144,271208,1,8,0:0:0:0:
394,140,271352,1,8,0:0:0:0:
268,50,271496,1,8,0:0:0:0:
318,197,271640,1,8,0:0:0:0:
363,49,271785,6,0,L|400:24,2,30.0000012561679,6|0|0,1:2|0:0|1:0,0:0:0:0:
394,140,272073,2,0,L|431:115,2,30.0000012561679,2|0|8,1:2|1:0|0:0,0:0:0:0:
424,232,272362,2,0,L|461:207,2,30.0000012561679,2|0|8,1:2|1:0|0:0,0:0:0:0:
280,276,272650,6,0,P|266:261|256:244,2,30.0000012561679,6|0|0,1:2|0:0|1:0,0:0:0:0:
171,170,272939,2,0,P|191:166|210:166,2,30.0000012561679,2|0|8,1:2|1:0|0:0,0:0:0:0:
316,129,273227,2,0,P|310:148|301:166,2,30.0000012561679,10|8|0,0:0|0:0|1:0,0:0:0:0:
149,335,273515,6,0,L|112:360,2,30.0000012561679,6|0|0,1:2|0:0|1:0,0:0:0:0:
118,244,273804,2,0,L|81:269,2,30.0000012561679,10|0|0,0:0|0:0|0:0,0:0:0:0:
88,152,274092,2,0,L|51:177,2,30.0000012561679,10|0|0,0:0|0:0|0:0,0:0:0:0:
256,72,274381,6,0,B|276:68|276:68|300:72,3,30.0000012561679,14|0|0|0,0:0|0:0|1:0|1:0,0:0:0:0:
359,132,274669,2,0,B|373:147|373:147|381:170,3,30.0000012561679,10|8|0|0,0:0|0:0|1:0|1:0,0:0:0:0:
359,251,274958,1,14,0:0:0:0:
359,251,275246,6,0,B|332:284|280:300,2,80.000000298023,6|0|0,1:2|0:0|0:0,0:0:0:0:
256,176,275679,2,0,B|213:178|165:153,2,80.000000298023,0|8|0,1:2|0:0|0:0,0:0:0:0:
336,76,276112,2,0,B|392:64|392:64|420:84,1,80.000000298023,0|0,1:2|0:0,0:0:0:0:
468,192,276400,1,8,0:0:0:0:
352,344,276544,1,0,1:0:0:0:
256,176,276689,1,8,0:0:0:0:
468,172,276833,1,0,1:0:0:0:
352,324,276977,5,2,0:0:0:0:
352,324,277121,2,0,B|248:344|200:264|296:296,1,160.000000596046,12|0,1:2|1:0,0:0:0:0:
360,192,277554,2,0,P|398:183|438:189,1,80.000000298023,8|0,0:0|0:0,0:0:0:0:
264,108,277842,2,0,L|236:68,2,40.0000001490115,8|8|0,0:0|0:0|1:0,0:0:0:0:
360,216,278131,2,0,L|339:260,2,40.0000001490115,8|8|0,0:0|0:0|1:0,0:0:0:0:
406,80,278419,2,0,L|445:76,2,40.0000001490115,8|8|0,0:0|0:0|1:0,0:0:0:0:
264,128,278708,5,6,0:0:0:0:
264,128,278852,2,0,P|192:148|100:128,1,160.000000596046,14|0,0:0|0:0,0:0:0:0:
196,36,279285,2,0,P|232:20|296:16,1,80.000000298023,14|0,0:0|0:0,0:0:0:0:
384,132,279573,2,0,L|384:180,3,40.0000001490115,10|8|0|0,0:0|0:0|1:0|1:0,0:0:0:0:
312,228,279862,2,0,L|312:276,3,40.0000001490115,10|8|0|0,0:0|0:0|1:0|1:0,0:0:0:0:
232,308,280150,2,0,P|192:312|144:304,1,80.000000298023,10|8,0:0|0:0,0:0:0:0:
48,232,280439,5,6,0:0:0:0:
48,232,280583,2,0,B|80:108|80:108|120:148,1,160.000000596046,14|0,0:0|0:0,0:0:0:0:
151,313,281015,2,0,L|172:236,1,80.000000298023,14|0,0:0|0:0,0:0:0:0:
272,156,281304,2,0,P|289:147|309:143,3,40.0000001490115,10|8|0|0,0:0|0:0|1:0|1:0,0:0:0:0:
384,233,281592,2,0,P|400:243|414:258,3,40.0000001490115,10|8|0|0,0:0|0:0|1:0|1:0,0:0:0:0:
300,317,281881,2,0,P|280:321|262:330,3,40.0000001490115,10|8|0|0,0:0|0:0|1:0|1:0,0:0:0:0:
172,236,282169,5,6,1:2:0:0:
256,192,282314,12,2,289092,0:0:0:0:
