osu file format v12

[General]
AudioFilename: hitorinbo envy.mp3
AudioLeadIn: 0
PreviewTime: 50837
Countdown: 0
SampleSet: Soft
StackLeniency: 0.8
Mode: 0
LetterboxInBreaks: 1
WidescreenStoryboard: 1

[Editor]
Bookmarks: 610,15155,22428,50837,51519,67882,75155,89700,106064,113337,120610,135155,151519,166064,169700,186064
DistanceSpacing: 0.8
BeatDivisor: 2
GridSize: 4
TimelineZoom: 1

[Metadata]
Title:Hitorinbo Envy
TitleUnicode:独りんぼエンヴィー
Artist:Hanatan
ArtistUnicode:花たん
Creator:blackabyss
Version:Normal
Source:
Tags:YURiCA solitary hide and seek Denporu-P utaite not94 Koyori FLOWER Vocaloid
BeatmapID:411852
BeatmapSetID:170080

[Difficulty]
HPDrainRate:3
CircleSize:3
OverallDifficulty:3
ApproachRate:4
SliderMultiplier:1
SliderTickRate:1

[Events]
//Background and Video events
0,0,"37108891_p0e.jpg",0,0
//Break Periods
2,15354,21108
2,68536,73835
2,106718,112017
2,151719,157471
//Storyboard Layer 0 (Background)
//Storyboard Layer 1 (Fail)
//Storyboard Layer 2 (Pass)
//Storyboard Layer 3 (Foreground)
//Storyboard Sound Samples
//Background Colour Transformations
3,100,163,162,255

[TimingPoints]
610,454.545454545455,4,2,0,60,1,0
22428,-100,4,1,0,55,0,0
51519,-100,4,1,0,70,0,1
67882,-100,4,2,0,60,0,0
75155,-100,4,2,0,40,0,0
83791,-100,4,2,0,60,0,0
89700,-100,4,1,0,70,0,1
106064,-100,4,2,0,60,0,0
113337,-100,4,2,0,40,0,0
167428,-100,4,2,0,68,0,0
173337,-100,4,1,0,70,0,1
186064,-100,4,1,0,60,0,0

[Colours]
Combo1 : 255,255,255
Combo2 : 0,204,184
Combo3 : 32,133,255

[HitObjects]
467,319,610,5,4,0:0:0:0:
387,327,1064,2,0,P|396:279|450:243,1,100,8|0,0:0|0:0,0:0:0:0:
434,167,1973,1,8,0:0:0:0:
405,138,2200,1,0,0:0:0:0:
379,107,2428,2,0,P|343:66|355:16,2,100,0|8|0,0:0|0:0|0:0,0:0:0:0:
434,167,3791,1,8,0:0:0:0:
378,223,4246,6,0,P|334:263|296:260,1,100,0|8,0:0|0:0,0:0:0:0:
261,241,4928,1,0,0:0:0:0:
224,223,5155,1,0,0:0:0:0:
240,148,5610,2,0,P|183:151|147:203,1,100,8|0,0:0|0:0,0:0:0:0:
221,223,6519,2,0,P|178:259|116:247,1,100,8|0,0:0|0:0,0:0:0:0:
62,228,7428,1,8,0:0:0:0:
40,150,7882,6,0,P|59:108|118:76,1,100,4|8,0:0|0:0,0:0:0:0:
122,157,8791,1,0,0:0:0:0:
130,236,9246,2,0,P|172:217|204:158,2,100,8|0|8,0:0|0:0|0:0,0:0:0:0:
86,303,10610,1,0,0:0:0:0:
152,348,11064,5,8,0:0:0:0:
231,358,11519,2,0,B|270:313|322:334|322:334|337:280|389:264,1,200,2|0,0:0|0:0,0:0:0:0:
460,294,12882,2,0,P|466:242|441:203,1,100,8|0,0:0|0:0,0:0:0:0:
370,167,13791,1,8,0:0:0:0:
435,120,14246,1,0,0:0:0:0:
362,86,14700,2,0,B|342:86|339:75|339:75|325:92|325:92|311:75|311:75|307:88|288:88,1,100,8|4,0:0|0:0,0:0:0:0:
439,179,22428,5,0,0:0:0:0:
433,99,22882,2,0,P|384:117|359:166,1,100,8|0,0:0|0:0,0:0:0:0:
353,236,23791,2,0,P|304:218|279:169,1,100,8|0,0:0|0:0,0:0:0:0:
291,99,24700,1,8,0:0:0:0:
250,30,25155,1,0,0:0:0:0:
91,26,26064,5,4,0:0:0:0:
40,88,26519,2,0,B|54:145|7:177|7:177|43:219|26:271,1,200,8|8,0:0|0:0,0:0:0:0:
50,301,27655,1,0,0:0:0:0:
81,326,27882,1,4,0:0:0:0:
116,345,28110,2,0,P|163:333|204:289,1,100
217,262,28791,1,4,0:0:0:0:
173,195,29246,1,8,0:0:0:0:
125,130,29700,6,0,P|129:81|164:48,1,100,0|8,0:0|0:0,0:0:0:0:
244,37,30610,2,0,P|239:84|204:117,1,100,0|8,0:0|0:0,0:0:0:0:
173,195,31519,1,0,0:0:0:0:
227,253,31973,1,8,0:0:0:0:
295,294,32428,1,0,0:0:0:0:
367,260,32882,1,8,0:0:0:0:
420,200,33337,6,0,L|472:100,1,100,0|8,0:0|0:0,0:0:0:0:
396,71,34246,2,0,L|349:159,1,100,0|8,0:0|0:0,0:0:0:0:
274,132,35155,2,0,L|320:43,2,100,0|8|0,0:0|0:0|0:0,0:0:0:0:
156,28,36973,5,4,0:0:0:0:
92,76,37428,1,8,0:0:0:0:
116,152,37882,1,0,0:0:0:0:
196,152,38337,1,8,0:0:0:0:
220,76,38791,2,0,P|263:110|275:160,1,100,0|8,0:0|0:0,0:0:0:0:
196,152,39700,2,0,P|212:200|260:228,1,100,0|8,0:0|0:0,0:0:0:0:
368,256,40837,5,0,0:0:0:0:
404,236,41064,2,0,P|444:200|456:152,1,100,8|0,0:0|0:0,0:0:0:0:
424,84,41973,1,8,0:0:0:0:
392,60,42200,1,0,0:0:0:0:
352,56,42428,2,0,P|308:88|306:147,1,100,0|8,0:0|0:0,0:0:0:0:
302,210,43337,1,0,0:0:0:0:
232,172,43791,1,8,0:0:0:0:
113,151,44473,5,0,0:0:0:0:
95,187,44700,2,0,P|81:235|97:281,1,100,8|0,0:0|0:0,0:0:0:0:
163,235,45610,2,8,P|177:283|156:333,2,100,8|0|8,0:0|0:0|0:0,0:0:0:0:
223,182,46973,1,0,0:0:0:0:
268,116,47428,5,8,0:0:0:0:
307,185,47882,2,0,P|333:238|318:288,1,100,4|8,0:0|0:0,0:0:0:0:
271,335,48791,2,0,P|221:349|174:333,1,100,4|8,0:0|0:0,0:0:0:0:
149,305,49473,1,0,0:0:0:0:
137,267,49700,2,0,P|136:207|163:151,1,100,4|8,0:0|0:0,0:0:0:0:
226,195,50610,1,0,0:0:0:0:
210,116,51064,1,4,0:0:0:0:
147,65,51519,6,0,P|190:37|241:43,1,100,0|8,0:0|0:0,0:0:0:0:
300,92,52428,2,0,P|264:118|211:116,1,100,0|8,0:0|0:0,0:0:0:0:
141,157,53337,1,0,0:0:0:0:
205,204,53791,1,8,0:0:0:0:
271,248,54246,2,0,B|290:248|294:235|294:235|308:252|308:252|322:235|322:235|325:246|345:246,1,100,0|8,0:0|0:0,0:0:0:0:
413,287,55155,6,0,P|436:243|412:192,1,100,4|8,0:0|0:0,0:0:0:0:
456,128,56064,2,0,P|416:104|370:130,1,100,0|8,0:0|0:0,0:0:0:0:
356,164,56746,2,0,P|316:232|237:255,1,150,0|8,0:0|0:0,0:0:0:0:
212,188,57882,1,0,0:0:0:0:
164,252,58337,1,8,0:0:0:0:
131,177,58791,6,0,L|46:109,2,100,4|8|0,0:0|0:0|0:0,0:0:0:0:
170,107,60155,2,0,P|206:138|216:188,1,100,8|0,0:0|0:0,0:0:0:0:
212,227,60837,1,0,0:0:0:0:
197,264,61064,1,8,0:0:0:0:
146,326,61519,1,0,0:0:0:0:
66,327,61973,6,0,P|77:279|140:250,1,100,8|4,0:0|0:0,0:0:0:0:
120,172,62882,2,0,P|74:154|52:110,1,100,8|4,0:0|0:0,0:0:0:0:
256,192,63791,12,0,65837,0:0:0:0:
331,140,66291,5,0,0:0:0:0:
331,140,66519,1,0,0:0:0:0:
376,74,66973,1,0,0:0:0:0:
414,144,67428,1,0,0:0:0:0:
370,210,67882,2,0,P|342:281|302:291,1,100,4|0,0:0|0:0,0:0:0:0:
415,295,75155,5,0,0:0:0:0:
459,228,75610,1,8,0:0:0:0:
436,151,76064,2,0,P|393:176|382:230,1,100,0|8,0:0|0:0,0:0:0:0:
333,286,76973,5,0,0:0:0:0:
300,214,77428,1,8,0:0:0:0:
251,277,77882,1,0,0:0:0:0:
187,326,78337,6,0,P|132:313|96:276,1,100,8|0,0:0|0:0,0:0:0:0:
87,246,79019,1,0,0:0:0:0:
85,206,79246,2,0,P|134:123|244:111,1,200,8|8,0:0|0:0,0:0:0:0:
307,125,80610,5,0,0:0:0:0:
383,148,81064,1,8,0:0:0:0:
325,204,81519,2,0,B|280:220|276:284|276:284|215:255|171:308,1,200,0|0,0:0|0:0,0:0:0:0:
115,340,82882,5,8,0:0:0:0:
46,298,83337,1,0,0:0:0:0:
52,218,83791,1,8,0:0:0:0:
63,179,84019,6,0,P|88:131|141:110,1,100,4|0,0:0|0:0,0:0:0:0:
165,100,84700,2,0,P|215:81|269:100,1,100,8|4,0:0|0:0,0:0:0:0:
258,92,85610,1,8,0:0:0:0:
329,127,86064,6,0,P|375:149|393:215,1,100,4|8,0:0|0:0,0:0:0:0:
316,208,86973,2,0,P|339:251|405:271,1,100,4|8,0:0|0:0,0:0:0:0:
424,272,87655,2,0,P|466:245|481:178,1,100,4|0,0:0|0:0,0:0:0:0:
483,200,88337,1,8,0:0:0:0:
415,158,88791,1,4,0:0:0:0:
363,96,89246,1,8,0:0:0:0:
332,169,89700,6,0,P|307:221|254:245,1,100,4|8,0:0|0:0,0:0:0:0:
234,254,90382,2,0,P|178:269|146:318,1,100,0|0,0:0|0:0,0:0:0:0:
101,361,91291,6,0,P|56:338|48:274,1,100,4|0,0:0|0:0,0:0:0:0:
51,254,91973,1,8,0:0:0:0:
87,183,92428,2,0,P|120:146|168:136,1,100,0|8,0:0|0:0,0:0:0:0:
243,109,93337,5,4,0:0:0:0:
223,186,93791,1,8,0:0:0:0:
251,213,94019,2,0,P|314:234|391:207,1,150,0|8,0:0|0:0,0:0:0:0:
444,148,95155,5,4,0:0:0:0:
470,72,95609,1,8,0:0:0:0:
391,84,96064,1,0,0:0:0:0:
232,62,96973,6,0,P|165:69|97:116,1,150,4|0,0:0|0:0,0:0:0:0:
48,178,98110,1,0,0:0:0:0:
99,238,98564,2,0,P|159:281|232:290,1,150,4|8,0:0|0:0,0:0:0:0:
309,266,99700,1,0,0:0:0:0:
379,227,100155,5,8,0:0:0:0:
310,185,100610,1,4,0:0:0:0:
379,144,101064,2,0,P|342:109|292:106,2,100,8|0|8,0:0|0:0|0:0,0:0:0:0:
256,192,102200,12,4,104018,0:0:0:0:
109,163,104473,5,0,0:0:0:0:
109,163,104700,2,0,P|153:139|208:133,1,100,0|4,0:0|0:0,0:0:0:0:
279,151,105610,1,0,0:0:0:0:
316,221,106064,2,0,P|309:270|285:313,1,100,4|0,0:0|0:0,0:0:0:0:
108,91,113337,6,0,P|153:71|203:96,1,100,2|8,0:0|0:0,0:0:0:0:
156,160,114246,2,0,P|203:178|251:150,1,100,2|8,0:0|0:0,0:0:0:0:
300,100,115155,1,2,0:0:0:0:
328,176,115610,1,8,0:0:0:0:
384,116,116064,1,8,0:0:0:0:
475,253,116973,6,0,L|388:329,1,100,2|8,0:0|0:0,0:0:0:0:
340,265,117882,2,0,L|264:330,1,100,2|8,0:0|0:0,0:0:0:0:
197,287,118791,2,8,L|121:352,2,100,2|8|2,0:0|0:0|0:0,0:0:0:0:
148,222,120155,1,8,0:0:0:0:
148,222,120610,5,4,0:0:0:0:
96,160,121064,1,8,0:0:0:0:
160,116,121519,1,0,0:0:0:0:
212,176,121973,1,8,0:0:0:0:
148,223,122428,2,0,P|137:272|155:340,2,100,0|8|0,0:0|0:0|0:0,0:0:0:0:
201,72,124246,5,4,0:0:0:0:
278,53,124700,2,0,P|328:67|372:102,1,100,8|0,0:0|0:0,0:0:0:0:
405,165,125610,1,8,0:0:0:0:
367,235,126064,2,0,P|326:264|278:277,1,100,0|8,0:0|0:0,0:0:0:0:
211,233,126973,1,0,0:0:0:0:
211,233,127428,1,8,0:0:0:0:
144,187,127882,5,4,0:0:0:0:
159,108,128337,1,8,0:0:0:0:
238,104,128791,1,0,0:0:0:0:
268,177,129246,1,8,0:0:0:0:
211,233,129700,2,0,P|218:286|197:325,2,100,0|8|0,0:0|0:0|0:0,0:0:0:0:
156,82,131519,6,0,P|188:42|234:30,1,100,4|8,0:0|0:0,0:0:0:0:
229,110,132428,2,0,P|277:109|321:151,2,100,4|8|4,0:0|0:0|0:0,0:0:0:0:
252,186,133791,1,8,0:0:0:0:
324,224,134246,1,4,0:0:0:0:
260,272,134700,1,8,0:0:0:0:
192,312,135155,6,0,L|80:312,1,100,2|8,0:0|0:0,0:0:0:0:
92,232,136064,2,0,L|192:232,1,100,2|8,0:0|0:0,0:0:0:0:
260,272,136973,1,2,0:0:0:0:
328,228,137428,1,8,0:0:0:0:
392,276,137882,1,2,0:0:0:0:
352,120,138791,5,2,0:0:0:0:
284,80,139246,2,0,L|174:80,1,100,8|2,0:0|0:0,0:0:0:0:
116,120,140155,1,8,0:0:0:0:
184,164,140610,2,0,L|284:164,2,100,2|8|2,0:0|0:0|0:0,0:0:0:0:
158,305,142428,5,2,0:0:0:0:
84,335,142882,1,8,0:0:0:0:
30,277,143337,1,2,0:0:0:0:
70,200,143791,1,8,0:0:0:0:
70,200,144246,2,2,P|75:144|112:108,2,100,2|8|2,0:0|0:0|0:0,0:0:0:0:
223,244,146064,5,0,0:0:0:0:
289,199,146519,1,8,0:0:0:0:
217,164,146973,1,0,0:0:0:0:
282,117,147428,1,8,0:0:0:0:
282,117,147655,1,8,0:0:0:0:
256,192,147882,12,0,150610,0:0:0:0:
374,221,151519,1,4,0:0:0:0:
171,210,158791,5,4,0:0:0:0:
195,133,159246,1,0,0:0:0:0:
274,134,159700,1,4,0:0:0:0:
294,211,160155,1,0,0:0:0:0:
232,262,160610,1,4,0:0:0:0:
294,311,161064,1,0,0:0:0:0:
357,262,161519,1,4,0:0:0:0:
256,192,161973,12,0,165155,0:0:0:0:
443,176,165610,5,8,0:0:0:0:
492,113,166064,2,0,P|443:97|393:112,1,100,4|8,0:0|0:0,0:0:0:0:
373,141,166746,2,0,P|310:193|224:168,1,150,4|8,0:0|0:0,0:0:0:0:
211,164,167655,1,0,0:0:0:0:
177,142,167882,1,4,0:0:0:0:
112,94,168337,5,8,0:0:0:0:
102,173,168791,1,4,0:0:0:0:
108,332,169700,5,4,0:0:0:0:
148,332,169928,1,0,0:0:0:0:
187,332,170155,2,0,P|248:324|299:292,1,100,8|4,0:0|0:0,0:0:0:0:
318,290,170837,1,0,0:0:0:0:
397,280,171291,6,0,P|375:231|323:213,1,100,4|0,0:0|0:0,0:0:0:0:
294,213,171973,1,8,0:0:0:0:
214,216,172428,1,4,0:0:0:0:
248,143,172882,1,8,0:0:0:0:
167,142,173337,6,0,P|127:178|78:176,1,100,4|8,0:0|0:0,0:0:0:0:
96,98,174246,1,4,0:0:0:0:
48,32,174700,2,0,P|9:67|21:120,1,100,8|4,0:0|0:0,0:0:0:0:
56,180,175610,1,8,0:0:0:0:
84,212,175837,1,0,0:0:0:0:
108,244,176064,1,4,0:0:0:0:
112,324,176519,6,0,P|160:304|188:260,1,100,8|4,0:0|0:0,0:0:0:0:
200,188,177428,1,8,0:0:0:0:
204,148,177655,1,0,0:0:0:0:
224,112,177882,2,0,P|255:63|307:42,1,100,4|8,0:0|0:0,0:0:0:0:
332,36,178564,2,0,P|508:108|299:189,1,500,4|4,0:0|0:0,0:0:0:0:
292,204,181064,5,8,0:0:0:0:
256,184,181291,1,0,0:0:0:0:
220,164,181519,2,0,P|177:139|125:138,1,100,4|8,0:0|0:0,0:0:0:0:
256,192,182428,12,4,186064,0:0:0:0:
