osu file format v12

[General]
AudioFilename: hitorinbo envy.mp3
AudioLeadIn: 0
PreviewTime: 50837
Countdown: 0
SampleSet: Soft
StackLeniency: 0.8
Mode: 0
LetterboxInBreaks: 1
WidescreenStoryboard: 0

[Editor]
Bookmarks: 610,15155,22428,50837,51519,67882,75155,89700,106064,113337,120610,135155,151519,166064,169700,186064
DistanceSpacing: 1.1
BeatDivisor: 4
GridSize: 8
TimelineZoom: 1

[Metadata]
Title:Hitorinbo Envy
TitleUnicode:独りんぼエンヴィー
Artist:Hanatan
ArtistUnicode:花たん
Creator:blackabyss
Version:Hard
Source:
Tags:YURiCA solitary hide and seek Denporu-P utaite not94 Koyori FLOWER Vocaloid
BeatmapID:411851
BeatmapSetID:170080

[Difficulty]
HPDrainRate:7
CircleSize:4
OverallDifficulty:6
ApproachRate:7
SliderMultiplier:1.6
SliderTickRate:2

[Events]
//Background and Video events
0,0,"37108891_p0e.jpg",0,0
//Break Periods
2,15354,21528
2,68536,74255
2,106718,112437
2,151719,157891
//Storyboard Layer 0 (Background)
//Storyboard Layer 1 (Fail)
//Storyboard Layer 2 (Pass)
//Storyboard Layer 3 (Foreground)
//Storyboard Sound Samples
//Background Colour Transformations
3,100,163,162,255

[TimingPoints]
610,454.545454545455,4,2,0,60,1,0
22428,-100,4,2,0,55,0,0
51519,-100,4,1,0,70,0,1
67882,-100,4,2,0,60,0,0
89700,-100,4,1,0,70,0,1
106064,-100,4,2,0,60,0,0
173337,-100,4,1,0,70,0,1
186064,-100,4,1,0,60,0,0

[Colours]
Combo1 : 255,255,255
Combo2 : 0,204,184
Combo3 : 32,133,255

[HitObjects]
40,192,610,6,0,B|88:208|88:208|120:192|152:200|152:200|152:248,1,160,0|8,0:0|0:0,0:0:0:0:
117,322,1291,2,0,P|158:336|194:322,1,80
255,160,1973,5,8,0:0:0:0:
297,237,2200,2,0,P|331:211|341:173,1,80
302,98,2655,2,0,L|349:48,2,40,0|0|8,0:0|0:0|0:0,0:0:0:0:
214,86,3110,2,0,P|179:112|172:150,1,80
216,315,3791,6,0,P|222:271|203:242,1,80,8|0,0:0|0:0,0:0:0:0:
132,295,4246,2,0,P|68:309|20:264,1,120
26,234,4700,2,0,B|42:186|42:186|26:154|34:122|34:122|82:122,1,160,8|0,0:0|0:0,0:0:0:0:
216,86,5610,5,8,0:0:0:0:
457,86,6064,1,0,0:0:0:0:
336,304,6519,1,8,0:0:0:0:
272,192,6973,1,0,0:0:0:0:
400,192,7428,1,8,0:0:0:0:
336,304,7882,1,4,0:0:0:0:
130,317,8337,6,0,B|82:301|82:301|50:317|18:309|18:309|18:261,1,160,8|0,0:0|0:0,0:0:0:0:
129,129,9246,2,0,B|81:145|81:145|49:129|17:137|17:137|17:185,1,160,8|0,0:0|0:0,0:0:0:0:
92,226,9928,2,0,L|186:226,1,80,0|8,0:0|0:0,0:0:0:0:
219,152,10382,2,0,L|270:152,2,40,0|0|0,0:0|0:0|0:0,0:0:0:0:
307,304,11064,5,8,0:0:0:0:
397,152,11519,1,4,0:0:0:0:
463,93,11746,1,0,0:0:0:0:
463,93,11860,1,0,0:0:0:0:
463,93,11973,2,0,P|431:64|379:73,1,80
320,112,12428,1,0,0:0:0:0:
136,113,12882,5,8,0:0:0:0:
61,66,13110,2,0,P|43:106|54:139,1,80,0|4,0:0|0:0,0:0:0:0:
122,195,13564,2,0,L|184:195,2,40,0|0|8,0:0|0:0|0:0,0:0:0:0:
54,252,14019,2,0,P|66:294|99:319,1,80
180,320,14473,1,0,0:0:0:0:
180,320,14587,1,0,0:0:0:0:
180,320,14700,2,0,B|212:321|221:309|221:309|230:321|230:321|239:309|239:309|247:321|247:321|255:309|255:309|262:321|262:321|280:315|308:315,1,160,8|4,0:0|0:0,0:0:0:0:
464,192,22428,6,0,L|378:192,1,80,4|0,0:0|0:0,0:0:0:0:
384,192,22769,1,0,0:0:0:0:
384,192,22882,1,8,0:0:0:0:
306,242,23110,2,0,P|331:272|370:279,1,80
305,154,23564,1,0,0:0:0:0:
145,79,24019,6,0,B|169:123|169:123|158:157|172:187|172:187|215:180,1,160
242,96,24700,2,0,L|217:7,2,80,8|0|0,0:0|0:0|0:0,0:0:0:0:
326,70,25382,1,0,0:0:0:0:
326,70,25496,1,0,0:0:0:0:
326,70,25610,2,0,P|391:112|394:188,1,160,8|0,0:0|0:0,0:0:0:0:
359,278,26291,6,0,P|436:275|478:211,1,160
310,205,26973,1,0,0:0:0:0:
270,283,27200,1,0,0:0:0:0:
108,213,27655,6,0,L|17:214,2,80
186,172,28337,2,0,B|209:208|188:249,1,80,8|0,0:0|0:0,0:0:0:0:
112,125,28791,2,0,B|150:68|233:92,1,120
217,88,29246,2,0,B|271:134|329:97,1,120,8|0,0:0|0:0,0:0:0:0:
327,98,29700,1,0,0:0:0:0:
416,96,29928,6,0,L|497:96,1,80,0|8,0:0|0:0,0:0:0:0:
454,173,30382,1,0,0:0:0:0:
365,175,30610,1,0,0:0:0:0:
414,247,30837,1,0,0:0:0:0:
326,250,31064,6,0,L|327:330,2,80,8|0|0,0:0|0:0|0:0,0:0:0:0:
283,172,31746,1,0,0:0:0:0:
283,172,31860,1,0,0:0:0:0:
283,172,31973,1,8,0:0:0:0:
231,243,32200,2,0,P|199:211|197:161,1,80
33,131,32882,6,0,P|54:97|98:79,1,80,8|0,0:0|0:0,0:0:0:0:
178,102,33337,2,0,P|160:138|127:159,1,80
226,39,33791,2,0,P|264:27|309:42,1,80,8|0,0:0|0:0,0:0:0:0:
411,145,34246,2,0,P|375:131|352:99,1,80
432,56,34700,1,8,0:0:0:0:
384,232,34928,6,0,B|352:270|352:270|356:306|336:332|336:332|296:317,1,160
295,316,35496,1,0,0:0:0:0:
295,316,35610,1,8,0:0:0:0:
212,348,35837,1,0,0:0:0:0:
212,348,35950,1,0,0:0:0:0:
212,348,36064,2,0,P|216:270|294:223,1,160,8|8,0:0|0:0,0:0:0:0:
56,90,36973,5,4,0:0:0:0:
134,51,37200,2,0,L|182:51,2,40,0|0|8,0:0|0:0|0:0,0:0:0:0:
124,138,37655,1,0,0:0:0:0:
43,173,37882,1,0,0:0:0:0:
115,223,38110,2,0,P|134:261|193:271,1,80,0|8,0:0|0:0,0:0:0:0:
198,192,38564,6,0,P|251:134|346:113,1,160
403,155,39246,1,8,0:0:0:0:
326,197,39473,1,0,0:0:0:0:
326,197,39587,1,0,0:0:0:0:
326,197,39700,1,0,0:0:0:0:
201,321,40155,6,0,B|157:297|157:297|123:308|93:294|93:294|100:251,1,160,8|0,0:0|0:0,0:0:0:0:
46,179,40837,1,0,0:0:0:0:
102,111,41064,1,8,0:0:0:0:
153,182,41291,2,0,L|236:182,1,80
301,126,41746,1,0,0:0:0:0:
301,126,41860,1,0,0:0:0:0:
301,126,41973,1,8,0:0:0:0:
387,110,42200,5,0,0:0:0:0:
387,110,42428,2,0,P|325:39|241:61,2,160,0|8|0,0:0|0:0|0:0,0:0:0:0:
456,55,43564,1,0,0:0:0:0:
472,131,43791,2,0,P|418:191|338:179,1,160,8|0,0:0|0:0,0:0:0:0:
281,244,44473,5,0,0:0:0:0:
262,158,44700,1,8,0:0:0:0:
196,216,44928,2,0,L|117:216,2,80
260,52,45837,6,0,B|304:76|304:76|338:65|368:79|368:79|361:122,1,160
348,209,46519,2,0,P|387:214|418:192,2,80,8|0|0,0:0|0:0|0:0,0:0:0:0:
323,294,47200,1,0,0:0:0:0:
323,294,47314,1,0,0:0:0:0:
323,294,47428,2,0,P|253:325|171:290,1,160,8|4,0:0|0:0,0:0:0:0:
18,225,48336,5,0,0:0:0:0:
28,182,48450,1,0,0:0:0:0:
57,150,48563,1,0,0:0:0:0:
144,96,48791,1,4,0:0:0:0:
191,172,49019,6,0,P|220:145|234:95,1,80,0|8,0:0|0:0,0:0:0:0:
227,20,49473,2,0,P|266:26|305:61,1,80,0|4,0:0|0:0,0:0:0:0:
382,75,49928,2,0,P|358:107|310:127,1,80,0|8,0:0|0:0,0:0:0:0:
322,124,50382,1,0,0:0:0:0:
436,214,50610,1,4,0:0:0:0:
201,334,51064,6,0,P|157:336|117:302,1,80,8|0,0:0|0:0,0:0:0:0:
154,236,51519,1,4,0:0:0:0:
66,246,51746,2,0,P|41:276|38:315,1,80,0|8,0:0|0:0,0:0:0:0:
154,236,52200,2,0,P|148:201|118:169,1,80
30,178,52655,1,0,0:0:0:0:
30,178,52769,1,0,0:0:0:0:
30,178,52882,1,8,0:0:0:0:
70,99,53110,6,0,P|111:86|146:96,1,80,0|4,0:0|0:0,0:0:0:0:
213,151,53564,2,0,L|296:150,2,80,0|8|0,0:0|0:0|0:0,0:0:0:0:
240,234,54246,2,0,B|264:278|264:278|253:312|267:342|267:342|310:335,1,160,0|8,0:0|0:0,0:0:0:0:
392,301,54928,5,0,0:0:0:0:
392,301,55041,2,0,L|392:257,1,40,0|4,0:0|0:0,0:0:0:0:
426,179,55382,2,0,P|384:168|352:184,1,80,0|8,0:0|0:0,0:0:0:0:
276,229,55837,2,0,P|264:192|274:144,1,80,0|0,0:0|0:0,0:0:0:0:
336,93,56291,2,0,P|269:55|202:97,1,160
124,132,56973,6,0,P|58:171|58:257,1,160,4|8,0:0|0:0,0:0:0:0:
136,218,57655,1,0,0:0:0:0:
223,214,57882,2,0,P|197:286|112:302,1,160,0|8,0:0|0:0,0:0:0:0:
282,115,58791,5,4,0:0:0:0:
359,157,59019,2,0,P|372:115|362:80,2,80,0|8|0,0:0|0:0|0:0,0:0:0:0:
281,199,59700,2,0,P|268:241|278:276,1,80,0|0,0:0|0:0,0:0:0:0:
277,274,60041,1,0,0:0:0:0:
277,274,60155,1,8,0:0:0:0:
364,282,60382,6,0,P|334:348|251:357,1,160
165,351,61064,1,8,0:0:0:0:
100,291,61291,1,0,0:0:0:0:
59,212,61519,1,0,0:0:0:0:
185,89,61973,6,0,B|209:133|209:133|198:167|212:197|212:197|255:190,1,160,8|4,0:0|0:0,0:0:0:0:
276,14,62882,2,0,B|320:38|320:38|354:27|384:41|384:41|377:84,1,160,8|0,0:0|0:0,0:0:0:0:
335,162,63564,2,0,L|395:221,1,80,0|8,0:0|0:0,0:0:0:0:
256,192,64019,12,0,65610,0:0:0:0:
151,167,66064,5,4,0:0:0:0:
61,166,66291,1,0,0:0:0:0:
10,238,66519,1,0,0:0:0:0:
65,306,66746,1,0,0:0:0:0:
152,306,66973,1,4,0:0:0:0:
206,237,67200,1,0,0:0:0:0:
255,164,67428,1,0,0:0:0:0:
255,164,67882,6,0,P|293:231|261:301,1,160,4|0,0:0|0:0,0:0:0:0:
72,80,75155,5,4,0:0:0:0:
155,99,75382,2,0,P|136:138|99:159,1,80,0|8,0:0|0:0,0:0:0:0:
17,152,75837,2,0,P|49:223|124:241,1,160
123,241,76405,1,0,0:0:0:0:
123,241,76519,1,8,0:0:0:0:
158,321,76746,6,0,B|120:339|79:324,2,80
235,277,77428,2,0,B|253:315|238:356,2,80,8|0|0,0:0|0:0|0:0,0:0:0:0:
316,309,78110,1,0,0:0:0:0:
316,309,78223,1,0,0:0:0:0:
316,309,78337,1,8,0:0:0:0:
460,208,78791,5,0,0:0:0:0:
382,249,79019,2,0,B|364:211|379:170,1,80,0|8,0:0|0:0,0:0:0:0:
455,45,79473,2,0,B|470:85|452:123,1,80
452,122,79928,1,0,0:0:0:0:
376,80,80155,1,8,0:0:0:0:
330,10,80382,1,0,0:0:0:0:
330,10,80610,6,0,P|296:80|328:152,2,160,0|8|0,0:0|0:0|0:0,0:0:0:0:
376,80,81746,1,0,0:0:0:0:
414,162,81973,2,0,B|390:206|390:206|401:240|387:270|387:270|344:263,1,160,8|0,0:0|0:0,0:0:0:0:
288,331,82655,5,0,0:0:0:0:
258,248,82882,1,8,0:0:0:0:
288,331,83110,1,0,0:0:0:0:
258,248,83337,1,0,0:0:0:0:
201,314,83564,2,0,P|178:280|180:233,1,80,0|8,0:0|0:0,0:0:0:0:
177,242,83905,1,0,0:0:0:0:
177,242,84019,1,0,0:0:0:0:
223,167,84246,5,4,0:0:0:0:
430,46,84700,1,12,0:0:0:0:
502,276,85155,1,4,0:0:0:0:
269,336,85610,5,8,0:0:0:0:
269,336,85723,1,0,0:0:0:0:
269,336,85837,2,0,L|180:337,2,80,0|4|0,0:0|0:0|0:0,0:0:0:0:
325,268,86519,2,0,L|404:267,2,80,8|0|4,0:0|0:0|0:0,0:0:0:0:
253,216,87200,2,0,L|164:217,1,80,0|8,0:0|0:0,0:0:0:0:
128,140,87655,2,0,L|167:140,2,40,0|0|4,0:0|0:0|0:0,0:0:0:0:
39,140,88110,1,0,0:0:0:0:
25,181,88223,1,0,0:0:0:0:
19,224,88337,1,8,0:0:0:0:
27,266,88450,1,0,0:0:0:0:
54,300,88564,2,0,P|86:333|141:337,1,80,0|4,0:0|0:0,0:0:0:0:
350,349,89246,6,0,L|398:349,3,40,8|0|0|0,0:0|0:0|0:0|0:0,0:0:0:0:
433,339,89700,2,0,B|451:301|436:260,1,80,4|0,0:0|0:0,0:0:0:0:
468,178,90155,2,0,B|428:162|388:180,1,80,8|0,0:0|0:0,0:0:0:0:
312,221,90610,2,0,B|294:183|309:142,1,80
308,143,90950,1,0,0:0:0:0:
308,143,91064,1,8,0:0:0:0:
314,55,91291,6,0,P|349:65|387:107,2,80,0|0|0,0:0|0:0|0:0,0:0:0:0:
231,24,91973,1,8,0:0:0:0:
165,82,92200,1,0,0:0:0:0:
219,153,92428,2,0,P|172:177|160:220,1,80,0|8,0:0|0:0,0:0:0:0:
138,288,92882,1,8,0:0:0:0:
301,340,93337,5,4,0:0:0:0:
213,345,93564,1,0,0:0:0:0:
254,267,93791,2,0,B|288:230|288:230|324:230|348:207|348:207|328:169,1,160,8|0,0:0|0:0,0:0:0:0:
251,122,94473,2,0,P|210:135|177:124,1,80,0|8,0:0|0:0,0:0:0:0:
104,72,94928,2,0,B|88:112|106:152,1,80,0|4,0:0|0:0,0:0:0:0:
32,199,95382,1,0,0:0:0:0:
32,199,95496,1,0,0:0:0:0:
32,199,95610,2,0,B|38:241|74:266,1,80,8|0,0:0|0:0,0:0:0:0:
56,351,96064,2,0,P|131:346|157:267,1,160,0|8,0:0|0:0,0:0:0:0:
332,319,96973,6,0,B|372:335|412:317,1,80,4|0,0:0|0:0,0:0:0:0:
368,239,97428,1,8,0:0:0:0:
409,161,97655,2,0,B|369:145|329:163,1,80
251,124,98110,2,0,B|235:164|253:204,1,80,0|8,0:0|0:0,0:0:0:0:
255,289,98564,1,0,0:0:0:0:
255,289,98678,1,0,0:0:0:0:
255,289,98791,6,0,P|182:268|166:185,1,160,4|8,0:0|0:0,0:0:0:0:
74,191,99473,1,0,0:0:0:0:
37,111,99700,2,0,B|76:94|117:113,1,80
188,63,100155,5,8,0:0:0:0:
275,56,100382,1,0,0:0:0:0:
275,56,100496,1,0,0:0:0:0:
275,56,100610,2,0,B|311:90|311:90|311:126|334:150|334:150|372:130,1,160,4|8,0:0|0:0,0:0:0:0:
319,297,101519,2,0,B|282:262|282:262|282:226|259:202|259:202|221:222,1,160,0|8,0:0|0:0,0:0:0:0:
256,192,102200,12,0,103791,0:0:0:0:
246,123,104246,5,4,0:0:0:0:
214,92,104360,1,0,0:0:0:0:
175,72,104473,1,0,0:0:0:0:
131,77,104587,1,0,0:0:0:0:
93,98,104700,1,0,0:0:0:0:
162,153,104928,1,0,0:0:0:0:
79,184,105155,5,4,0:0:0:0:
111,215,105269,1,0,0:0:0:0:
150,235,105382,1,0,0:0:0:0:
194,230,105496,1,0,0:0:0:0:
232,209,105609,1,0,0:0:0:0:
312,168,105837,1,0,0:0:0:0:
390,133,106064,2,0,P|407:207|339:248,1,160,4|0,0:0|0:0,0:0:0:0:
62,163,113337,6,0,P|123:118|179:165,1,160,0|8,0:0|0:0,0:0:0:0:
62,296,114246,2,0,P|123:341|179:294,1,160,0|8,0:0|0:0,0:0:0:0:
335,214,115155,2,0,P|295:210|263:232,2,80,0|0|8,0:0|0:0|0:0,0:0:0:0:
495,141,116064,1,0,0:0:0:0:
448,215,116291,1,8,0:0:0:0:
405,137,116519,1,8,0:0:0:0:
450,61,116746,5,0,0:0:0:0:
362,60,116973,2,0,B|326:94|326:94|326:130|303:154|303:154|265:134,1,160,0|8,0:0|0:0,0:0:0:0:
235,216,117655,1,0,0:0:0:0:
172,153,117882,2,0,B|132:132|132:132|109:156|109:192|109:192|73:226,1,160,0|8,0:0|0:0,0:0:0:0:
222,318,118791,6,0,P|261:326|311:311,1,80,4|0,0:0|0:0,0:0:0:0:
383,348,119246,2,0,P|392:310|379:267,1,80,8|0,0:0|0:0,0:0:0:0:
371,183,119700,5,4,0:0:0:0:
359,140,119814,1,0,0:0:0:0:
343,98,119928,1,8,0:0:0:0:
315,64,120041,1,0,0:0:0:0:
275,44,120155,1,8,0:0:0:0:
129,80,120610,6,0,L|38:166,1,120,4|0,0:0|0:0,0:0:0:0:
41,162,121064,2,0,L|57:241,1,80,8|0,0:0|0:0,0:0:0:0:
56,240,121519,1,0,0:0:0:0:
306,317,121973,1,8,0:0:0:0:
362,70,122428,2,0,L|442:222,1,160,0|8,0:0|0:0,0:0:0:0:
388,285,123110,1,0,0:0:0:0:
306,317,123337,2,0,L|201:195,1,160,0|8,0:0|0:0,0:0:0:0:
25,181,124246,6,0,L|111:90,1,120,4|0,0:0|0:0,0:0:0:0:
186,110,124700,2,0,L|107:94,1,80,8|0,0:0|0:0,0:0:0:0:
186,110,125155,1,0,0:0:0:0:
424,72,125610,1,8,0:0:0:0:
186,110,126064,6,0,B|170:150|188:190,1,80,0|0,0:0|0:0,0:0:0:0:
269,155,126519,2,0,B|285:195|267:235,1,80,8|0,0:0|0:0,0:0:0:0:
186,266,126973,2,0,B|170:306|187:343,1,80
187,343,127314,1,0,0:0:0:0:
187,343,127428,1,8,0:0:0:0:
347,272,127882,6,0,L|438:186,1,120,4|0,0:0|0:0,0:0:0:0:
418,111,128336,2,0,L|434:190,1,80,8|0,0:0|0:0,0:0:0:0:
418,111,128791,1,0,0:0:0:0:
256,48,129246,1,8,0:0:0:0:
64,192,129700,1,0,0:0:0:0:
256,337,130155,1,8,0:0:0:0:
448,192,130610,1,0,0:0:0:0:
211,229,131064,6,0,B|175:263|175:263|175:299|152:323|152:323|112:302,1,160,8|4,0:0|0:0,0:0:0:0:
211,152,131973,2,0,B|175:118|175:118|175:82|152:58|152:58|112:79,1,160,8|4,0:0|0:0,0:0:0:0:
273,93,132882,6,0,L|352:94,1,80,8|0,0:0|0:0,0:0:0:0:
318,175,133337,2,0,L|397:176,1,80,4|0,0:0|0:0,0:0:0:0:
467,264,133791,2,0,L|388:263,1,80,8|0,0:0|0:0,0:0:0:0:
382,351,134246,2,0,L|303:350,1,80,4|8,0:0|0:0,0:0:0:0:
302,349,134587,1,0,0:0:0:0:
302,349,134700,1,8,0:0:0:0:
267,183,135155,6,0,B|259:141|223:116,1,80,0|0,0:0|0:0,0:0:0:0:
184,196,135610,2,0,B|146:173|104:185,1,80,8|0,0:0|0:0,0:0:0:0:
131,269,136064,2,0,B|87:268|57:299,2,80,0|0|8,0:0|0:0|0:0,0:0:0:0:
219,273,136746,2,0,B|256:251|267:209,1,80
338,160,137200,5,0,0:0:0:0:
255,129,137428,1,8,0:0:0:0:
321,70,137655,1,0,0:0:0:0:
400,106,137882,2,0,B|486:140|470:245,1,160,0|8,0:0|0:0,0:0:0:0:
300,278,138791,6,0,B|289:318|251:339,1,80
212,259,139246,1,8,0:0:0:0:
168,182,139473,2,0,B|131:201|119:242,1,80
146,326,139928,1,0,0:0:0:0:
60,307,140155,1,8,0:0:0:0:
33,223,140382,2,0,B|30:179|0:152,1,80
167,101,141064,5,8,0:0:0:0:
233,43,141291,1,0,0:0:0:0:
254,128,141519,1,0,0:0:0:0:
334,162,141746,2,0,B|315:199|275:212,1,80,0|8,0:0|0:0,0:0:0:0:
134,319,142428,6,0,B|174:305|192:268,1,80,0|0,0:0|0:0,0:0:0:0:
133,203,142882,2,0,B|114:240|74:253,2,80,8|0|0,0:0|0:0|0:0,0:0:0:0:
226,209,143564,1,0,0:0:0:0:
295,271,143791,1,8,0:0:0:0:
226,209,144019,1,0,0:0:0:0:
182,135,144246,6,0,B|222:121|240:84,1,80,0|0,0:0|0:0,0:0:0:0:
308,139,144700,2,0,B|289:176|249:189,1,80,8|0,0:0|0:0,0:0:0:0:
166,220,145155,1,0,0:0:0:0:
98,163,145382,1,0,0:0:0:0:
78,249,145610,1,8,0:0:0:0:
256,192,146064,12,4,149700,0:0:0:0:
168,192,149928,5,0,0:0:0:0:
168,192,150041,1,8,0:0:0:0:
168,192,150155,1,8,0:0:0:0:
168,104,150382,1,0,0:0:0:0:
168,278,150610,1,4,0:0:0:0:
343,189,151064,5,0,0:0:0:0:
168,192,151519,1,0,0:0:0:0:
75,192,158791,5,4,0:0:0:0:
256,35,159246,1,0,0:0:0:0:
440,192,159700,1,4,0:0:0:0:
256,350,160155,1,0,0:0:0:0:
75,192,160610,1,4,0:0:0:0:
256,35,161064,1,0,0:0:0:0:
440,192,161519,1,4,0:0:0:0:
256,192,161973,12,0,165155,0:0:0:0:
91,95,165610,5,8,0:0:0:0:
30,259,166064,2,0,B|71:246|91:208,1,80,4|0,0:0|0:0,0:0:0:0:
164,161,166519,2,0,L|231:176,4,40,8|0|0|0|0,0:0|0:0|0:0|0:0|0:0,0:0:0:0:
167,248,167200,2,0,B|172:290|207:316,1,80,0|8,0:0|0:0,0:0:0:0:
291,336,167655,6,0,B|325:300|325:300|361:300|385:277|385:277|365:239,1,160,4|0,0:0|0:0,0:0:0:0:
400,156,168337,1,8,0:0:0:0:
351,82,168564,1,0,0:0:0:0:
313,161,168791,1,4,0:0:0:0:
263,88,169019,2,0,P|235:117|194:124,1,80
165,120,169360,1,0,0:0:0:0:
132,110,169473,1,0,0:0:0:0:
100,206,169700,5,4,0:0:0:0:
181,240,169928,1,0,0:0:0:0:
181,240,170041,1,0,0:0:0:0:
112,296,170269,1,0,0:0:0:0:
112,296,170382,1,0,0:0:0:0:
196,321,170610,2,0,B|237:308|257:270,1,80,4|0,0:0|0:0,0:0:0:0:
278,186,171064,5,8,0:0:0:0:
304,150,171178,1,0,0:0:0:0:
342,129,171291,1,0,0:0:0:0:
385,120,171405,1,0,0:0:0:0:
429,118,171519,1,4,0:0:0:0:
508,156,171746,1,0,0:0:0:0:
508,156,171860,1,0,0:0:0:0:
508,156,171973,1,8,0:0:0:0:
489,242,172200,2,0,B|451:258|411:242,1,80,0|4,0:0|0:0,0:0:0:0:
258,330,172882,1,8,0:0:0:0:
84,301,173337,6,0,B|125:288|145:250,1,80,4|0,0:0|0:0,0:0:0:0:
138,163,173791,2,0,B|97:172|74:208,1,80,8|0,0:0|0:0,0:0:0:0:
225,171,174246,2,0,B|223:125|193:99,1,80,4|0,0:0|0:0,0:0:0:0:
194,99,174587,1,0,0:0:0:0:
194,99,174700,1,8,0:0:0:0:
256,32,174928,6,0,B|301:51|301:51|313:85|343:100|343:100|372:68,1,160
448,120,175610,1,8,0:0:0:0:
422,210,175837,1,0,0:0:0:0:
422,210,175950,1,0,0:0:0:0:
422,210,176064,1,4,0:0:0:0:
291,91,176519,6,0,P|214:70|149:113,1,160,8|4,0:0|0:0,0:0:0:0:
82,166,177200,2,0,B|49:191|6:186,1,80,0|8,0:0|0:0,0:0:0:0:
6,275,177655,2,0,B|48:276|77:305,1,80,0|4,0:0|0:0,0:0:0:0:
134,238,178110,2,0,B|167:210|171:169,1,80,0|8,0:0|0:0,0:0:0:0:
127,93,178564,2,0,P|387:143|132:313,1,720,0|4,0:0|0:0,0:0:0:0:
153,238,180837,5,0,0:0:0:0:
153,238,180950,1,0,0:0:0:0:
153,238,181064,1,8,0:0:0:0:
112,160,181291,2,0,B|151:142|189:156,1,80,0|4,0:0|0:0,0:0:0:0:
235,232,181746,2,0,B|274:249|313:230,1,80,0|8,0:0|0:0,0:0:0:0:
271,152,182200,1,0,0:0:0:0:
312,230,182428,1,4,0:0:0:0:
256,192,182541,12,4,186063,0:0:0:0:
