osu file format v14

[General]
AudioFilename: frictionmp3.mp3
AudioLeadIn: 0
PreviewTime: 45492
Countdown: 0
SampleSet: Soft
StackLeniency: 0.7
Mode: 0
LetterboxInBreaks: 0
WidescreenStoryboard: 0

[Editor]
DistanceSpacing: 1.2
BeatDivisor: 4
GridSize: 4
TimelineZoom: 1

[Metadata]
Title:Friction
TitleUnicode:Friction
Artist:Hanatan
ArtistUnicode:花たん
Creator:kakifly
Version:Insane
Source:
Tags:doriko F☆T kaidou primose flower voice yurica ユリカ utaite original meyrink rakuen
BeatmapID:637279
BeatmapSetID:281749

[Difficulty]
HPDrainRate:6
CircleSize:4
OverallDifficulty:8
ApproachRate:9
SliderMultiplier:1.6
SliderTickRate:2

[Events]
//Background and Video events
0,0,"theBG.jpg",0,0
//Break Periods
2,103743,113790
2,166116,173451
//Storyboard Layer 0 (Background)
//Storyboard Layer 1 (Fail)
//Storyboard Layer 2 (Pass)
//Storyboard Layer 3 (Foreground)
//Storyboard Sound Samples

[TimingPoints]
11340,338.983050847458,4,2,1,30,1,0
11340,-142.857142857143,4,2,1,30,0,0
31678,-142.857142857143,4,2,1,40,0,0
38458,-142.857142857143,4,2,1,50,0,0
41170,-111.111111111111,4,2,1,60,0,0
46255,-200,4,2,1,60,0,0
46594,-90.9090909090909,4,2,1,95,0,1
46678,-90.9090909090909,4,2,1,80,0,1
48628,-90.9090909090909,4,2,1,50,0,1
48882,-90.9090909090909,4,2,1,80,0,1
54051,-90.9090909090909,4,2,1,50,0,1
54306,-90.9090909090909,4,2,1,80,0,1
56763,-100,4,2,1,80,0,0
57017,-100,4,2,1,40,0,0
57102,-100,4,2,1,80,0,0
57441,-90.9090909090909,4,2,1,95,0,1
57526,-90.9090909090909,4,2,1,80,0,1
59475,-90.9090909090909,4,2,1,50,0,1
59729,-90.9090909090909,4,2,1,80,0,1
62187,-90.9090909090909,4,2,1,50,0,1
62441,-90.9090909090909,4,2,1,80,0,1
68289,-100,4,2,1,60,0,0
80492,-200,4,2,1,40,0,0
80662,-200,4,2,1,20,0,0
81340,-200,4,2,1,40,0,0
81848,-125,4,2,1,40,0,0
92695,-125,4,2,1,50,0,0
102526,-125,4,2,1,35,0,0
103543,-125,4,2,1,45,0,0
114390,-133.333333333333,4,2,1,45,0,0
119814,-125,4,2,1,50,0,0
125238,-111.111111111111,4,2,1,60,0,0
127611,-200,4,2,1,60,0,0
127950,-90.9090909090909,4,2,1,95,0,1
128034,-90.9090909090909,4,2,1,80,0,1
129984,-90.9090909090909,4,2,1,50,0,1
130238,-90.9090909090909,4,2,1,80,0,1
135407,-90.9090909090909,4,2,1,50,0,1
135662,-90.9090909090909,4,2,1,80,0,1
138119,-100,4,2,1,80,0,0
138373,-100,4,2,1,40,0,0
138458,-100,4,2,1,80,0,0
138797,-90.9090909090909,4,2,1,95,0,1
138882,-90.9090909090909,4,2,1,80,0,1
140831,-90.9090909090909,4,2,1,50,0,1
141085,-90.9090909090909,4,2,1,80,0,1
143543,-90.9090909090909,4,2,1,50,0,1
143797,-90.9090909090909,4,2,1,80,0,1
149645,-90.9090909090909,4,2,1,70,0,0
151424,-90.9090909090909,4,2,1,45,0,0
151594,-90.9090909090909,4,2,1,70,0,0
165238,-133.333333333333,4,2,1,30,0,0
165916,-133.333333333333,4,2,1,80,0,0
174390,-133.333333333333,4,2,1,40,0,0
175746,-133.333333333333,4,2,1,60,0,0
176763,-90.9090909090909,4,2,1,95,0,1
176848,-90.9090909090909,4,2,1,80,0,1
178797,-90.9090909090909,4,2,1,50,0,1
179051,-90.9090909090909,4,2,1,80,0,1
186933,-90.9090909090909,4,2,1,80,0,0
187950,-90.9090909090909,4,2,1,95,0,1
188034,-90.9090909090909,4,2,1,80,0,1
189645,-90.9090909090909,4,2,1,50,0,1
189899,-90.9090909090909,4,2,1,80,0,1
190831,-90.9090909090909,4,2,1,50,0,1
191170,-90.9090909090909,4,2,1,80,0,1
198458,-100,4,2,1,80,0,0
211001,-100,4,2,1,40,0,0
211678,-100,4,2,1,30,0,0

[Colours]
Combo1 : 230,85,96
Combo2 : 169,14,115
Combo3 : 183,43,70

[HitObjects]
340,72,11340,6,0,P|336:152|332:208,1,111.999996582031,2|2,0:0|0:0,0:0:0:0:
236,176,11848,1,2,0:0:0:0:
432,184,12017,2,0,L|444:244|448:264,1,55.9999982910157,0|0,0:0|0:0,0:0:0:0:
380,316,12356,1,2,0:0:0:0:
200,296,12526,6,0,B|225:278|225:278|261:270|305:266,1,111.999996582031,0|0,0:0|0:0,0:0:0:0:
236,176,13034,2,0,P|192:176|156:172,1,55.9999982910157,2|0,0:0|0:0,0:0:0:0:
204,60,13373,1,2,0:0:0:0:
224,56,13458,1,2,0:0:0:0:
244,52,13543,1,2,0:0:0:0:
268,48,13628,1,2,0:0:0:0:
288,44,13712,2,0,P|284:88|280:120,1,55.9999982910157,2|0,0:0|0:0,0:0:0:0:
420,236,14051,6,0,L|408:104,1,111.999996582031,2|2,0:0|0:0,0:0:0:0:
288,44,14560,1,2,0:0:0:0:
236,176,14729,2,0,L|296:172,1,55.9999982910157,0|0,0:0|0:0,0:0:0:0:
136,144,15068,1,2,0:0:0:0:
172,264,15238,6,0,P|220:268|296:280,1,111.999996582031
192,364,15746,2,0,P|156:368|128:368,1,55.9999982910157,2|0,0:0|0:0,0:0:0:0:
76,284,16085,2,0,L|84:180,1,83.9999974365235,2|2,0:0|0:0,0:0:0:0:
136,144,16424,2,0,L|128:84,1,55.9999982910157,2|4,0:0|0:3,0:0:0:0:
272,44,16763,6,0,L|264:176,1,111.999996582031,4|2,0:3|0:0,0:0:0:0:
316,244,17272,1,2,0:0:0:0:
396,140,17441,2,0,B|432:132|480:116|480:116|452:96,1,111.999996582031,0|2,0:0|0:0,0:0:0:0:
272,44,17950,1,0,0:0:0:0:
316,244,18119,6,0,L|380:260,1,55.9999982910157
484,300,18458,2,0,P|491:272|497:245,1,55.9999982910157,2|0,0:0|0:0,0:0:0:0:
396,140,18797,1,2,0:0:0:0:
260,140,18967,2,0,B|184:152|184:152|136:176,1,111.999996582031,2|0,0:0|0:0,0:0:0:0:
316,244,19475,6,0,P|372:260|428:224,1,111.999996582031,4|2,0:3|0:0,0:0:0:0:
396,140,19984,1,2,0:0:0:0:
208,236,20153,2,0,L|220:364,1,111.999996582031,0|2,0:0|0:0,0:0:0:0:
120,308,20662,1,4,0:3:0:0:
316,244,20831,6,0,L|384:236,1,55.9999982910157,2|0,0:0|0:0,0:0:0:0:
396,140,21170,1,2,0:0:0:0:
251,100,21340,2,0,P|204:112|128:136,1,111.999996582031,2|0,0:0|0:0,0:0:0:0:
316,244,21848,2,0,L|370:231,1,55.9999982910157,2|0,0:0|0:0,0:0:0:0:
226,208,22187,6,0,L|224:232|216:320,1,111.999996582031,4|2,0:3|0:0,0:0:0:0:
316,244,22695,1,2,0:0:0:0:
251,100,22865,2,0,L|195:112,1,55.9999982910157
226,208,23204,2,0,B|194:208|174:200|174:200|146:204|146:204|98:196,1,111.999996582031,2|0,0:0|0:0,0:0:0:0:
251,100,23712,5,0,0:0:0:0:
316,244,23882,2,0,L|324:304,1,55.9999982910157,2|2,0:0|0:0,0:0:0:0:
472,340,24221,1,2,0:0:0:0:
476,320,24306,1,2,0:0:0:0:
480,300,24390,1,2,0:0:0:0:
484,276,24475,1,0,0:0:0:0:
488,252,24560,2,0,L|424:260,1,55.9999982910157,2|0,0:0|0:0,0:0:0:0:
344,200,24899,6,0,B|272:192|272:192|224:168,1,111.999996582031,4|2,0:3|0:0,0:0:0:0:
288,88,25407,1,2,0:0:0:0:
436,116,25577,2,0,L|444:240,1,111.999996582031,0|2,0:0|0:0,0:0:0:0:
337,311,26085,6,0,L|344:200,1,111.999996582031,0|0,0:0|0:0,0:0:0:0:
216,164,26594,1,2,0:0:0:0:
220,184,26678,1,2,0:0:0:0:
224,208,26763,1,2,0:0:0:0:
228,232,26848,1,2,0:0:0:0:
232,252,26933,2,0,L|144:244,1,83.9999974365235,2|2,0:0|0:0,0:0:0:0:
76,240,27272,2,0,L|92:168,1,55.9999982910157,2|4,0:0|0:3,0:0:0:0:
284,100,27611,6,0,L|308:232,1,111.999996582031,4|2,0:3|0:0,0:0:0:0:
160,284,28119,1,2,0:0:0:0:
124,132,28289,2,0,L|136:64,1,55.9999982910157,0|0,0:0|0:0,0:0:0:0:
284,100,28628,2,0,L|348:88,1,55.9999982910157,2|0,0:0|0:0,0:0:0:0:
444,240,28967,6,0,L|380:232,1,55.9999982910157
276,312,29306,1,2,0:0:0:0:
156,208,29475,1,0,0:0:0:0:
304,180,29645,1,2,0:0:0:0:
304,180,29729,1,2,0:0:0:0:
304,180,29814,1,2,0:0:0:0:
304,180,29899,1,2,0:0:0:0:
304,180,29984,2,0,L|316:244,1,55.9999982910157,2|2,0:0|0:0,0:0:0:0:
152,319,30323,6,0,L|156:208,1,111.999996582031,4|2,0:3|0:0,0:0:0:0:
68,240,30831,1,2,0:0:0:0:
224,172,31001,2,0,L|216:96,1,55.9999982910157,0|0,0:0|0:0,0:0:0:0:
120,48,31340,1,2,0:0:0:0:
128,136,31509,1,4,0:3:0:0:
304,180,31678,5,8,0:3:0:0:
368,108,31848,1,0,0:0:0:0:
236,72,32017,1,2,0:0:0:0:
176,244,32187,1,2,0:0:0:0:
292,272,32356,1,0,0:0:0:0:
224,172,32526,1,8,0:3:0:0:
92,280,32695,2,0,L|104:344,1,55.9999982910157,4|0,0:3|0:0,0:0:0:0:
292,272,33034,6,0,L|284:388,1,111.999996582031,4|8,0:0|0:0,0:0:0:0:
176,244,33543,2,0,L|164:112,1,111.999996582031,4|0,0:3|0:0,0:0:0:0:
304,88,34051,2,0,L|300:164,1,55.9999982910157,2|0,0:0|0:0,0:0:0:0:
92,44,34390,6,0,L|216:32,1,111.999996582031,2|8,0:0|0:0,0:0:0:0:
148,164,34899,1,0,0:0:0:0:
64,128,35068,1,0,0:0:0:0:
304,88,35238,1,8,0:3:0:0:
280,176,35407,1,4,0:3:0:0:
204,32,35577,1,8,0:3:0:0:
396,56,35746,6,0,L|452:68,2,55.9999982910157,2|2|2,0:0|0:0|0:0,0:0:0:0:
304,88,36255,1,4,0:3:0:0:
376,208,36424,2,0,P|432:200|504:188,1,111.999996582031,2|2,0:0|0:0,0:0:0:0:
304,88,36933,1,0,0:0:0:0:
212,176,37102,6,0,B|220:228|224:256|224:256|216:304,1,111.999996582031,4|0,0:3|0:0,0:0:0:0:
52,288,37611,2,0,B|136:256|136:256|136:280,1,111.999996582031,4|8,0:3|0:0,0:3:0:0:
172,372,38119,2,0,L|100:360,1,55.9999982910157,0|8,0:0|0:0,0:0:0:0:
312,228,38458,6,0,L|324:352,1,111.999996582031,2|8,0:0|0:0,0:0:0:0:
436,176,38967,2,0,L|432:304,1,111.999996582031,2|0,0:0|0:0,0:0:0:0:
332,120,39475,1,2,0:0:0:0:
332,120,39645,1,4,0:3:0:0:
312,228,39814,6,0,B|232:220|232:220|196:192,1,111.999996582031,2|8,0:0|0:0,0:0:0:0:
332,120,40323,1,8,0:3:0:0:
352,136,40662,1,8,0:0:0:0:
440,228,40831,1,8,0:3:0:0:
312,228,41001,1,4,0:3:0:0:
476,160,41170,6,0,L|472:320,1,143.999995605469,4|8,0:0|0:3,0:0:0:0:
376,356,41678,1,0,0:0:0:0:
312,228,41848,2,0,L|323:156,1,71.9999978027344,4|0,0:3|0:0,0:0:0:0:
180,104,42187,2,0,L|188:176,1,71.9999978027344,8|0,0:3|0:0,0:0:0:0:
367,51,42526,6,0,P|331:53|296:56,1,71.9999978027344,4|0,0:3|0:0,0:0:0:0:
180,104,42865,1,8,0:3:0:0:
312,228,43034,1,8,0:0:0:0:
400,144,43204,1,4,0:3:0:0:
288,40,43373,1,8,0:3:0:0:
208,216,43543,1,8,0:3:0:0:
400,144,43712,1,4,0:3:0:0:
180,104,43882,6,0,L|37:118,1,143.999995605469,4|8,0:0|0:0,0:0:0:0:
208,216,44390,2,0,L|213:243|221:287,1,71.9999978027344,8|0,0:3|0:0,0:0:0:0:
400,144,44729,2,0,P|384:104|373:78,1,71.9999978027344,8|0,0:3|0:0,0:0:0:0:
264,132,45068,1,12,0:3:0:0:
264,132,46255,6,0,P|236:120|208:92,1,60,2|0,0:0|0:0,0:0:0:0:
300,56,46594,6,0,P|296:172|292:256,1,176.000005371094,4|8,0:0|0:0,0:0:0:0:
348,332,47102,1,0,0:0:0:0:
460,264,47272,1,0,0:0:0:0:
380,180,47441,1,0,0:0:0:0:
228,264,47611,2,0,P|148:252|124:248,1,88.000002685547,8|0,0:0|0:0,0:0:0:0:
44,148,47950,6,0,P|104:132|152:120,1,88.000002685547,2|0,0:0|0:0,0:0:0:0:
204,168,48289,1,8,0:0:0:0:
64,252,48458,1,0,0:0:0:0:
72,56,48628,1,2,0:3:0:0:
256,92,48797,1,2,0:3:0:0:
228,264,48967,2,0,P|240:328|248:364,1,88.000002685547,10|2,0:0|0:0,0:0:0:0:
364,364,49306,6,0,L|372:284|384:164,1,176.000005371094,2|8,0:0|0:0,0:0:0:0:
256,92,49814,2,0,P|200:100|152:108,1,88.000002685547
228,264,50153,1,0,0:0:0:0:
336,172,50323,2,0,P|379:168|423:165,1,88.000002685547,8|0,0:0|0:0,0:0:0:0:
364,364,50662,5,2,0:0:0:0:
228,264,50831,1,0,0:0:0:0:
336,172,51001,2,0,P|379:183|422:195,1,88.000002685547,12|0,0:0|0:0,0:0:0:0:
364,340,51340,1,2,0:3:0:0:
236,248,51509,1,0,0:0:0:0:
272,96,51678,2,0,L|315:88|358:80,1,88.000002685547,8|8,0:0|0:3,0:0:0:0:
200,168,52017,6,0,P|144:164|100:160,1,88.000002685547,2|0,0:0|0:0,0:0:0:0:
168,52,52356,1,8,0:0:0:0:
388,96,52526,2,0,B|380:176|372:296|372:296|376:296|376:296,1,176.000005371094
243,335,53034,2,0,P|237:291|235:247,1,88.000002685547,8|0,0:0|0:0,0:0:0:0:
336,188,53373,5,2,0:0:0:0:
380,296,53543,1,0,0:0:0:0:
243,335,53712,2,0,P|191:327|147:323,1,88.000002685547,8|0,0:0|0:0,0:0:0:0:
60,216,54051,1,2,0:3:0:0:
164,164,54221,1,2,0:3:0:0:
284,224,54390,2,0,B|344:212|388:208|388:208|408:232,1,132.00000402832,8|8,0:0|0:0,0:0:0:0:
380,296,54729,6,0,P|368:208|356:104,1,176.000005371094,4|8,0:0|0:0,0:0:0:0:
424,48,55238,1,0,0:0:0:0:
480,192,55407,1,0,0:0:0:0:
272,192,55577,1,0,0:0:0:0:
376,120,55746,1,8,0:0:0:0:
380,296,55916,6,0,L|204:306,1,176.000005371094,4|4,0:0|0:3,0:0:0:0:
76,228,56424,1,12,0:3:0:0:
144,124,56594,1,4,0:3:0:0:
272,192,56763,6,0,P|332:204|396:224,1,120,8|0,0:3|0:0,0:0:0:0:
432,152,57102,2,0,P|480:140|520:132,1,80,12|0,0:3|0:0,0:0:0:0:
328,36,57441,6,0,P|272:40|136:48,1,176.000005371094,4|8,0:0|0:0,0:0:0:0:
96,148,57950,1,0,0:0:0:0:
228,184,58119,2,0,P|235:227|241:270,1,88.000002685547,0|0,0:0|0:0,0:0:0:0:
392,148,58458,2,0,P|400:96|408:48,1,88.000002685547,8|0,0:0|0:0,0:0:0:0:
228,184,58797,5,2,0:0:0:0:
180,96,58967,1,0,0:0:0:0:
328,36,59136,2,0,P|396:44|444:52,1,88.000002685547,8|0,0:0|0:0,0:0:0:0:
228,184,59475,5,2,0:3:0:0:
164,256,59645,1,2,0:3:0:0:
52,132,59814,2,0,P|36:72|28:28,1,88.000002685547,8|0,0:0|0:0,0:0:0:0:
231,8,60153,6,0,P|229:96|228:184,1,176.000005371094,2|8,0:0|0:0,0:0:0:0:
380,252,60662,1,2,0:0:0:0:
380,252,60746,1,2,0:0:0:0:
380,252,60831,2,0,P|376:208|372:148,1,88.000002685547,2|0,0:0|0:0,0:0:0:0:
488,48,61170,2,0,P|484:96|476:156,1,88.000002685547,8|0,0:0|0:0,0:0:0:0:
264,144,61509,6,0,P|216:136|156:124,1,88.000002685547,2|0,0:0|0:0,0:0:0:0:
312,48,61848,2,0,P|355:57|397:67,1,88.000002685547,8|0,0:0|0:0,0:0:0:0:
380,252,62187,2,0,P|372:196|363:139,1,88.000002685547,2|2,0:3|0:3,0:0:0:0:
472,192,62526,1,8,0:0:0:0:
286,318,62695,1,4,0:3:0:0:
286,318,62780,1,4,0:3:0:0:
286,318,62865,6,0,L|264:144,1,176.000005371094,4|8,0:0|0:0,0:0:0:0:
152,152,63373,2,0,P|164:100|180:48,1,88.000002685547
312,48,63712,1,0,0:0:0:0:
472,192,63882,1,8,0:0:0:0:
288,240,64051,1,0,0:0:0:0:
344,144,64221,6,0,P|400:136|472:128,1,88.000002685547,2|0,0:0|0:0,0:0:0:0:
404,324,64560,1,8,0:0:0:0:
288,240,64729,1,0,0:0:0:0:
472,192,64899,1,2,0:0:0:0:
312,324,65068,1,2,0:0:0:0:
240,136,65238,1,2,0:0:0:0:
396,224,65407,1,0,0:0:0:0:
396,224,65492,1,0,0:0:0:0:
396,224,65577,6,0,P|448:224|512:228,1,88.000002685547,4|8,0:0|0:3,0:0:0:0:
404,324,65916,1,4,0:3:0:0:
200,288,66085,2,0,P|190:235|184:192,1,88.000002685547
284,72,66424,1,4,0:3:0:0:
284,72,66594,1,8,0:0:0:0:
480,104,66763,6,0,L|488:196|496:288,1,176.000005371094,4|0,0:0|0:0,0:0:0:0:
376,352,67272,1,8,0:0:0:0:
256,256,67441,1,0,1:0:0:0:
256,256,67526,1,0,1:0:0:0:
256,256,67611,2,0,P|320:248|356:244,1,88.000002685547,8|0,0:3|1:1,0:0:0:0:
260,152,67950,1,0,3:3:0:0:
224,164,68034,1,0,3:3:0:0:
184,160,68119,1,0,3:3:0:0:
156,132,68204,1,0,3:3:0:0:
136,104,68289,6,0,P|212:100|332:96,1,160,4|8,0:0|0:0,0:0:0:0:
256,256,68797,2,0,B|192:264|136:272|136:272|148:256|168:236,1,160
260,152,69306,1,8,0:0:0:0:
436,196,69475,6,0,P|444:268|456:368,1,160,4|0,0:0|0:0,0:0:0:0:
344,340,69984,2,0,L|344:316|344:260,1,80,10|0,0:0|0:0,0:0:0:0:
436,196,70323,1,0,3:0:0:0:
484,284,70492,1,0,3:0:0:0:
256,256,70662,2,0,L|268:172|276:116,1,120,8|2,0:0|3:0,0:0:0:0:
324,80,71001,6,0,L|376:84|428:88,1,80,2|0,0:0|0:0,0:0:0:0:
436,196,71340,1,8,0:0:0:0:
256,256,71509,1,2,0:0:0:0:
180,176,71678,1,0,0:0:0:0:
324,80,71848,1,0,0:0:0:0:
288,160,72017,1,8,0:0:0:0:
136,88,72187,6,0,L|324:56,1,160,4|0,0:0|0:0,0:0:0:0:
256,256,72695,1,8,0:0:0:0:
180,176,72865,1,0,0:0:0:0:
436,196,73034,2,0,P|428:260|424:304,1,80,4|0,0:0|0:0,0:0:0:0:
269,334,73373,2,0,P|261:295|256:256,1,80,8|0,0:0|0:0,0:0:0:0:
305,127,73712,6,0,P|382:147|460:168,1,160,6|8,0:0|0:0,0:0:0:0:
269,334,74221,1,0,3:0:0:0:
269,334,74306,1,0,3:0:0:0:
269,334,74390,2,0,P|215:327|163:323,1,80,0|0,3:0|3:0,0:0:0:0:
68,232,74729,2,0,P|128:224|200:216,1,120,8|8,0:0|0:0,0:0:0:0:
264,236,75068,6,0,P|248:84|244:40,1,160,2|8,0:0|0:0,0:0:0:0:
372,80,75577,2,0,P|372:88|368:176,1,80,0|0,0:0|0:0,0:0:0:0:
264,236,75916,1,0,0:0:0:0:
188,160,76085,1,8,0:0:0:0:
372,80,76255,1,0,0:0:0:0:
416,256,76424,6,0,L|228:276,1,160,2|8,0:0|0:0,0:0:0:0:
328,160,76933,1,0,0:0:0:0:
388,356,77102,2,0,P|324:352|284:348,1,80,2|0,0:0|0:0,0:0:0:0:
488,328,77441,1,8,0:0:0:0:
264,236,77611,6,0,L|105:254,1,160,4|0,0:0|0:0,0:0:0:0:
172,360,78119,1,8,0:0:0:0:
272,336,78289,1,8,0:3:0:0:
88,248,78458,2,0,P|80:308|76:340,1,80,4|0,0:3|1:0,0:0:0:0:
264,236,78797,1,8,0:0:0:0:
276,200,78882,1,0,1:0:0:0:
272,164,78967,1,0,1:0:0:0:
256,132,79051,1,0,1:0:0:0:
224,112,79136,6,0,P|304:120|400:132,1,160,2|8,0:0|0:0,0:0:0:0:
408,248,79645,1,0,0:0:0:0:
268,316,79814,2,8,P|264:286|264:230,1,80,8|8,0:0|0:3,0:0:0:0:
312,180,80068,1,8,0:3:0:0:
312,180,80153,1,12,0:3:0:0:
408,248,80323,1,0,0:0:0:0:
268,316,80492,6,0,B|236:324|208:316|208:316|188:324|188:324|164:308|164:308|92:336|92:248|168:280,1,240,4|0,0:0|0:0,0:0:0:0:
312,180,81678,1,0,0:0:0:0:
312,180,81763,1,0,0:0:0:0:
312,180,81848,6,0,P|380:200|456:228,1,128,4|2,0:3|0:0,0:0:0:0:
352,68,82356,2,0,P|284:80|204:96,1,128,0|0,0:0|0:0,0:0:0:0:
208,212,82865,1,0,0:0:0:0:
352,244,83034,2,0,B|396:220|388:160|388:160|428:184,1,128,8|4,0:0|0:3,0:0:0:0:
476,300,83543,5,8,0:0:0:0:
336,348,83712,2,0,B|248:336|248:336|200:304,1,128,0|4,0:0|0:3,0:0:0:0:
208,212,84221,1,2,0:0:0:0:
352,244,84390,1,0,0:0:0:0:
352,244,84475,1,0,0:0:0:0:
352,244,84560,6,0,P|412:240|504:232,1,128,2|2,0:0|0:0,0:0:0:0:
408,148,85068,1,2,0:0:0:0:
208,212,85238,2,0,L|228:360,1,128,0|0,0:0|0:0,0:0:0:0:
101,330,85746,6,0,L|84:204,1,128,8|4,0:0|0:3,0:0:0:0:
160,120,86255,1,4,0:3:0:0:
271,201,86424,2,0,P|239:207|208:212,1,64,2|0,0:0|0:0,0:0:0:0:
160,120,86763,1,4,0:3:0:0:
308,284,86933,2,0,P|264:292|232:292,1,64,8|0,0:0|0:0,0:0:0:0:
101,330,87272,6,0,L|85:190,1,128,2|0,0:0|0:0,0:0:0:0:
160,120,87780,1,2,0:0:0:0:
271,202,87950,2,0,P|319:206|351:210,1,64,0|0,0:0|0:0,0:0:0:0:
416,320,88289,2,0,P|452:300|480:280,1,64,0|8,0:0|0:0,0:0:0:0:
480,160,88628,5,0,0:0:0:0:
279,138,88797,2,0,P|274:174|271:206,1,64,4|0,0:3|0:0,0:0:0:0:
416,320,89136,1,2,0:0:0:0:
416,320,89221,1,2,0:0:0:0:
416,320,89306,2,0,L|408:280|400:240,1,64,2|4,0:0|0:3,0:0:0:0:
279,138,89645,2,0,P|235:143|207:150,1,64,0|4,0:0|0:3,0:0:0:0:
156,330,89984,6,0,B|252:318|252:318|292:294,1,128,4|0,0:3|0:0,0:0:0:0:
279,138,90492,2,0,P|199:158|175:214,1,128,2|8,0:0|0:0,0:0:0:0:
292,304,91001,1,4,0:3:0:0:
364,224,91170,1,8,0:0:0:0:
184,184,91340,5,2,0:0:0:0:
224,360,91509,1,0,0:0:0:0:
284,224,91678,1,0,0:0:0:0:
128,264,91847,1,2,0:0:0:0:
292,304,92017,2,0,P|344:304|408:300,1,96,2|2,0:3|0:3,0:0:0:0:
456,336,92356,2,0,L|468:296|480:256,1,64,2|4,0:3|0:3,0:0:0:0:
432,112,92695,5,2,0:0:0:0:
284,224,92865,1,0,0:0:0:0:
408,212,93034,1,8,0:0:0:0:
312,112,93204,2,0,L|239:137,1,64,2|0,0:0|0:0,0:0:0:0:
204,264,93543,1,0,0:0:0:0:
376,316,93712,1,2,0:0:0:0:
284,224,93882,1,0,0:0:0:0:
288,352,94051,5,2,0:0:0:0:
408,212,94221,1,0,0:0:0:0:
224,128,94390,5,2,0:0:0:0:
284,224,94560,1,8,0:3:0:0:
456,140,94729,1,0,0:0:0:0:
340,92,94899,1,4,0:3:0:0:
196,208,95068,1,4,0:3:0:0:
368,248,95238,1,0,0:0:0:0:
340,92,95407,6,0,L|332:28,2,64,2|0|2,0:0|0:0|0:0,0:0:0:0:
196,208,95916,2,0,P|192:308|188:360,1,128,2|0,0:0|0:0,0:0:0:0:
300,352,96424,1,0,0:0:0:0:
368,248,96594,1,2,0:0:0:0:
224,108,96763,6,0,L|176:112|136:116,1,64,0|2,0:0|0:0,0:0:0:0:
44,244,97102,1,2,0:0:0:0:
156,284,97272,1,4,0:3:0:0:
296,176,97441,1,0,0:0:0:0:
224,108,97611,1,8,0:0:0:0:
276,280,97780,1,0,0:0:0:0:
368,248,97950,1,8,0:0:0:0:
132,252,98119,5,2,0:0:0:0:
188,336,98289,1,0,0:0:0:0:
276,280,98458,1,8,0:0:0:0:
224,192,98628,2,0,P|224:152|228:116,1,64,2|0,0:0|0:0,0:0:0:0:
336,104,98967,1,2,0:0:0:0:
332,204,99136,1,2,0:0:0:0:
132,252,99306,1,0,0:0:0:0:
224,192,99475,5,2,0:0:0:0:
348,328,99645,1,0,0:0:0:0:
208,320,99814,1,2,0:0:0:0:
332,204,99984,1,12,0:3:0:0:
272,376,100153,1,0,0:0:0:0:
96,240,100323,1,8,0:3:0:0:
224,192,100492,1,8,0:3:0:0:
116,356,100662,1,8,0:3:0:0:
12,244,100831,6,0,P|16:200|24:160,1,64,2|2,0:0|0:0,0:0:0:0:
140,104,101170,1,10,0:0:0:0:
224,192,101340,2,0,P|228:260|232:344,1,128,2|0,0:0|0:0,0:0:0:0:
116,356,101848,1,0,0:0:0:0:
116,356,102017,1,2,0:0:0:0:
72,196,102187,6,0,L|212:172|212:172,1,128,2|2,0:0|0:3,0:0:0:0:
284,248,102695,2,0,P|356:252|388:252,2,96,2|2|2,0:3|0:3|0:3,0:0:0:0:
199,174,103373,1,2,0:3:0:0:
199,174,103458,1,2,0:3:0:0:
199,174,103543,1,2,0:0:0:0:
124,100,114390,6,0,P|128:156|132:240,1,120.000004577637,2|0,0:0|0:0,0:0:0:0:
312,344,114899,2,0,P|317:284|321:224,1,120.000004577637,8|0,0:0|0:0,0:0:0:0:
225,268,115407,1,0,0:0:0:0:
416,272,115577,6,0,L|404:128,1,120.000004577637,2|0,0:0|0:0,0:0:0:0:
320,88,116085,1,8,0:0:0:0:
213,148,116255,2,0,L|225:268,1,120.000004577637,2|0,0:0|0:0,0:0:0:0:
96,304,116763,1,8,0:0:0:0:
112,208,116933,1,2,0:0:0:0:
226,268,117102,6,0,P|255:270|285:272,1,60.0000022888184,2|0,0:0|0:0,0:0:0:0:
388,196,117441,2,0,P|404:240|412:268,1,60.0000022888184,0|0,0:0|0:0,0:0:0:0:
292,356,117780,2,0,B|200:348|200:348|164:328,1,120.000004577637,4|0,0:3|0:0,0:0:0:0:
112,208,118289,2,0,P|160:204|216:252,1,120.000004577637,4|0,0:0|0:0,0:0:0:0:
227,269,119306,5,8,0:0:0:0:
232,168,119475,1,8,0:3:0:0:
352,240,119645,1,12,0:3:0:0:
136,280,119814,6,0,L|148:200,1,64,6|0,0:0|0:0,0:0:0:0:
232,168,120153,1,0,0:0:0:0:
352,240,120323,1,4,0:3:0:0:
196,356,120492,2,0,B|104:364|104:364|68:356,1,128,8|0,0:0|0:0,0:0:0:0:
24,248,121001,1,0,0:0:0:0:
168,176,121170,6,0,L|192:172|232:168,1,64,0|0,0:0|0:0,0:0:0:0:
336,76,121509,2,0,P|352:112|360:136,1,64,4|0,0:3|0:0,0:0:0:0:
264,288,121848,1,8,0:3:0:0:
168,272,122017,1,8,0:3:0:0:
284,196,122187,1,8,0:3:0:0:
352,324,122356,1,8,0:3:0:0:
174,335,122526,6,0,L|168:272,1,64,2|0,0:0|0:0,0:0:0:0:
32,192,122865,2,0,L|92:152,1,64,4|0,0:3|0:0,0:0:0:0:
240,112,123204,1,8,0:3:0:0:
284,196,123373,1,0,0:0:0:0:
116,268,123543,1,4,0:3:0:0:
160,184,123712,1,0,0:0:0:0:
280,300,123882,6,0,L|212:312,1,64,4|0,0:3|0:0,0:0:0:0:
284,196,124221,1,8,0:3:0:0:
396,288,124390,1,8,0:0:0:0:
340,368,124560,1,4,0:3:0:0:
368,192,124729,1,8,0:3:0:0:
488,336,124899,1,8,0:3:0:0:
280,300,125068,1,4,0:3:0:0:
488,192,125238,6,0,L|488:336,1,143.999995605469,4|8,0:0|0:0,0:0:0:0:
280,300,125746,2,0,P|332:284|368:272,1,71.9999978027344,4|0,0:3|0:0,0:0:0:0:
176,184,126085,2,0,P|228:196|260:208,1,71.9999978027344,4|0,0:3|0:0,0:0:0:0:
156,324,126424,1,12,0:3:0:0:
156,324,127611,6,0,P|116:340|84:344,1,60,2|0,0:0|0:0,0:0:0:0:
52,260,127950,6,0,B|100:212|168:208|168:208|216:236,1,176.000005371094,4|8,0:0|0:0,0:0:0:0:
156,324,128458,1,0,0:0:0:0:
144,128,128628,2,0,P|187:134|232:144,1,88.000002685547
320,236,128967,2,0,P|368:232|428:220,1,88.000002685547,8|0,0:0|0:0,0:0:0:0:
356,56,129306,6,0,P|344:112|336:156,1,88.000002685547,2|0,0:0|0:0,0:0:0:0:
504,224,129645,2,0,P|486:183|467:143,1,88.000002685547,8|0,0:0|0:0,0:0:0:0:
260,156,129984,1,2,0:3:0:0:
296,328,130153,1,2,0:3:0:0:
392,272,130323,1,8,0:0:0:0:
216,256,130492,1,0,0:0:0:0:
420,360,130662,6,0,L|427:184,1,176.000005371094,2|8,0:0|0:0,0:0:0:0:
281,104,131170,1,0,0:0:0:0:
281,104,131255,1,0,0:0:0:0:
281,104,131340,2,0,P|286:148|292:192,1,88.000002685547,0|0,0:0|0:0,0:0:0:0:
440,168,131678,1,8,0:0:0:0:
424,68,131848,1,0,0:0:0:0:
297,216,132017,5,2,0:0:0:0:
328,312,132187,1,0,0:0:0:0:
452,356,132356,2,0,L|472:260,1,88.000002685547,12|0,0:0|0:0,0:0:0:0:
440,168,132695,1,2,0:3:0:0:
281,104,132865,1,0,0:0:0:0:
184,172,133034,1,8,0:0:0:0:
297,216,133204,1,8,0:3:0:0:
140,76,133373,6,0,L|152:256,1,176.000005371094,4|8,0:0|0:0,0:0:0:0:
308,303,133882,2,0,P|303:259|297:216,1,88.000002685547,0|0,0:0|0:0,0:0:0:0:
184,172,134221,1,0,0:0:0:0:
92,224,134390,1,8,0:0:0:0:
184,280,134560,1,0,0:0:0:0:
48,136,134729,6,0,P|52:80|56:20,1,88.000002685547,2|0,0:0|0:0,0:0:0:0:
216,8,135068,2,0,P|220:64|224:124,1,88.000002685547,8|0,0:0|0:0,0:0:0:0:
92,224,135407,1,2,0:3:0:0:
20,116,135577,1,2,0:3:0:0:
222,95,135746,2,0,L|352:116,1,132.00000402832,8|8,0:0|0:0,0:0:0:0:
432,144,136085,6,0,P|412:204|404:236,1,88.000002685547,4|0,0:0|0:0,0:0:0:0:
508,228,136424,1,8,0:0:0:0:
300,228,136594,2,0,L|307:272|314:316,1,88.000002685547,2|0,0:0|0:0,0:0:0:0:
432,144,136933,1,2,0:0:0:0:
432,144,137102,1,8,0:0:0:0:
196,108,137272,6,0,L|192:292,1,176.000005371094,4|8,0:0|0:0,0:0:0:0:
300,228,137780,1,8,0:0:0:0:
180,84,137950,1,0,0:0:0:0:
80,208,138119,6,0,L|96:336,1,120,8|0,0:3|0:0,0:0:0:0:
165,371,138458,2,0,L|168:356|176:292,1,80,12|0,0:3|0:0,0:0:0:0:
300,228,138797,6,0,L|282:53,1,176.000005371094,4|8,0:0|0:0,0:0:0:0:
396,24,139306,1,0,0:0:0:0:
448,180,139475,2,0,P|440:256|436:296,1,88.000002685547,0|0,0:0|0:0,0:0:0:0:
308,340,139814,1,8,0:0:0:0:
223,227,139984,1,0,0:0:0:0:
361,162,140153,6,0,P|405:170|448:180,1,88.000002685547,2|0,0:0|0:0,0:0:0:0:
240,80,140492,2,0,P|300:60|352:44,1,88.000002685547,8|0,0:0|0:0,0:0:0:0:
223,227,140831,1,2,0:3:0:0:
156,160,141001,1,2,0:3:0:0:
362,162,141170,2,0,P|356:224|352:264,1,88.000002685547,8|0,0:0|0:0,0:0:0:0:
480,360,141509,6,0,L|464:176,1,176.000005371094,2|8,0:0|0:0,0:0:0:0:
352,64,142017,1,2,0:0:0:0:
352,64,142102,1,0,0:0:0:0:
352,64,142187,2,0,P|280:80|248:88,1,88.000002685547,0|0,0:0|0:0,0:0:0:0:
347,248,142526,2,0,P|355:205|362:162,1,88.000002685547,8|0,0:0|0:0,0:0:0:0:
228,192,142865,5,0,0:0:0:0:
228,192,143034,1,0,0:0:0:0:
320,332,143204,2,0,P|372:340|424:352,1,88.000002685547,8|0,0:0|0:0,0:0:0:0:
180,364,143543,5,2,0:3:0:0:
228,192,143712,1,2,0:3:0:0:
104,248,143882,1,8,0:0:0:0:
304,288,144051,1,4,0:3:0:0:
304,288,144136,1,4,0:3:0:0:
304,288,144221,6,0,L|488:272,1,176.000005371094,4|8,0:0|0:0,0:0:0:0:
352,168,144729,1,2,0:0:0:0:
348,376,144899,1,0,0:0:0:0:
464,296,145068,1,0,0:0:0:0:
264,196,145238,2,0,P|220:188|176:183,1,88.000002685547,8|0,0:0|0:0,0:0:0:0:
212,316,145577,5,2,0:0:0:0:
348,376,145746,1,0,0:0:0:0:
448,255,145916,2,0,P|454:211|460:168,1,88.000002685547,8|0,0:0|0:0,0:0:0:0:
348,376,146255,1,2,0:0:0:0:
336,264,146424,1,2,0:0:0:0:
312,152,146594,2,0,P|232:172|180:188,1,132.00000402832,10|8,0:0|0:0,0:0:0:0:
112,192,146933,5,4,0:0:0:0:
216,88,147102,1,8,0:3:0:0:
336,264,147272,1,8,0:0:0:0:
80,356,147441,2,0,P|85:312|88:269,1,88.000002685547
196,184,147780,1,0,0:0:0:0:
244,308,147950,1,0,0:0:0:0:
108,160,148119,6,0,L|284:148,1,176.000005371094,2|0,0:0|0:0,0:0:0:0:
412,204,148628,1,8,0:0:0:0:
244,308,148797,1,4,0:3:0:0:
244,308,148882,1,4,0:3:0:0:
244,308,148967,2,0,L|164:292|104:280,1,132.00000402832,0|0,0:0|0:0,0:0:0:0:
56,240,149306,2,0,L|76:152,1,88.000002685547,8|8,0:3|0:3,0:0:0:0:
228,136,149645,5,2,0:0:0:0:
264,220,149814,1,0,0:0:0:0:
244,308,149984,1,8,0:0:0:0:
152,92,150153,2,0,L|348:108,1,176.000005371094,2|0,0:0|0:0,0:0:0:0:
244,308,150662,1,8,0:0:0:0:
160,204,150831,1,0,0:0:0:0:
344,192,151001,6,0,L|380:200|436:212,1,88.000002685547,2|0,0:0|0:0,0:0:0:0:
244,308,151340,1,8,0:0:0:0:
208,320,151424,1,2,0:0:0:0:
168,316,151509,1,2,0:0:0:0:
132,300,151594,1,2,0:0:0:0:
108,268,151678,6,0,L|100:364|96:392,1,88.000002685547,2|0,0:0|0:0,0:0:0:0:
32,376,151933,2,0,P|23:319|11:236,1,132.00000402832,2|2,0:0|0:0,0:0:0:0:
135,124,152356,6,0,L|132:300,1,176.000005371094,2|8,0:0|0:0,0:0:0:0:
244,308,152865,2,0,P|304:296|356:284,1,88.000002685547
428,200,153204,2,0,P|412:152|400:112,1,88.000002685547,0|8,0:0|0:0,0:0:0:0:
279,16,153543,6,0,L|276:192,1,176.000005371094,2|0,0:0|0:0,0:0:0:0:
392,112,154051,1,8,0:0:0:0:
164,216,154221,2,0,P|168:172|175:129,1,88.000002685547,4|0,0:0|0:0,0:0:0:0:
296,176,154560,1,0,0:0:0:0:
352,260,154729,1,8,0:0:0:0:
208,320,154899,1,4,0:3:0:0:
296,176,155068,6,0,L|352:168,1,44.0000013427735,2|2,0:3|0:3,0:0:0:0:
416,132,155238,2,0,P|432:252|444:332,1,176.000005371094,2|0,0:3|0:0,0:0:0:0:
346,347,155746,2,0,P|349:303|352:260,1,88.000002685547,2|0,0:3|0:0,0:0:0:0:
416,132,156085,1,8,0:0:0:0:
484,208,156255,1,0,0:0:0:0:
296,176,156424,6,0,P|228:176|176:172,1,88.000002685547,2|0,0:0|0:0,0:0:0:0:
256,80,156763,1,8,0:0:0:0:
268,268,156933,2,0,B|212:264|136:256|136:256|96:228,1,176.000005371094,2|0,0:0|0:0,0:0:0:0:
72,88,157441,2,0,P|112:100|200:132,1,132.00000402832,8|8,0:0|0:0,0:0:0:0:
256,80,157780,5,4,0:0:0:0:
160,220,157950,1,0,0:0:0:0:
296,176,158119,1,8,0:0:0:0:
72,88,158289,2,0,B|64:156|56:232|56:232|28:204,1,176.000005371094,2|0,0:0|0:0,0:0:0:0:
184,140,158797,1,8,0:0:0:0:
284,216,158967,1,0,0:0:0:0:
184,304,159136,6,0,L|92:292,1,88.000002685547,2|0,0:0|0:0,0:0:0:0:
160,220,159475,1,8,0:0:0:0:
196,376,159645,2,0,B|68:360|68:360|24:324,1,176.000005371094,2|0,0:0|0:0,0:0:0:0:
247,182,160153,2,0,P|259:224|268:268,1,88.000002685547,8|0,0:0|0:0,0:0:0:0:
196,376,160492,5,0,0:0:0:0:
80,288,160662,1,8,0:0:0:0:
80,288,160746,1,8,0:0:0:0:
80,288,160831,2,0,L|88:228|96:168,1,88.000002685547,8|8,0:0|0:0,0:0:0:0:
44,140,161085,2,0,B|88:108|144:100|144:100|152:136,1,132.00000402832,2|8,0:3|0:0,0:0:0:0:
247,182,161509,2,0,P|259:114|267:70,1,88.000002685547,10|0,0:0|0:0,0:0:0:0:
184,20,161848,5,4,0:1:0:0:
164,224,162017,2,0,L|352:204,1,176.000005371094,2|0,0:0|0:0,0:0:0:0:
384,308,162526,2,0,P|332:304|280:296,1,88.000002685547,8|0,0:0|0:0,0:0:0:0:
146,310,162865,2,0,P|154:267|164:224,1,88.000002685547,8|4,0:0|0:3,0:0:0:0:
200,152,163119,1,4,0:3:0:0:
200,152,163204,6,0,L|248:144,3,44.0000013427735,2|0|0|0,3:0|3:0|3:0|3:0,0:0:0:0:
124,80,163543,2,0,L|72:72,3,44.0000013427735,8|0|0|0,0:0|3:0|3:0|3:0,0:0:0:0:
124,200,163882,5,2,3:0:0:0:
156,224,163967,1,0,1:0:0:0:
192,236,164051,1,0,1:0:0:0:
232,228,164136,1,0,1:0:0:0:
264,204,164221,1,8,0:0:0:0:
284,168,164306,1,0,1:0:0:0:
200,152,164390,6,0,P|292:168|384:192,1,176.000005371094,4|8,0:0|0:3,0:0:0:0:
312,40,164899,1,4,0:0:0:0:
288,56,165238,6,0,P|224:60|152:64,1,120.000004577637,2|2,0:3|0:3,0:0:0:0:
104,140,165746,1,2,0:3:0:0:
104,140,165831,1,2,0:3:0:0:
104,140,165916,1,4,0:1:0:0:
256,192,174051,12,4,175746,0:3:0:0:
64,176,176085,5,8,0:0:0:0:
92,200,176170,1,8,0:0:0:0:
128,208,176255,1,8,0:0:0:0:
164,196,176340,1,0,0:0:0:0:
192,172,176424,1,8,0:0:0:0:
228,168,176509,1,8,0:0:0:0:
260,184,176594,1,8,0:0:0:0:
280,212,176678,1,8,0:0:0:0:
216,244,176763,6,0,L|226:68,1,176.000005371094,4|8,0:0|0:0,0:0:0:0:
320,16,177272,1,0,0:0:0:0:
380,96,177441,2,0,L|372:152|360:208,1,88.000002685547
226,68,177780,2,0,P|180:56|132:44,1,88.000002685547,8|0,0:0|0:0,0:0:0:0:
64,180,178119,6,0,B|116:152|196:164|196:164|232:200,1,176.000005371094,2|8,0:0|0:0,0:0:0:0:
212,320,178628,1,0,0:0:0:0:
124,268,178797,1,2,0:3:0:0:
168,128,178967,1,2,0:3:0:0:
280,232,179136,1,10,0:0:0:0:
64,180,179306,1,2,0:0:0:0:
308,120,179475,6,0,P|316:172|336:320,1,176.000005371094,2|8,0:0|0:0,0:0:0:0:
124,268,179984,2,0,P|88:232|112:116,1,176.000005371094
252,212,180492,2,0,P|204:200|148:180,1,88.000002685547,8|0,0:0|0:0,0:0:0:0:
308,120,180831,5,2,0:0:0:0:
308,120,181001,1,0,0:0:0:0:
308,308,181170,2,0,P|244:304|184:300,1,88.000002685547,12|0,0:0|0:0,0:0:0:0:
252,212,181509,1,2,0:3:0:0:
364,248,181678,1,0,0:0:0:0:
216,384,181848,1,8,0:0:0:0:
132,228,182017,1,8,0:3:0:0:
240,76,182187,6,0,P|324:96|420:120,1,176.000005371094,4|8,0:0|0:0,0:0:0:0:
403,231,182695,2,0,P|343:239|299:247,1,88.000002685547
230,185,183034,1,0,0:0:0:0:
344,44,183204,2,0,P|356:92|368:148,1,88.000002685547,8|0,0:0|0:0,0:0:0:0:
230,185,183543,6,0,P|180:176|136:168,1,88.000002685547,2|0,0:0|0:0,0:0:0:0:
258,64,183882,2,0,P|300:52|344:44,1,88.000002685547,8|0,0:0|0:0,0:0:0:0:
403,231,184221,1,2,0:0:0:0:
372,136,184390,1,2,0:0:0:0:
472,268,184560,2,0,P|412:276|332:288,1,132.00000402832,10|8,0:0|0:0,0:0:0:0:
268,264,184899,6,0,P|272:176|272:136,1,88.000002685547,4|0,0:0|0:0,0:0:0:0:
164,228,185238,1,8,0:0:0:0:
403,231,185407,2,0,B|391:99|391:99|367:51,1,176.000005371094,2|2,0:0|0:0,0:0:0:0:
216,64,185916,1,8,0:0:0:0:
324,156,186085,6,0,P|400:148|508:136,1,176.000005371094,4|8,0:0|0:0,0:0:0:0:
360,32,186594,1,12,0:3:0:0:
360,32,186763,1,8,0:3:0:0:
216,64,186933,5,0,1:0:0:0:
221,104,187017,1,0,1:0:0:0:
226,144,187102,1,0,1:0:0:0:
232,184,187187,1,0,1:0:0:0:
280,172,187272,5,14,3:0:0:0:
324,196,187356,1,8,3:0:0:0:
332,244,187441,1,12,3:0:0:0:
308,284,187526,1,8,3:0:0:0:
260,296,187611,6,0,L|204:288,1,44.0000013427735,12|4,0:3|0:3,0:0:0:0:
96,220,187780,2,0,L|148:208,1,44.0000013427735,12|12,0:3|0:3,0:0:0:0:
224,368,187950,6,0,B|84:352|84:352|40:328,1,176.000005371094,4|0,0:0|0:0,0:0:0:0:
196,184,188458,1,0,0:0:0:0:
296,244,188628,2,0,P|328:292|356:344,1,88.000002685547,8|0,0:0|0:0,0:0:0:0:
224,368,188967,6,0,P|168:348|124:332,1,88.000002685547,2|0,0:0|0:0,0:0:0:0:
196,184,189306,2,0,P|216:120|232:68,1,88.000002685547,8|0,0:0|0:0,0:0:0:0:
324,68,189645,1,2,0:3:0:0:
380,168,189814,1,2,0:3:0:0:
208,208,189984,2,0,P|144:216|88:224,1,88.000002685547,8|0,0:0|0:0,0:0:0:0:
80,336,190323,6,0,P|220:324|292:316,1,176.000005371094,2|8,0:0|0:0,0:0:0:0:
384,260,190831,1,2,0:0:0:0:
384,260,190916,1,2,0:0:0:0:
384,260,191001,2,0,P|400:316|408:352,1,88.000002685547,2|2,0:0|0:0,0:0:0:0:
208,208,191340,2,0,P|256:184|292:168,1,88.000002685547,8|0,0:0|0:0,0:0:0:0:
428,160,191678,5,2,0:0:0:0:
316,304,191848,1,0,0:0:0:0:
280,96,192017,1,12,0:0:0:0:
384,260,192187,1,0,0:0:0:0:
188,228,192356,1,2,0:3:0:0:
340,176,192526,1,0,0:0:0:0:
188,228,192695,1,8,0:0:0:0:
176,260,192780,1,0,0:0:0:0:
160,292,192865,1,4,0:3:0:0:
140,320,192950,1,12,0:3:0:0:
120,348,193034,6,0,P|118:261|118:173,1,176.000005371094,4|8,0:0|0:0,0:0:0:0:
280,96,193543,2,0,P|286:140|291:184,1,88.000002685547
176,260,193882,1,0,0:0:0:0:
128,160,194051,1,8,0:0:0:0:
284,276,194221,1,0,0:0:0:0:
56,232,194390,5,4,0:0:0:0:
128,160,194560,1,0,0:0:0:0:
196,344,194729,2,0,P|152:352|107:358,1,88.000002685547,8|0,0:0|0:0,0:0:0:0:
284,276,195068,2,0,L|337:284,1,44.0000013427735,0|8,0:0|0:0,0:0:0:0:
364,200,195238,2,0,L|412:224,1,44.0000013427735
472,276,195407,2,0,P|460:328|448:376,1,88.000002685547,8|0,0:0|0:0,0:0:0:0:
284,276,195746,5,4,0:0:0:0:
364,200,195916,1,8,0:3:0:0:
376,360,196085,1,4,0:3:0:0:
216,348,196255,2,0,P|168:332|116:308,1,88.000002685547
24,328,196594,2,0,P|36:268|52:208,1,88.000002685547,4|8,0:3|0:0,0:0:0:0:
168,80,196933,6,0,L|204:260,1,176.000005371094,4|0,0:0|0:0,0:0:0:0:
60,212,197441,1,8,0:0:0:0:
76,120,197611,1,4,0:3:0:0:
276,124,197780,2,0,P|292:188|300:232,1,88.000002685547,6|0,0:3|1:0,0:0:0:0:
356,320,198119,1,8,0:3:0:0:
320,308,198204,1,0,1:0:0:0:
284,296,198289,1,0,1:0:0:0:
248,284,198373,1,0,1:0:0:0:
216,268,198458,6,0,L|384:244,1,160,4|0,0:0|0:0,0:0:0:0:
472,152,198967,2,0,L|400:140|376:136,1,80,0|0,0:0|0:0,0:0:0:0:
440,48,199306,1,0,0:0:0:0:
472,252,199475,1,0,0:0:0:0:
256,192,199645,6,0,L|272:16,1,160,4|0,0:0|0:0,0:0:0:0:
440,48,200153,2,0,P|448:104|452:152,1,80,8|0,0:0|0:0,0:0:0:0:
364,268,200492,1,0,3:0:0:0:
328,276,200577,1,0,3:0:0:0:
292,288,200662,1,0,3:0:0:0:
256,296,200746,1,0,3:0:0:0:
220,304,200831,2,0,P|224:204|224:168,1,120,8|2,0:0|3:0,0:0:0:0:
184,120,201170,6,0,P|144:111|105:103,1,80,2|0,0:0|0:0,0:0:0:0:
112,216,201509,1,8,0:0:0:0:
300,192,201678,2,0,B|416:168|416:168|468:124,1,160
384,40,202187,1,8,0:0:0:0:
208,112,202356,6,0,B|216:176|212:212|212:212|220:236|220:236|216:264|224:308,1,160,4|0,0:0|0:0,0:0:0:0:
152,352,202865,1,8,0:0:0:0:
88,228,203034,1,0,0:0:0:0:
328,216,203204,2,0,P|316:272|308:324,1,80,12|0,0:0|0:0,0:0:0:0:
424,280,203543,2,0,P|432:336|440:376,1,80,8|0,0:0|0:0,0:0:0:0:
236,348,203882,6,0,B|180:340|116:332|116:332|68:292,1,160,2|8,0:0|0:0,0:0:0:0:
52,180,204390,1,0,0:0:0:0:
176,184,204560,2,0,P|228:208|264:232,1,80,0|0,0:0|0:0,0:0:0:0:
392,212,204899,2,0,P|384:268|368:352,1,120,8|8,0:0|0:0,0:0:0:0:
310,378,205238,6,0,P|272:364|236:348,1,80,2|0,0:0|0:0,0:0:0:0:
96,360,205577,2,0,P|88:296|88:256,1,80,8|0,0:0|0:0,0:0:0:0:
176,184,205916,2,0,L|224:176,2,40,0|8|0,0:0|0:0|0:0,0:0:0:0:
88,84,206255,1,8,0:0:0:0:
200,48,206424,1,0,0:0:0:0:
356,132,206594,6,0,L|344:320,1,160,4|8,0:0|0:0,0:0:0:0:
176,184,207102,2,0,P|180:264|184:360,1,160,0|0,0:0|0:0,0:0:0:0:
80,292,207611,1,8,0:0:0:0:
272,296,207780,6,0,B|324:304|368:280|368:280|392:284|392:284|420:280|456:292,1,160,4|0,0:0|0:0,0:0:0:0:
300,200,208289,1,4,0:0:0:0:
128,236,208458,2,0,B|136:296|140:368|140:368|104:328,1,160,4|4,0:1|0:3,0:0:0:0:
272,296,208967,1,12,0:3:0:0:
300,316,209051,1,0,0:0:0:0:
336,316,209136,1,0,0:0:0:0:
368,304,209221,1,0,0:0:0:0:
392,276,209306,6,0,P|352:268|313:261,1,80,2|0,0:0|0:0,0:0:0:0:
128,236,209645,2,0,P|117:283|111:322,1,80,8|0,0:0|0:0,0:0:0:0:
272,296,209984,1,8,0:0:0:0:
208,104,210153,1,8,0:3:0:0:
208,104,210238,1,8,0:3:0:0:
208,104,210323,1,12,0:3:0:0:
60,164,210492,1,0,0:0:0:0:
336,196,210662,1,4,0:1:0:0:
256,192,210746,12,4,212017,0:3:0:0:
