osu file format v14

[General]
AudioFilename: ao.mp3
AudioLeadIn: 0
PreviewTime: 179251
Countdown: 0
SampleSet: Soft
StackLeniency: 0.7
Mode: 0
LetterboxInBreaks: 0
WidescreenStoryboard: 1

[Editor]
Bookmarks: 16620,35567,43146,73462,81041,99988,103462,118619,126198,164093,171672,179251,217146,232304
DistanceSpacing: 1
BeatDivisor: 4
GridSize: 16
TimelineZoom: 3.999998

[Metadata]
Title:Ao
TitleUnicode:蒼
Artist:Hanatan
ArtistUnicode:花たん
Creator:den0saur
Version:Yakusoku
Source:
Tags:YURiCa ユリカ Jiwataneho j-rock utaite
BeatmapID:1494229
BeatmapSetID:706702

[Difficulty]
HPDrainRate:7
CircleSize:4
OverallDifficulty:8.7
ApproachRate:9.1
SliderMultiplier:1.7
SliderTickRate:1

[Events]
//Background and Video events
0,0,"GUMI.full.864398_waifu2x_art_scale_tta_1.jpg",0,0
//Break Periods
2,35767,41614
2,164292,171088
//Storyboard Layer 0 (Background)
//Storyboard Layer 1 (Fail)
//Storyboard Layer 2 (Pass)
//Storyboard Layer 3 (Foreground)
//Storyboard Sound Samples

[TimingPoints]
1147,315.789473684211,4,2,3,70,1,0
1147,-71.4285714285714,4,2,3,70,0,0
2410,315.789473684211,6,2,3,70,1,0
3988,-71.4285714285714,6,2,3,70,0,0
5883,-100,6,2,3,70,0,0
7778,-71.4285714285714,6,2,3,70,0,0
9673,-64.5161290322581,6,2,3,70,0,0
11567,-71.4285714285714,6,2,3,70,0,0
16620,315.789473684211,3,2,3,80,1,0
16620,-100,3,2,3,85,0,1
35567,-100,3,2,3,85,0,0
43067,-100,3,2,3,5,0,0
43146,-166.666666666667,3,2,3,50,0,0
57988,-166.666666666667,3,2,3,60,0,0
58304,-133.333333333333,3,2,3,60,0,0
73462,-117.647058823529,3,2,3,70,0,0
81041,-100,3,2,3,85,0,1
99988,315.789473684211,5,2,3,70,1,0
99988,-71.4285714285714,5,2,3,70,0,0
101566,315.789473684211,6,2,3,70,1,0
101566,-71.4285714285714,6,2,3,70,0,0
103462,315.789473684211,3,2,3,60,1,0
103462,-133.333333333333,3,2,3,60,0,0
118619,-117.647058823529,3,2,3,70,0,0
124304,-107.52688172043,3,2,3,70,0,0
126198,-100,3,2,3,80,0,0
148304,-133.333333333333,3,2,3,80,0,0
148935,-100,3,2,3,80,0,0
155567,-80,3,2,3,80,0,0
155725,-100,3,2,3,80,0,0
171672,-100,3,2,3,40,0,0
179251,-100,3,2,3,85,0,1
197251,-100,3,2,3,85,0,0
198198,-100,3,2,3,85,0,1
216198,-100,3,2,3,85,0,0
217146,-100,3,2,3,85,0,1
223777,-100,3,2,3,85,0,0
224725,-100,3,2,3,85,0,1
226619,-95.2380952380952,3,2,3,85,0,1
228514,-90.9090909090909,3,2,3,85,0,1
230093,-133.333333333333,3,2,3,85,0,1
230409,-86.9565217391304,3,2,3,85,0,1
231356,-83.3333333333333,3,2,3,85,0,1
232304,-100,3,2,3,95,0,0
233251,-100,3,2,3,70,0,0
235146,-100,3,2,3,50,0,0
237988,-100,3,2,3,40,0,0
240830,-100,3,2,3,30,0,0
242093,-100,3,2,3,20,0,0
243277,-100,3,2,3,10,0,0

[Colours]
Combo1 : 91,207,251
Combo2 : 217,204,170
Combo3 : 177,197,177
Combo4 : 255,40,83
Combo5 : 255,26,140
Combo6 : 36,149,240

[HitObjects]
167,384,1147,5,4,1:1:0:0:
160,349,1225,1,0,1:0:0:0:
175,320,1304,1,0,1:0:0:0:
450,257,1620,1,0,1:0:0:0:
457,292,1698,1,0,1:0:0:0:
442,321,1777,1,4,1:2:0:0:
442,321,2094,22,2,B|367:328|367:328|344:348|344:348|271:355,1,178.499994552612,0|0,0:0|0:0,0:1:0:0:
172,288,2410,69,4,1:1:0:0:
180,250,2488,1,0,1:0:0:0:
163,219,2567,1,0,1:0:0:0:
73,161,2724,1,0,1:0:0:0:
38,176,2803,1,0,1:0:0:0:
21,208,2882,1,0,1:2:0:0:
14,313,3040,1,0,1:0:0:0:
45,336,3119,1,0,1:0:0:0:
80,334,3198,1,4,1:2:0:0:
223,102,3514,1,0,1:0:0:0:
252,81,3593,1,0,1:0:0:0:
291,86,3672,1,4,1:2:0:0:
291,86,3988,22,2,B|268:-1|268:-1|261:87,1,178.499994552612,0|0,0:0|0:0,0:1:0:0:
281,212,4303,37,4,1:1:0:0:
310,235,4382,1,0,1:0:0:0:
346,235,4461,1,0,1:0:0:0:
488,132,4619,1,0,1:0:0:0:
452,145,4698,1,0,1:0:0:0:
433,176,4777,1,0,1:2:0:0:
452,351,4935,1,0,1:0:0:0:
459,314,5014,1,0,1:0:0:0:
442,281,5093,1,4,1:2:0:0:
127,80,5409,1,0,1:0:0:0:
98,101,5488,1,0,1:0:0:0:
59,96,5566,1,4,1:2:0:0:
59,96,5883,22,2,L|65:23,1,42.5,0|0,0:0|0:0,0:1:0:0:
3,169,6041,2,2,L|7:229,1,42.5,0|0,0:0|0:0,0:1:0:0:
211,118,6200,69,4,1:1:0:0:
249,110,6279,1,0,1:0:0:0:
280,126,6358,1,0,1:0:0:0:
338,217,6516,1,0,1:0:0:0:
323,253,6595,1,0,1:0:0:0:
291,269,6674,1,0,1:2:0:0:
185,277,6832,1,0,1:0:0:0:
162,245,6910,1,0,1:0:0:0:
165,210,6989,1,4,1:2:0:0:
499,259,7305,1,0,1:0:0:0:
501,296,7384,1,0,1:0:0:0:
476,330,7463,1,4,1:2:0:0:
476,330,7778,22,2,P|388:332|317:384,1,178.499994552612,0|0,0:0|0:0,0:1:0:0:
147,348,8094,37,4,1:0:0:0:
131,312,8172,1,0,1:0:0:0:
100,295,8251,1,0,1:0:0:0:
276,258,8410,1,0,1:0:0:0:
253,289,8489,1,0,1:0:0:0:
254,326,8568,1,0,1:2:0:0:
135,191,8726,1,0,1:0:0:0:
173,195,8803,1,0,1:0:0:0:
203,175,8884,1,4,1:2:0:0:
473,136,9198,1,0,1:0:0:0:
481,103,9277,1,0,1:0:0:0:
467,71,9356,1,4,1:2:0:0:
467,71,9673,22,2,B|346:88|388:17|272:29,1,197.625001507759,0|0,0:0|0:0,0:1:0:0:
224,125,9989,69,4,1:0:0:0:
235,159,10068,1,0,1:0:0:0:
266,180,10146,1,0,1:0:0:0:
140,66,10305,1,0,1:0:0:0:
163,39,10384,1,0,1:0:0:0:
164,0,10462,1,0,1:2:0:0:
134,162,10619,1,0,1:0:0:0:
98,156,10698,1,0,1:0:0:0:
64,174,10777,1,4,1:2:0:0:
417,243,11093,1,0,1:0:0:0:
445,268,11172,1,0,1:0:0:0:
453,308,11251,1,4,1:2:0:0:
453,308,11567,22,2,B|364:329|364:329|287:286,1,178.499994552612,0|0,0:0|0:0,0:1:0:0:
122,207,11883,37,4,1:1:0:0:
88,226,11961,1,0,1:0:0:0:
52,223,12040,1,0,1:0:0:0:
22,328,12199,1,0,1:0:0:0:
57,346,12277,1,0,1:0:0:0:
71,381,12356,1,0,1:0:0:0:
178,352,12515,1,0,1:0:0:0:
176,314,12594,1,0,1:0:0:0:
198,284,12673,1,4,1:2:0:0:
362,10,12989,1,0,1:0:0:0:
375,48,13068,1,0,1:0:0:0:
361,85,13147,1,4,1:2:0:0:
361,85,13462,22,2,L|383:101,1,29.7499990921021,0|0,0:0|0:0,0:1:0:0:
348,106,13541,2,2,L|377:110,1,29.7499990921021,0|0,0:0|0:0,0:1:0:0:
344,125,13620,2,2,L|373:120,1,29.7499990921021,0|0,0:0|0:0,0:1:0:0:
350,144,13699,2,2,L|375:127,1,29.7499990921021,0|0,0:0|0:0,0:1:0:0:
366,161,13778,69,4,1:1:0:0:
403,168,13856,1,0,1:0:0:0:
426,195,13935,1,0,1:0:0:0:
279,297,14093,1,0,1:0:0:0:
270,259,14172,1,0,1:0:0:0:
287,227,14251,1,0,1:0:0:0:
444,301,14411,1,0,1:0:0:0:
416,329,14489,1,0,1:0:0:0:
380,331,14568,1,4,1:2:0:0:
158,164,14883,1,0,1:0:0:0:
128,128,14961,1,0,1:0:0:0:
86,131,15040,1,4,1:2:0:0:
86,131,15357,22,2,P|130:49|215:46,1,178.499994552612,0|0,0:0|0:0,0:1:0:0:
154,205,15672,37,4,1:0:0:0:
146,235,15751,1,0,1:0:0:0:
167,273,15830,1,0,1:0:0:0:
208,286,15909,1,0,1:0:0:0:
249,268,15988,1,0,1:0:0:0:
303,251,16067,1,0,1:0:0:0:
361,262,16146,1,0,1:0:0:0:
403,308,16225,1,0,1:0:0:0:
398,375,16305,1,10,0:1:0:0:
398,375,16620,54,0,L|389:282,1,85,4|0,1:0|0:0,0:0:0:0:
485,260,16935,1,2,0:0:0:0:
274,124,17093,2,0,L|265:208,1,85,2|8,1:2|0:1,0:0:0:0:
179,169,17409,1,2,0:0:0:0:
508,137,17567,6,0,P|425:123|368:63,1,170,4|0,1:2|0:0,0:0:0:0:
205,271,18041,1,0,1:0:0:0:
358,206,18198,1,8,0:1:0:0:
306,294,18356,1,0,0:0:0:0:
146,191,18514,70,0,P|63:204|6:264,1,170,4|0,1:2|0:0,0:0:0:0:
224,369,18988,1,4,1:2:0:0:
173,289,19146,1,8,0:1:0:0:
89,342,19304,1,2,0:0:0:0:
13,135,19462,2,0,P|14:89|10:47,1,85,4|0,1:2|0:0,0:0:0:0:
167,87,19777,1,0,1:2:0:0:
167,87,19856,1,0,1:0:0:0:
167,87,19935,1,0,1:0:0:0:
167,87,20015,1,0,1:0:0:0:
167,87,20094,1,8,0:1:0:0:
167,87,20409,6,0,L|260:96,1,85,4|0,1:0|0:0,0:0:0:0:
284,186,20724,1,2,0:0:0:0:
495,75,20883,2,0,L|402:84,1,85,2|8,1:2|0:1,0:0:0:0:
349,9,21198,1,2,0:0:0:0:
350,260,21356,70,0,B|464:253|400:214|515:206,1,170,4|2,1:2|0:0,0:0:0:0:
409,345,21830,1,0,1:0:0:0:
246,304,21988,2,0,P|248:261|245:218,1,85,8|0,0:1|0:0,0:0:0:0:
138,205,22304,5,4,1:2:0:0:
275,134,22462,1,2,1:2:0:0:
314,379,22620,1,4,1:2:0:0:
162,355,22777,1,2,1:2:0:0:
381,242,22935,1,8,0:1:0:0:
381,242,23014,1,8,0:1:0:0:
381,242,23093,1,8,0:1:0:0:
250,264,23250,69,8,0:1:0:0:
213,275,23329,1,8,0:1:0:0:
176,271,23408,1,4,0:3:0:0:
144,249,23487,1,8,0:3:0:0:
125,217,23566,1,8,0:1:0:0:
106,184,23645,1,8,0:1:0:0:
75,163,23724,1,8,0:1:0:0:
37,158,23803,1,8,0:1:0:0:
2,171,23882,1,0,1:0:0:0:
2,171,24198,6,0,P|-2:128|2:77,1,85,4|0,1:0|0:0,0:0:0:0:
100,213,24514,1,2,0:0:0:0:
316,152,24672,2,0,P|320:195|316:246,1,85,2|8,1:2|0:1,0:0:0:0:
222,108,24988,1,2,0:0:0:0:
463,69,25146,70,0,P|379:64|307:19,1,170,4|2,1:2|0:0,0:0:0:0:
214,194,25620,1,0,1:0:0:0:
216,1,25777,1,8,0:1:0:0:
277,103,25935,1,0,0:0:0:0:
0,146,26093,6,0,P|71:101|155:96,1,170,4|0,1:2|0:0,0:0:0:0:
383,264,26567,1,4,1:2:0:0:
296,328,26725,2,0,L|286:233,1,85,8|2,0:1|0:0,0:0:0:0:
167,275,27041,1,4,1:2:0:0:
14,238,27198,1,0,1:0:0:0:
81,298,27356,69,8,0:1:0:0:
308,159,27514,1,0,1:0:0:0:
503,331,27672,1,8,0:1:0:0:
503,331,27988,38,0,L|325:309,1,170,4|2,1:0|0:3,0:0:0:0:
5,198,28462,1,0,1:0:0:0:
58,266,28620,2,0,L|151:254,1,85,2|0,0:3|0:0,0:0:0:0:
245,369,28935,2,0,P|238:284|242:199,2,170,10|2|2,0:1|0:3|1:3,0:0:0:0:
245,369,29883,54,0,L|340:354,1,85,4|0,1:0|0:0,0:0:0:0:
342,208,30198,1,2,0:3:0:0:
411,152,30356,2,0,L|494:166,1,85,0|2,1:0|0:3,0:0:0:0:
387,286,30673,1,0,0:0:0:0:
213,232,30830,2,0,P|143:236|19:227,2,170,10|2|2,0:1|0:3|1:3,0:0:0:0:
213,232,31777,22,0,L|205:140,1,85,4|0,1:0|0:0,0:0:0:0:
282,87,32094,1,2,0:3:0:0:
45,18,32251,2,0,L|37:110,1,85,0|2,1:0|0:3,0:0:0:0:
114,163,32568,1,0,0:0:0:0:
324,165,32726,2,0,P|393:161|518:170,2,170,10|2|2,0:1|0:3|1:3,0:0:0:0:
324,165,33672,54,0,L|309:334,1,170,4|2,1:0|0:3,0:0:0:0:
216,324,34146,1,0,1:0:0:0:
131,334,34304,1,2,0:3:0:0:
80,262,34461,1,2,0:3:0:0:
367,261,34620,1,10,0:1:0:0:
418,189,34778,1,0,1:0:0:0:
502,200,34935,69,8,0:1:0:0:
370,376,35092,1,8,0:1:0:0:
280,189,35252,1,8,0:1:0:0:
411,12,35409,1,8,0:1:0:0:
448,272,35567,37,4,1:0:0:0:
256,192,42198,12,0,43067,0:0:0:0:
165,237,43146,70,0,P|171:292|169:348,1,101.999996887207,4|0,1:0|0:0,0:0:0:0:
247,194,43620,1,0,1:0:0:0:
247,194,43777,1,0,1:0:0:0:
247,194,44093,2,0,L|310:187,1,50.9999984436036,8|0,0:1|0:0,0:0:0:0:
335,273,44409,1,0,0:0:0:0:
335,273,44725,1,0,0:0:0:0:
384,59,45041,6,0,P|333:63|282:62,1,101.999996887207,0|0,1:0|0:0,0:0:0:0:
235,142,45514,1,0,1:0:0:0:
235,142,45672,1,0,1:0:0:0:
235,142,45988,2,0,L|228:205,1,50.9999984436036,8|0,0:1|0:0,0:0:0:0:
136,95,46304,2,0,L|129:31,1,50.9999984436036,4|0,0:0|0:0,0:0:0:0:
401,178,46619,1,0,0:0:0:0:
401,178,46935,70,0,P|401:231|405:280,1,101.999996887207,0|0,1:0|0:0,0:0:0:0:
496,308,47409,1,0,1:0:0:0:
496,308,47567,1,0,1:0:0:0:
496,308,47883,1,8,0:1:0:0:
370,367,48198,1,4,0:0:0:0:
288,259,48514,1,0,0:0:0:0:
24,336,48830,6,0,P|75:334|126:337,1,101.999996887207,0|0,1:0|0:0,0:0:0:0:
190,123,49304,1,0,1:0:0:0:
190,123,49462,2,0,P|158:125|126:124,1,50.9999984436036,0|0,1:0|0:0,0:0:0:0:
93,255,49777,1,8,0:1:0:0:
165,219,49934,1,0,0:0:0:0:
202,291,50092,1,4,0:0:0:0:
352,161,50252,1,8,0:1:0:0:
352,161,50409,1,8,0:1:0:0:
352,161,50725,70,0,P|353:105|351:48,1,101.999996887207,4|0,1:0|0:0,0:0:0:0:
448,135,51198,1,0,1:0:0:0:
448,135,51356,1,0,1:0:0:0:
448,135,51672,2,0,L|511:140,1,50.9999984436036,8|0,0:1|0:0,0:0:0:0:
260,71,51988,1,4,0:0:0:0:
260,71,52304,1,0,1:0:0:0:
45,38,52620,6,0,P|48:89|47:140,1,101.999996887207,0|0,1:0|0:0,0:0:0:0:
122,198,53093,1,0,1:0:0:0:
122,198,53251,1,0,1:0:0:0:
51,247,53409,1,2,0:2:0:0:
51,247,53567,1,8,0:1:0:0:
208,204,53883,1,4,0:0:0:0:
322,319,54198,1,0,1:0:0:0:
471,183,54514,70,0,P|467:127|468:72,1,101.999996887207,0|0,1:0|0:0,0:0:0:0:
386,103,54988,1,0,1:0:0:0:
386,103,55146,1,0,1:0:0:0:
311,60,55304,1,2,0:2:0:0:
311,60,55462,1,8,0:1:0:0:
228,192,55777,1,4,0:0:0:0:
268,345,56092,1,0,1:0:0:0:
55,286,56409,6,0,L|157:275,1,101.999996887207,0|0,1:0|0:0,0:0:0:0:
420,343,56883,1,0,1:0:0:0:
420,343,57041,2,0,L|357:337,1,50.9999984436036,0|0,1:0|0:0,0:0:0:0:
480,201,57356,1,8,0:1:0:0:
480,201,57672,1,4,0:0:0:0:
480,201,57988,2,0,L|478:169,1,25.4999992218018,8|8,0:1|0:3,0:0:0:0:
420,123,58146,1,4,0:3:0:0:
405,135,58225,1,4,0:3:0:0:
389,134,58304,70,0,L|394:57,1,63.7500024318696,4|0,1:0|0:0,0:0:0:0:
393,70,58620,1,0,0:0:0:0:
137,76,58777,1,2,1:2:0:0:
137,76,58935,2,0,L|132:2,1,63.7500024318696,0|0,1:0|0:0,0:0:0:0:
215,210,59251,2,0,P|220:284|215:359,1,127.500004863739,10|0,0:1|0:0,0:0:0:0:
217,337,59883,1,8,0:1:0:0:
131,180,60198,6,0,L|54:185,1,63.7500024318696,2|0,1:2|0:0,0:0:0:0:
67,184,60514,1,0,0:0:0:0:
246,270,60671,1,2,1:2:0:0:
246,270,60830,2,0,L|319:274,1,63.7500024318696,0|0,1:0|0:0,0:0:0:0:
454,343,61146,2,0,P|457:267|444:188,2,127.500004863739,10|0|0,0:1|0:0|0:0,0:0:0:0:
366,357,61935,1,0,0:0:0:0:
364,92,62093,70,0,L|369:16,1,63.7500024318696,2|0,1:2|0:0,0:0:0:0:
368,28,62409,1,0,0:0:0:0:
246,146,62566,1,2,1:2:0:0:
246,146,62725,2,0,L|251:222,1,63.7500024318696,0|0,1:0|0:0,0:0:0:0:
13,237,63041,2,0,P|86:229|160:231,2,127.500004863739,10|0|2,0:1|0:0|0:0,0:0:0:0:
16,324,63830,1,0,0:0:0:0:
91,134,63988,6,0,L|86:60,1,63.7500024318696,2|0,1:2|0:0,0:0:0:0:
86,70,64304,1,0,0:0:0:0:
341,219,64462,1,2,1:2:0:0:
341,219,64620,2,0,L|336:292,1,63.7500024318696,0|0,1:0|0:0,0:0:0:0:
512,268,64935,1,10,0:1:0:0:
512,268,65251,37,2,0:3:0:0:
491,266,65409,1,2,0:3:0:0:
467,260,65567,1,2,0:3:0:0:
451,247,65725,1,2,0:3:0:0:
256,261,65883,22,0,L|167:273,1,63.7500024318696,4|0,1:0|0:0,0:0:0:0:
192,269,66198,1,0,0:0:0:0:
53,125,66356,1,2,1:2:0:0:
53,125,66514,2,0,L|117:134,1,63.7500024318696,0|2,1:0|0:0,0:0:0:0:
80,357,66830,2,0,P|76:294|83:230,1,127.500004863739,10|0,0:1|0:0,0:0:0:0:
83,230,67462,1,8,0:1:0:0:
177,244,67620,1,0,0:0:0:0:
315,181,67777,6,0,L|321:108,1,63.7500024318696,2|0,1:2|0:0,0:0:0:0:
320,117,68093,1,0,0:0:0:0:
176,13,68252,1,2,1:2:0:0:
176,13,68409,2,0,L|181:76,1,63.7500024318696,0|0,1:0|0:0,0:0:0:0:
464,63,68725,2,0,P|467:135|461:216,2,127.500004863739,10|2|2,0:1|0:0|0:0,0:0:0:0:
373,54,69514,1,0,0:0:0:0:
420,288,69672,70,0,L|493:297,1,63.7500024318696,2|0,1:2|0:0,0:0:0:0:
483,295,69989,1,0,0:0:0:0:
195,226,70146,1,2,1:2:0:0:
195,226,70304,2,0,L|121:235,1,63.7500024318696,0|2,1:0|0:0,0:0:0:0:
313,319,70620,2,0,P|319:244|316:166,2,127.500004863739,10|0|2,0:1|0:0|0:0,0:0:0:0:
227,315,71409,1,0,0:0:0:0:
230,125,71567,6,0,L|224:41,1,63.7500024318696,2|0,1:2|0:0,0:0:0:0:
225,61,71883,1,0,0:0:0:0:
138,310,72041,1,2,1:2:0:0:
138,310,72198,2,0,L|132:383,1,63.7500024318696,0|0,1:0|0:0,0:0:0:0:
0,186,72514,1,10,0:1:0:0:
52,187,72592,1,8,0:1:0:0:
99,162,72671,1,8,0:1:0:0:
129,119,72750,1,8,0:1:0:0:
132,67,72829,1,2,1:0:0:0:
131,67,73146,69,6,0:3:0:0:
198,229,73462,21,6,1:1:0:0:
292,265,73620,1,8,0:1:0:0:
345,186,73777,1,8,0:1:0:0:
488,292,73935,1,10,0:1:0:0:
488,292,74014,1,8,0:1:0:0:
488,292,74093,2,0,L|497:370,1,72.2500013780594,8|8,0:1|0:1,0:0:0:0:
411,134,74409,69,2,1:0:0:0:
317,98,74567,1,8,0:1:0:0:
264,177,74724,1,8,0:1:0:0:
71,129,74883,1,2,1:0:0:0:
60,38,75040,1,8,0:1:0:0:
60,38,75356,6,0,L|159:53,1,72.2500013780594,6|8,1:0|0:1,0:0:0:0:
440,209,75672,1,8,0:1:0:0:
440,209,75751,1,8,0:1:0:0:
440,209,75830,2,0,L|341:224,1,72.2500013780594,10|8,0:1|0:1,0:0:0:0:
248,374,76146,69,2,1:0:0:0:
14,316,76304,1,2,1:0:0:0:
300,295,76461,1,8,0:1:0:0:
158,334,76620,1,6,1:2:0:0:
158,334,76935,1,2,1:2:0:0:
149,308,77013,1,0,1:0:0:0:
148,281,77092,1,0,1:0:0:0:
154,255,77171,1,0,1:0:0:0:
167,237,77250,5,6,1:1:0:0:
265,210,77409,1,0,0:0:0:0:
454,384,77567,1,2,1:0:0:0:
356,365,77725,2,0,L|374:271,1,72.2500013780594,2|0,1:0|0:0,0:0:0:0:
107,168,78041,1,2,1:0:0:0:
2,203,78198,2,0,L|14:274,1,72.2500013780594,14|0,0:1|0:0,0:0:0:0:
360,195,78513,1,10,0:1:0:0:
356,144,78592,1,8,0:1:0:0:
323,110,78671,1,8,0:3:0:0:
277,100,78750,1,4,0:3:0:0:
232,118,78830,2,0,L|220:208,1,72.2500013780594,2|0,1:0|1:0,0:0:0:0:
189,316,79147,5,6,1:0:0:0:
288,301,79305,1,8,0:1:0:0:
111,63,79463,69,2,1:0:0:0:
67,176,79620,1,0,1:0:0:0:
371,146,79777,5,10,0:1:0:0:
279,28,79935,1,0,1:0:0:0:
279,254,80094,69,10,0:1:0:0:
279,254,80173,1,8,0:1:0:0:
279,254,80252,1,4,0:3:0:0:
279,254,80331,1,8,0:3:0:0:
279,254,80409,1,0,1:0:0:0:
298,194,80487,1,0,1:0:0:0:
272,139,80566,1,0,1:0:0:0:
215,114,80645,1,0,1:0:0:0:
157,134,80724,1,8,0:1:0:0:
157,134,81041,22,0,L|148:227,1,85,4|0,1:0|0:0,0:0:0:0:
52,174,81356,1,2,0:0:0:0:
256,281,81514,2,0,L|265:365,1,85,2|8,1:2|0:1,0:0:0:0:
359,317,81830,1,2,0:0:0:0:
502,157,81988,6,0,P|419:143|361:83,1,170,4|2,1:2|0:0,0:0:0:0:
347,197,82462,1,0,1:0:0:0:
272,29,82619,1,8,0:1:0:0:
458,45,82777,1,0,0:0:0:0:
252,191,82935,70,0,B|150:197|200:237|93:239,1,170,4|0,1:2|0:0,0:0:0:0:
0,201,83409,1,4,1:2:0:0:
30,103,83567,1,8,0:1:0:0:
121,140,83725,1,2,0:0:0:0:
243,299,83883,2,0,P|240:342|241:384,1,85,4|0,1:2|0:0,0:0:0:0:
457,329,84198,1,0,1:0:0:0:
457,329,84277,1,0,1:0:0:0:
457,329,84356,1,0,1:0:0:0:
457,329,84436,1,0,1:0:0:0:
457,329,84515,1,8,0:1:0:0:
457,329,84830,6,0,L|364:320,1,85,4|0,1:0|0:0,0:0:0:0:
157,256,85145,1,2,0:0:0:0:
88,359,85304,2,0,L|180:346,1,85,2|8,1:2|0:1,0:0:0:0:
381,226,85619,1,2,0:0:0:0:
497,76,85777,70,0,P|413:84|345:133,1,170,4|2,1:2|0:0,0:0:0:0:
3,192,86251,1,0,1:0:0:0:
93,151,86409,2,0,P|135:156|178:169,1,85,8|0,0:1|0:0,0:0:0:0:
274,236,86725,5,4,1:2:0:0:
287,317,86883,1,2,1:2:0:0:
475,172,87041,69,4,1:2:0:0:
381,138,87198,1,2,1:2:0:0:
405,374,87356,5,10,0:1:0:0:
512,282,87514,1,2,1:2:0:0:
254,235,87672,69,8,0:1:0:0:
217,225,87751,1,8,0:1:0:0:
179,229,87830,1,4,0:3:0:0:
147,247,87909,1,8,0:3:0:0:
127,274,87988,1,8,0:1:0:0:
107,301,88067,1,8,0:1:0:0:
75,318,88146,1,8,0:1:0:0:
37,323,88225,1,8,0:1:0:0:
3,311,88304,1,0,1:0:0:0:
44,217,88462,1,0,1:2:0:0:
159,85,88620,6,0,L|243:77,1,85,4|0,1:0|0:0,0:0:0:0:
224,176,88936,1,2,0:0:0:0:
85,11,89094,2,0,L|-9:1,1,85,2|8,1:2|0:1,0:0:0:0:
25,98,89410,1,2,0:0:0:0:
172,300,89568,70,0,P|110:245|100:162,1,170,4|2,1:2|0:0,0:0:0:0:
216,191,90042,1,0,1:0:0:0:
361,260,90199,1,8,0:1:0:0:
264,278,90357,1,0,0:0:0:0:
351,54,90514,6,0,B|463:58|399:94|512:99,1,170,4|0,1:2|0:0,0:0:0:0:
107,72,90988,1,4,1:2:0:0:
191,18,91146,2,0,P|196:59|194:114,1,85,8|2,0:1|0:0,0:0:0:0:
278,148,91462,1,4,1:2:0:0:
203,192,91619,1,0,1:0:0:0:
65,147,91777,69,8,0:1:0:0:
312,48,91935,1,0,1:0:0:0:
483,241,92093,1,8,0:1:0:0:
483,241,92409,38,0,P|485:150|478:63,1,170,4|2,1:0|0:3,0:0:0:0:
295,37,92883,1,0,1:0:0:0:
219,76,93041,1,2,0:3:0:0:
180,0,93198,1,0,0:0:0:0:
59,170,93356,2,0,P|55:258|62:352,2,170,10|2|2,0:1|0:3|1:3,0:0:0:0:
59,170,94304,54,0,L|153:163,1,85,4|0,1:0|0:0,0:0:0:0:
197,334,94620,1,2,0:3:0:0:
275,379,94776,1,0,1:0:0:0:
306,236,94934,1,2,0:3:0:0:
215,245,95092,1,0,0:0:0:0:
342,318,95251,2,0,L|512:309,2,170,10|2|2,0:1|0:3|1:3,0:0:0:0:
342,318,96198,22,0,P|340:268|345:219,1,85,4|0,1:0|0:0,0:0:0:0:
256,223,96514,1,2,0:3:0:0:
51,269,96672,1,0,1:0:0:0:
51,362,96830,1,2,0:3:0:0:
130,315,96988,1,0,0:0:0:0:
171,171,97146,2,0,L|1:180,2,170,10|2|2,0:1|0:3|1:3,0:0:0:0:
171,171,98093,54,0,P|170:81|160:-9,1,170,4|2,1:0|0:3,0:0:0:0:
260,21,98567,1,0,1:0:0:0:
64,56,98725,1,2,0:3:0:0:
69,139,98883,1,2,0:3:0:0:
267,149,99041,1,10,0:1:0:0:
267,149,99198,1,0,1:1:0:0:
370,77,99357,69,8,0:1:0:0:
486,126,99515,1,8,0:1:0:0:
258,282,99673,1,8,0:1:0:0:
34,187,99831,1,8,0:1:0:0:
384,190,99989,21,0,1:0:0:0:
384,190,100303,1,0,1:0:0:0:
348,272,100461,1,0,1:0:0:0:
348,272,100777,1,0,1:0:0:0:
472,292,100935,1,0,1:0:0:0:
472,292,101251,22,2,B|397:299|397:299|374:319|374:319|301:326,1,178.499994552612,0|0,1:0|0:0,0:1:0:0:
161,248,101567,69,0,1:0:0:0:
161,248,101880,1,0,1:0:0:0:
92,314,102038,1,0,1:0:0:0:
92,314,102354,1,0,1:0:0:0:
49,190,102512,1,0,1:0:0:0:
49,190,102829,22,2,L|230:206,1,178.499994552612,0|0,1:0|0:0,0:1:0:0:
410,72,103144,70,2,L|229:88,1,178.499994552612,0|0,1:0|0:0,0:1:0:0:
489,170,103462,54,0,P|487:202|495:298,1,127.500004863739,4|2,1:0|0:3,0:0:0:0:
435,364,103934,1,2,1:3:0:0:
358,324,104093,2,0,L|291:318,1,63.7500024318696,0|0,1:0|0:0,0:0:0:0:
128,384,104409,1,10,0:1:0:0:
128,384,104725,1,0,1:0:0:0:
160,299,104883,1,0,1:0:0:0:
71,310,105040,1,8,0:1:0:0:
103,225,105197,1,0,1:0:0:0:
217,138,105356,6,0,P|285:145|369:148,1,127.500004863739,0|2,1:0|0:3,0:0:0:0:
433,170,105830,1,2,1:3:0:0:
407,79,105988,2,0,L|401:9,1,63.7500024318696,0|0,1:0|0:0,0:0:0:0:
368,239,106304,1,10,0:1:0:0:
368,239,106619,1,0,1:0:0:0:
375,321,106776,1,0,1:0:0:0:
444,274,106934,1,8,0:1:0:0:
296,288,107092,1,8,0:1:0:0:
145,232,107251,70,0,P|81:240|18:242,1,127.500004863739,0|2,1:0|0:3,0:0:0:0:
200,159,107725,1,2,1:3:0:0:
213,297,107883,2,0,L|206:360,1,63.7500024318696,0|0,1:0|0:0,0:0:0:0:
512,261,108198,1,10,0:1:0:0:
512,261,108514,5,0,1:0:0:0:
435,229,108671,1,0,1:0:0:0:
356,262,108829,1,0,1:0:0:0:
299,322,108987,1,0,1:0:0:0:
219,351,109145,1,0,1:0:0:0:
143,321,109304,2,0,P|145:251|142:185,1,127.500004863739,0|2,1:0|1:3,0:0:0:0:
64,274,109777,2,0,L|0:279,1,63.7500024318696,0|2,1:0|0:3,0:0:0:0:
225,147,110093,1,10,0:1:0:0:
225,147,110409,1,0,1:0:0:0:
266,222,110567,1,0,1:0:0:0:
362,122,110725,1,8,0:1:0:0:
284,85,110883,1,8,0:1:0:0:
351,208,111040,70,0,P|413:211|478:209,1,127.500004863739,4|2,1:0|0:3,0:0:0:0:
512,299,111514,1,2,1:3:0:0:
420,308,111672,2,0,L|416:382,1,63.7500024318696,0|0,1:0|0:0,0:0:0:0:
485,123,111988,1,10,0:1:0:0:
485,123,112304,1,0,1:0:0:0:
403,82,112462,1,0,1:0:0:0:
272,148,112619,1,8,0:1:0:0:
192,189,112777,1,0,1:0:0:0:
32,102,112935,6,0,P|96:100|159:104,1,127.500004863739,0|2,1:0|0:3,0:0:0:0:
240,63,113409,1,2,1:3:0:0:
227,170,113567,2,0,L|231:240,1,63.7500024318696,0|0,1:0|0:0,0:0:0:0:
49,297,113883,1,10,0:1:0:0:
49,297,114198,1,0,1:0:0:0:
138,272,114356,1,0,1:0:0:0:
162,356,114513,1,8,0:1:0:0:
73,381,114671,1,0,1:0:0:0:
304,280,114830,70,0,P|367:283|431:280,1,127.500004863739,0|2,1:0|0:3,0:0:0:0:
502,223,115304,1,2,1:3:0:0:
510,320,115462,2,0,L|506:395,1,63.7500024318696,0|0,1:0|0:0,0:0:0:0:
379,181,115777,1,10,0:1:0:0:
379,181,116094,1,0,1:0:0:0:
371,95,116252,1,0,1:0:0:0:
422,27,116410,1,0,1:0:0:0:
504,9,116568,1,0,1:0:0:0:
483,211,116725,6,0,L|475:128,1,63.7500024318696,0|0,1:0|0:0,0:0:0:0:
402,267,117040,1,2,0:3:0:0:
249,287,117198,2,0,L|241:370,1,63.7500024318696,2|0,1:3|1:0,0:0:0:0:
168,231,117513,1,2,0:3:0:0:
0,283,117672,1,10,0:1:0:0:
108,324,117830,1,8,0:1:0:0:
108,324,117909,1,8,0:1:0:0:
108,324,117988,1,2,1:0:0:0:
108,324,118304,69,6,0:3:0:0:
46,39,118619,21,6,1:1:0:0:
10,133,118777,1,8,0:1:0:0:
89,186,118934,1,8,0:1:0:0:
286,85,119092,1,10,0:1:0:0:
286,85,119171,1,8,0:1:0:0:
286,85,119251,2,0,L|208:76,1,72.2500013780594,8|8,0:1|0:1,0:0:0:0:
372,384,119567,69,2,1:0:0:0:
408,290,119725,1,8,0:1:0:0:
329,237,119882,1,8,0:1:0:0:
94,338,120041,1,2,1:0:0:0:
185,327,120198,1,8,0:1:0:0:
185,327,120514,6,0,L|176:227,1,72.2500013780594,6|8,1:0|0:1,0:0:0:0:
0,112,120830,1,8,0:1:0:0:
0,112,120909,1,8,0:1:0:0:
0,112,120988,2,0,L|8:211,1,72.2500013780594,10|8,0:1|0:1,0:0:0:0:
304,174,121304,69,2,1:0:0:0:
392,97,121462,1,2,1:0:0:0:
281,42,121620,1,8,0:1:0:0:
198,132,121777,1,6,1:2:0:0:
198,132,122093,1,2,1:2:0:0:
214,148,122171,1,0,1:0:0:0:
225,169,122250,1,0,1:0:0:0:
230,191,122329,1,0,1:0:0:0:
227,210,122410,5,6,1:1:0:0:
127,225,122568,1,0,0:0:0:0:
61,156,122726,1,2,1:0:0:0:
444,144,122884,69,2,1:0:0:0:
431,244,123041,1,0,0:0:0:0:
338,292,123199,1,2,1:0:0:0:
288,6,123357,5,14,0:1:0:0:
345,143,123515,1,0,0:0:0:0:
248,256,123672,1,8,0:1:0:0:
191,127,123830,1,8,0:3:0:0:
191,127,123908,1,4,0:3:0:0:
191,127,123988,2,0,L|279:117,1,72.2500013780594,2|0,1:0|0:0,0:0:0:0:
252,323,124304,6,0,L|240:219,1,79.050002472725,6|0,1:0|0:1,0:0:0:0:
443,338,124619,2,0,L|447:249,1,79.050002472725,2|0,1:0|1:0,0:0:0:0:
67,377,124935,2,0,L|45:296,1,79.050002472725,2|0,1:1|1:0,0:0:0:0:
333,82,125251,69,10,0:1:0:0:
358,115,125330,1,8,0:1:0:0:
349,165,125409,1,12,0:3:0:0:
306,182,125488,1,8,0:3:0:0:
259,168,125567,1,4,0:3:0:0:
208,142,125646,1,4,0:3:0:0:
150,153,125725,1,0,1:0:0:0:
107,200,125804,1,0,1:0:0:0:
122,269,125884,1,8,0:1:0:0:
122,269,126198,22,0,P|166:269|220:281,1,85,4|0,1:0|0:0,0:0:0:0:
270,358,126514,1,0,1:0:0:0:
165,374,126672,1,8,0:1:0:0:
205,143,126830,1,2,1:2:0:0:
205,143,127146,6,0,P|212:103|212:58,1,85,4|0,1:0|0:0,0:0:0:0:
124,0,127462,1,0,1:0:0:0:
104,90,127620,1,8,0:1:0:0:
418,188,127778,1,2,1:2:0:0:
418,188,128093,70,0,P|419:228|426:273,1,85,4|0,1:0|0:0,0:0:0:0:
332,111,128409,1,0,1:0:0:0:
398,24,128567,1,8,0:1:0:0:
485,102,128725,1,2,1:2:0:0:
275,183,128883,1,8,0:1:0:0:
275,183,128962,1,8,0:1:0:0:
275,183,129040,1,2,1:2:0:0:
255,62,129198,1,8,0:1:0:0:
456,90,129356,37,8,0:3:0:0:
70,154,129672,69,4,0:3:0:0:
365,328,129988,70,0,L|279:321,1,85,6|0,1:0|0:0,0:0:0:0:
83,245,130304,2,0,L|169:238,1,85,0|0,1:0|0:0,0:0:0:0:
413,167,130619,2,0,L|327:160,1,85,0|0,1:0|0:0,0:0:0:0:
181,20,130935,1,12,0:1:0:0:
181,20,131251,37,8,0:3:0:0:
171,68,131329,1,8,0:3:0:0:
185,115,131408,1,4,0:3:0:0:
219,152,131488,1,4,0:3:0:0:
241,181,131566,1,0,1:3:0:0:
252,208,131645,1,0,1:3:0:0:
251,227,131725,2,0,L|205:237,1,42.5,0|0,1:0|1:0,0:0:0:0:
330,264,131883,22,0,P|371:272|410:289,1,85,6|0,1:0|0:0,0:0:0:0:
512,301,132198,1,0,1:0:0:0:
455,373,132356,1,8,0:1:0:0:
131,184,132514,2,0,P|89:193|51:211,1,85,8|0,0:1|0:0,0:0:0:0:
206,367,132830,1,14,0:1:0:0:
206,367,133146,69,8,0:1:0:0:
229,327,133224,1,8,0:1:0:0:
231,281,133303,1,8,0:1:0:0:
212,239,133382,1,8,0:1:0:0:
175,213,133461,1,8,0:1:0:0:
132,196,133540,1,8,0:1:0:0:
90,167,133618,1,8,0:1:0:0:
75,120,133697,1,8,0:1:0:0:
92,73,133777,22,0,P|133:87|186:92,1,85,6|0,1:0|0:0,0:0:0:0:
396,3,134093,2,0,P|366:39|324:66,1,85,0|0,1:0|0:0,0:0:0:0:
316,296,134409,2,0,L|291:203,1,85,0|2,1:0|0:0,0:0:0:0:
370,178,134725,69,12,0:1:0:0:
421,112,134883,1,2,0:0:0:0:
450,189,135040,1,4,1:2:0:0:
333,88,135198,1,10,0:3:0:0:
509,127,135356,1,6,0:3:0:0:
398,257,135514,1,8,0:1:0:0:
228,378,135672,6,0,L|223:286,1,85,6|0,1:0|0:0,0:0:0:0:
119,40,135988,2,0,L|124:124,1,85,0|0,1:0|0:0,0:0:0:0:
21,271,136304,2,0,L|15:186,1,85,0|2,1:0|0:0,0:0:0:0:
218,96,136619,1,14,0:1:0:0:
218,96,136935,69,4,1:2:0:0:
328,203,137093,1,8,0:1:0:0:
372,54,137251,1,2,1:2:0:0:
309,118,137409,1,2,0:0:0:0:
424,308,137567,6,0,P|470:310|513:321,1,85,6|0,1:0|0:0,0:0:0:0:
162,313,137883,2,0,P|116:322|76:339,1,85,2|2,1:2|0:0,0:0:0:0:
289,361,138198,2,0,L|297:274,1,85,2|0,1:3|0:0,0:0:0:0:
14,233,138514,1,12,0:1:0:0:
14,233,138830,69,6,1:2:0:0:
96,239,138987,1,2,0:2:0:0:
162,189,139145,1,2,1:3:0:0:
178,109,139303,1,2,0:0:0:0:
64,81,139462,6,0,B|55:122|55:122|72:162,1,85,4|0,1:0|0:0,0:0:0:0:
209,216,139777,2,0,B|249:202|249:202|275:167,1,85,2|2,1:2|0:0,0:0:0:0:
248,34,140093,2,0,B|216:5|216:5|173:0,1,85,2|0,1:3|0:0,0:0:0:0:
74,294,140409,53,14,0:1:0:0:
167,330,140566,1,2,1:2:0:0:
257,287,140724,1,14,0:1:0:0:
286,189,140882,1,2,1:2:0:0:
388,124,141040,1,14,0:1:0:0:
495,173,141198,1,2,1:2:0:0:
405,384,141356,6,0,L|396:206,1,170,4|0,1:0|0:0,1:0:0:0:
233,4,141830,2,0,L|242:182,1,170,4|0,1:2|1:0,1:0:0:0:
242,174,142225,1,0,1:0:0:0:
242,174,142304,1,12,0:1:0:0:
356,71,142620,69,0,1:0:0:0:
388,62,142699,1,0,1:0:0:0:
406,39,142778,1,0,1:1:0:0:
118,225,142935,1,0,1:0:0:0:
85,215,143014,1,0,1:0:0:0:
67,192,143093,1,0,1:1:0:0:
348,206,143251,6,0,P|432:206|511:237,1,170,4|0,1:0|0:0,1:0:0:0:
205,242,143725,2,0,P|131:284|79:350,1,170,4|0,1:2|1:0,1:0:0:0:
80,351,144118,1,0,1:0:0:0:
80,351,144198,53,10,0:1:0:0:
40,338,144276,1,0,1:0:0:0:
17,304,144355,1,0,1:0:0:0:
16,262,144434,1,0,1:0:0:0:
46,225,144513,1,8,0:1:0:0:
91,202,144593,1,0,1:0:0:0:
132,161,144671,1,0,1:0:0:0:
129,103,144750,1,0,1:0:0:0:
84,65,144830,2,0,L|-7:83,1,85,10|0,0:1|1:0,0:0:0:0:
258,171,145146,38,0,B|269:70|235:102|243:3,1,170,6|0,1:0|0:0,1:0:0:0:
387,256,145619,1,2,1:3:0:0:
237,304,145777,1,2,0:3:0:0:
111,213,145935,1,2,1:3:0:0:
111,213,146014,1,0,1:0:0:0:
111,213,146093,53,8,0:1:0:0:
153,193,146171,1,8,0:3:0:0:
197,200,146250,1,8,0:3:0:0:
234,225,146329,1,8,0:3:0:0:
254,263,146410,1,4,0:3:0:0:
279,292,146489,1,4,0:3:0:0:
313,311,146568,1,4,0:3:0:0:
360,308,146647,1,4,0:3:0:0:
425,277,146725,69,8,0:1:0:0:
365,234,146803,1,8,0:1:0:0:
300,267,146882,1,8,0:1:0:0:
295,338,146961,1,8,0:1:0:0:
351,384,147040,22,0,P|392:369|432:362,1,85,6|0,1:0|0:0,0:0:0:0:
145,120,147356,2,0,P|137:165|116:212,1,85,2|0,0:1|1:0,0:0:0:0:
501,102,147672,2,0,P|467:76|441:40,1,85,2|0,0:1|1:0,0:0:0:0:
442,42,147910,1,0,1:0:0:0:
442,42,147989,1,12,0:1:0:0:
77,7,148304,38,2,L|114:18,1,31.8750012159348,2|0,0:1|0:0,0:1:0:0:
69,98,148462,2,2,L|106:86,1,31.8750012159348,10|0,0:1|0:0,0:1:0:0:
131,169,148620,2,2,L|154:137,1,31.8750012159348,10|0,0:1|0:0,0:1:0:0:
228,179,148777,2,2,L|221:140,1,31.8750012159348,2|0,0:1|0:0,0:1:0:0:
511,280,148935,54,0,P|442:234|358:227,1,170,4|0,1:0|0:0,1:0:0:0:
41,354,149409,2,0,P|91:287|169:254,1,170,4|0,1:2|1:0,1:0:0:0:
169,254,149804,1,0,1:0:0:0:
169,254,149883,1,12,0:1:0:0:
303,384,150198,53,8,0:1:0:0:
313,336,150276,1,8,0:1:0:0:
299,289,150355,1,8,0:3:0:0:
265,252,150435,1,4,0:3:0:0:
243,223,150513,1,0,1:0:0:0:
232,196,150592,1,0,1:0:0:0:
233,177,150672,2,0,L|280:168,1,42.5,0|0,1:0|1:0,0:0:0:0:
419,188,150830,6,0,P|424:144|421:103,1,85,6|0,1:0|0:0,0:0:0:0:
136,49,151146,2,0,P|131:93|133:133,1,85,2|0,0:3|1:0,0:0:0:0:
326,65,151462,1,10,0:1:0:0:
234,83,151619,1,0,1:0:0:0:
342,272,151777,6,0,P|421:281|503:325,1,170,6|0,1:0|0:0,0:0:0:0:
149,250,152251,2,0,P|104:255|64:272,1,85,0|2,1:0|0:1,0:0:0:0:
192,370,152567,1,8,0:1:0:0:
225,360,152646,1,8,0:1:0:0:
255,366,152725,70,0,B|266:265|232:297|241:196,1,170,6|0,1:0|0:0,0:0:0:0:
164,143,153198,1,0,1:0:0:0:
318,83,153356,1,8,0:1:0:0:
318,83,153672,6,0,P|358:131|461:144,1,170,6|0,1:0|0:0,1:0:0:0:
342,239,154146,1,0,1:0:0:0:
461,323,154304,2,0,L|454:222,1,85,6|0,1:1|0:0,0:0:0:0:
177,283,154619,70,0,P|137:331|34:344,1,170,6|0,1:0|0:0,1:0:0:0:
1,176,155093,1,0,1:0:0:0:
103,147,155251,2,0,L|97:231,1,85,8|0,0:1|0:0,0:0:0:0:
176,15,155567,6,2,B|264:71|264:71|370:54,1,212.5,4|2,1:0|0:3,0:1:0:0:
495,12,156040,1,0,1:0:0:0:
495,12,156119,1,0,1:0:0:0:
494,12,156198,2,0,L|484:96,1,85,8|0,0:1|1:0,0:0:0:0:
244,202,156514,54,0,L|252:297,1,85,4|0,1:0|1:0,0:0:0:0:
461,308,156830,1,8,0:1:0:0:
401,248,156988,1,0,1:0:0:0:
340,308,157146,1,8,0:1:0:0:
401,369,157303,1,0,1:0:0:0:
487,147,157462,70,0,L|479:52,1,85,12|0,0:1|1:0,0:0:0:0:
203,67,157778,1,8,0:1:0:0:
294,140,157936,1,0,1:0:0:0:
399,88,158094,1,8,0:1:0:0:
307,14,158251,1,0,1:0:0:0:
0,182,158409,5,12,0:1:0:0:
60,302,158567,1,0,1:0:0:0:
194,281,158725,1,8,0:1:0:0:
216,145,158883,1,0,1:0:0:0:
95,84,159040,1,12,0:1:0:0:
113,200,159199,69,0,1:0:0:0:
161,211,159278,1,0,1:0:0:0:
208,197,159357,1,12,0:1:0:0:
246,165,159436,1,4,0:3:0:0:
275,138,159515,1,4,0:3:0:0:
315,131,159594,1,4,0:3:0:0:
338,137,159672,2,0,L|348:249,1,85,8|0,0:1|1:0,0:0:0:0:
444,33,159988,5,8,0:1:0:0:
444,33,160067,1,8,0:1:0:0:
444,33,160146,1,8,0:1:0:0:
444,33,160225,1,8,0:1:0:0:
444,33,160304,2,0,B|359:47|359:47|288:2,1,170,6|0,1:0|1:0,0:0:0:0:
21,133,160777,69,8,0:1:0:0:
58,120,160856,1,4,0:3:0:0:
98,124,160935,1,4,0:3:0:0:
133,143,161014,1,4,0:3:0:0:
158,174,161093,1,0,1:0:0:0:
168,213,161172,1,0,1:0:0:0:
160,253,161251,2,0,L|64:269,1,85,4|0,1:0|0:0,0:0:0:0:
328,128,161566,5,8,0:1:0:0:
374,124,161645,1,8,0:1:0:0:
419,136,161724,1,8,0:1:0:0:
456,162,161803,1,8,0:1:0:0:
486,199,161882,1,4,1:0:0:0:
502,242,161961,1,4,0:3:0:0:
502,289,162040,1,4,0:3:0:0:
490,333,162118,1,4,0:3:0:0:
462,371,162198,2,0,L|352:350,1,85,6|0,1:0|0:0,0:0:0:0:
302,205,162514,69,8,0:1:0:0:
302,205,162593,1,0,1:0:0:0:
302,205,162672,1,0,1:0:0:0:
70,366,162830,1,10,0:1:0:0:
29,248,162988,1,8,0:1:0:0:
269,369,163146,21,10,0:1:0:0:
231,384,163224,1,8,0:1:0:0:
193,377,163303,1,8,0:1:0:0:
164,353,163382,1,8,0:1:0:0:
146,311,163461,1,8,0:1:0:0:
158,269,163540,1,8,0:1:0:0:
182,230,163619,1,8,0:1:0:0:
207,177,163697,1,8,0:1:0:0:
197,112,163776,1,8,0:1:0:0:
150,66,163855,1,8,0:1:0:0:
87,56,163934,1,8,0:1:0:0:
27,88,164013,1,8,0:1:0:0:
1,149,164092,1,2,0:0:0:0:
398,299,171672,37,0,3:0:0:0:
319,282,172146,1,0,3:0:0:0:
271,348,172619,1,8,0:0:0:0:
271,348,173251,1,0,3:0:0:0:
165,251,173567,69,0,3:0:0:0:
86,268,174041,1,0,3:0:0:0:
38,202,174514,1,8,0:0:0:0:
38,202,175146,1,0,3:0:0:0:
375,199,175462,5,0,3:0:0:0:
451,171,175936,1,0,3:0:0:0:
455,89,176409,1,8,0:0:0:0:
132,111,179251,54,0,B|39:102,1,85,4|0,1:0|0:0,0:0:0:0:
215,47,179566,1,2,0:0:0:0:
241,272,179725,2,0,B|329:262,1,85,2|8,1:2|0:1,0:0:0:0:
163,204,180040,1,2,0:0:0:0:
499,228,180198,70,0,P|440:168|358:154,1,170,4|0,1:2|0:0,0:0:0:0:
275,357,180672,1,0,1:0:0:0:
380,368,180829,1,8,0:1:0:0:
421,274,180987,1,0,0:0:0:0:
9,212,181146,6,0,P|59:145|139:119,1,170,4|0,1:2|0:0,0:0:0:0:
183,302,181619,1,4,1:2:0:0:
116,384,181777,1,8,0:1:0:0:
21,346,181935,1,2,0:0:0:0:
252,141,182093,2,0,P|249:184|251:227,1,85,4|0,1:2|0:0,0:0:0:0:
399,249,182408,1,0,1:0:0:0:
399,249,182487,1,0,1:0:0:0:
399,249,182566,1,0,1:0:0:0:
399,249,182646,1,0,1:0:0:0:
399,249,182725,1,8,0:1:0:0:
399,249,183040,70,0,L|492:240,1,85,4|0,1:0|0:0,0:0:0:0:
512,332,183355,1,2,0:0:0:0:
156,205,183514,2,0,L|64:192,1,85,2|8,1:2|0:1,0:0:0:0:
40,285,183829,1,2,0:0:0:0:
288,363,183988,6,0,P|280:279|282:188,1,170,4|2,1:2|0:0,0:0:0:0:
93,68,184461,1,0,1:0:0:0:
193,18,184619,2,0,P|199:64|197:116,1,85,8|0,0:1|0:0,0:0:0:0:
135,310,184935,69,4,1:2:0:0:
30,328,185093,1,2,1:2:0:0:
179,192,185251,5,4,1:2:0:0:
354,221,185408,1,2,1:2:0:0:
512,60,185566,69,10,0:1:0:0:
407,42,185724,1,2,1:2:0:0:
431,305,185884,5,8,0:1:0:0:
450,267,185962,1,8,0:1:0:0:
456,225,186041,1,4,0:3:0:0:
448,184,186120,1,8,0:3:0:0:
427,147,186199,1,8,0:1:0:0:
395,119,186278,1,8,0:1:0:0:
356,103,186357,1,8,0:1:0:0:
314,101,186436,1,8,0:1:0:0:
274,114,186515,1,0,1:0:0:0:
274,114,186830,70,0,L|270:199,1,85,4|0,1:0|0:0,0:0:0:0:
176,205,187146,1,2,0:0:0:0:
428,116,187304,2,0,L|419:29,1,85,2|8,1:2|0:1,0:0:0:0:
512,11,187620,1,2,0:0:0:0:
473,358,187777,6,0,P|411:303|401:220,1,170,4|2,1:2|0:0,0:0:0:0:
500,196,188252,1,0,1:0:0:0:
318,303,188409,1,8,0:1:0:0:
211,156,188567,1,0,0:0:0:0:
5,292,188724,70,0,B|117:288|53:252|166:247,1,170,4|0,1:2|0:0,0:0:0:0:
115,103,189198,1,4,1:2:0:0:
31,49,189356,2,0,P|26:90|28:145,1,85,8|2,0:1|0:0,0:0:0:0:
250,314,189672,1,4,1:2:0:0:
262,220,189829,1,0,1:0:0:0:
108,348,189987,5,8,0:1:0:0:
341,384,190145,1,0,1:0:0:0:
475,209,190303,1,8,0:1:0:0:
475,209,190619,22,0,L|458:9,1,170,4|2,1:0|0:3,0:0:0:0:
378,209,191093,1,0,1:0:0:0:
371,301,191251,1,2,0:3:0:0:
463,308,191408,1,0,0:0:0:0:
222,230,191566,2,0,P|135:231|41:242,2,170,10|2|2,0:1|0:3|1:3,0:0:0:0:
222,230,192514,54,0,L|229:324,1,85,4|0,1:0|0:0,0:0:0:0:
401,293,192830,1,2,0:3:0:0:
315,269,192989,1,0,1:0:0:0:
140,357,193147,1,2,0:3:0:0:
52,384,193305,1,0,0:0:0:0:
9,170,193462,2,0,L|0:0,2,170,10|2|2,0:1|0:3|1:3,0:0:0:0:
9,170,194409,22,0,P|54:166|108:173,1,85,4|0,1:0|0:0,0:0:0:0:
168,108,194724,1,2,0:3:0:0:
349,221,194882,1,0,1:0:0:0:
335,313,195040,1,2,0:3:0:0:
264,254,195198,1,0,0:0:0:0:
272,114,195356,2,0,P|364:120|446:111,2,170,10|2|2,0:1|0:3|1:3,0:0:0:0:
272,114,196304,54,0,L|265:14,1,85,4|0,1:0|0:0,0:0:0:0:
362,43,196619,1,2,0:3:0:0:
112,275,196777,2,0,L|119:175,1,85,0|2,1:0|0:3,0:0:0:0:
213,222,197092,1,2,0:3:0:0:
428,324,197251,1,10,0:1:0:0:
359,384,197409,1,0,1:0:0:0:
268,362,197567,21,8,0:1:0:0:
325,152,197725,1,8,0:1:0:0:
512,314,197883,1,8,0:1:0:0:
93,197,198040,1,8,0:1:0:0:
429,29,198198,38,0,L|434:136,1,85,4|0,1:0|0:0,0:0:0:0:
509,187,198514,1,2,0:0:0:0:
353,271,198672,1,2,1:2:0:0:
154,198,198829,1,8,0:1:0:0:
341,150,198988,1,2,0:0:0:0:
258,362,199146,6,0,L|248:179,1,170,4|2,1:2|0:0,0:0:0:0:
107,16,199619,1,0,1:0:0:0:
25,125,199777,1,8,0:1:0:0:
160,147,199935,1,0,0:0:0:0:
399,77,200093,70,0,B|303:82|332:35|235:45,1,170,4|0,1:2|0:0,0:0:0:0:
498,130,200567,1,4,1:2:0:0:
431,210,200725,1,8,0:1:0:0:
331,170,200882,1,2,0:0:0:0:
99,92,201040,2,0,B|109:-2,1,85,4|0,1:2|0:0,0:0:0:0:
187,223,201356,1,0,1:0:0:0:
187,223,201435,1,0,1:0:0:0:
187,223,201514,1,0,1:0:0:0:
187,223,201593,1,0,1:0:0:0:
187,223,201672,1,8,0:1:0:0:
187,223,201988,6,0,L|95:209,1,85,4|0,1:0|0:0,0:0:0:0:
236,136,202304,1,2,0:0:0:0:
421,321,202462,2,0,L|512:304,1,85,2|8,1:2|0:1,0:0:0:0:
313,212,202777,1,2,0:0:0:0:
28,340,202935,69,4,1:2:0:0:
219,307,203093,1,0,0:0:0:0:
114,267,203251,1,2,0:0:0:0:
132,379,203409,1,0,1:0:0:0:
324,127,203567,5,8,0:1:0:0:
324,127,203883,38,0,L|341:43,1,85,2|0,1:1|0:0,0:0:0:0:
108,172,204198,6,0,P|88:133|79:92,1,85,2|0,0:1|1:0,0:0:0:0:
449,285,204514,70,0,P|485:260|511:227,1,85,10|0,0:1|0:0,0:0:0:0:
79,323,204831,5,10,0:1:0:0:
120,354,204910,1,8,0:1:0:0:
171,361,204989,1,4,0:3:0:0:
221,349,205068,1,4,0:3:0:0:
260,317,205147,1,8,0:1:0:0:
286,271,205226,1,8,0:1:0:0:
287,218,205305,1,8,0:1:0:0:
269,170,205384,1,8,0:1:0:0:
232,133,205462,1,0,1:2:0:0:
232,133,205777,6,0,L|148:141,1,85,4|0,1:0|0:0,0:0:0:0:
51,195,206093,1,2,0:0:0:0:
331,30,206251,2,0,L|425:40,1,85,2|8,1:2|0:1,0:0:0:0:
512,92,206567,1,2,0:0:0:0:
405,340,206725,6,0,P|343:285|333:202,1,170,4|2,1:2|0:0,0:0:0:0:
278,348,207199,1,0,1:0:0:0:
427,235,207356,1,8,0:1:0:0:
490,384,207514,1,0,0:0:0:0:
192,302,207672,70,0,B|213:105,1,170,4|0,1:2|0:0,0:0:0:0:
36,252,208145,1,4,1:2:0:0:
9,357,208304,2,0,L|103:341,1,85,8|2,0:1|0:0,0:0:0:0:
382,257,208619,1,4,1:2:0:0:
281,223,208776,1,0,1:0:0:0:
293,381,208934,5,8,0:1:0:0:
453,181,209092,1,0,1:0:0:0:
284,0,209250,1,8,0:1:0:0:
284,0,209567,22,0,P|350:42|453:46,1,170,4|2,1:0|0:3,0:0:0:0:
362,150,210041,1,0,1:0:0:0:
451,185,210199,1,2,0:3:0:0:
512,111,210356,1,2,0:3:0:0:
179,79,210514,2,0,P|91:84|11:144,1,170,10|2,0:1|0:3,0:0:0:0:
24,127,211146,1,2,1:3:0:0:
267,315,211462,54,0,L|268:229,1,85,4|0,1:1|0:3,0:0:0:0:
455,236,211777,1,2,0:3:0:0:
487,333,211935,1,0,1:0:0:0:
394,366,212093,1,2,0:3:0:0:
362,269,212251,1,2,0:3:0:0:
384,0,212409,2,0,L|391:179,1,170,10|2,0:1|0:3,0:0:0:0:
391,169,213040,1,2,1:3:0:0:
51,138,213356,22,0,P|135:91|214:95,1,170,4|2,1:0|0:3,0:0:0:0:
197,278,213830,1,0,1:0:0:0:
102,304,213988,1,2,0:3:0:0:
41,231,214146,1,2,0:3:0:0:
302,41,214304,2,0,L|310:134,1,85,10|0,0:1|0:0,0:0:0:0:
393,315,214619,2,0,L|401:222,1,85,2|0,0:3|0:0,0:0:0:0:
511,200,214935,1,2,1:3:0:0:
511,200,215251,54,0,P|420:196|354:146,1,170,4|2,1:0|0:3,0:0:0:0:
12,300,215725,2,0,P|102:296|168:246,1,170,4|2,1:2|0:3,0:0:0:0:
231,111,216198,1,10,0:1:0:0:
202,25,216356,1,0,1:0:0:0:
0,142,216514,21,8,0:1:0:0:
139,99,216672,1,8,0:1:0:0:
505,300,216830,53,8,0:1:0:0:
310,259,216988,1,8,0:1:0:0:
431,5,217146,38,0,B|466:148|385:110|421:261,1,255,4|2,1:1|0:3,0:0:0:0:
420,254,217777,2,0,P|471:257|516:272,1,85,2|2,1:3|0:3,0:0:0:0:
202,135,218093,2,0,P|121:151|46:219,1,170,12|2,0:1|0:0,0:0:0:0:
54,205,218725,1,0,1:0:0:0:
382,370,219040,70,0,P|267:315|128:347,1,255,4|2,1:0|0:3,0:0:0:0:
45,382,219672,2,0,L|33:298,1,85,2|2,1:3|0:3,0:0:0:0:
307,50,219988,2,0,L|283:219,1,170,12|2,0:1|0:0,0:0:0:0:
283,219,220619,1,0,1:0:0:0:
31,0,220935,6,0,P|149:37|187:175,1,255,4|2,1:0|0:3,0:0:0:0:
191,152,221567,2,0,L|94:174,1,85,2|2,1:3|0:3,0:0:0:0:
434,117,221883,2,0,P|498:154|510:248,1,170,12|2,0:1|0:0,0:0:0:0:
511,243,222514,1,0,1:0:0:0:
160,356,222830,70,0,P|229:246|359:242,1,255,4|2,1:0|0:3,0:0:0:0:
426,384,223462,2,0,L|432:299,1,85,2|2,1:3|0:3,0:0:0:0:
66,287,223777,1,12,0:1:0:0:
66,287,224250,37,8,0:1:0:0:
230,71,224408,1,8,0:1:0:0:
335,323,224566,1,8,0:1:0:0:
209,225,224725,54,0,B|202:153|202:153|183:131|183:131|176:62,1,170,4|2,1:0|0:3,0:1:0:0:
45,352,225198,2,0,B|51:282|51:282|70:260|70:260|77:189,1,170,4|2,1:2|0:3,0:1:0:0:
497,284,225672,6,0,B|387:346|387:346|258:322,1,255,12|2,0:1|0:0,0:1:0:0:
161,384,226304,2,0,L|152:285,1,85,2|0,1:2|0:0,0:0:0:0:
0,121,226619,70,0,L|202:85,1,178.499994552612,4|2,1:0|0:3,0:0:0:0:
369,226,227093,2,0,L|184:193,1,178.499994552612,6|2,1:2|0:3,0:0:0:0:
512,130,227567,5,12,0:1:0:0:
419,136,227724,1,2,0:2:0:0:
368,59,227883,1,8,0:1:0:0:
461,298,228040,69,4,0:3:0:0:
450,303,228118,1,4,0:3:0:0:
438,308,228197,1,0,1:0:0:0:
425,307,228276,1,0,1:0:0:0:
412,307,228355,1,8,0:1:0:0:
90,330,228514,6,0,B|183:313|183:313|263:358,1,187.000005706787,4|2,1:1|0:3,0:1:0:0:
504,151,228988,2,0,B|424:196|424:196|331:179,1,187.000005706787,6|2,1:2|0:3,0:1:0:0:
108,79,229462,70,0,B|225:68|225:68|261:36|261:36|375:25,1,280.500008560181,12|2,0:1|0:0,0:1:0:0:
375,25,230093,1,2,0:0:0:0:
407,108,230251,1,2,0:0:0:0:
503,334,230409,6,0,L|279:291,1,195.500003728867,4|2,1:0|0:3,0:0:0:0:
44,217,230883,2,0,L|261:175,1,195.500003728867,6|2,1:2|0:3,0:0:0:0:
503,91,231356,70,0,B|331:75|331:75|279:29|279:29|112:13,1,407.999987548829,12|2,0:1|0:0,0:1:0:0:
152,320,232146,1,2,0:0:0:0:
235,164,232304,5,4,1:0:0:0:
256,192,232383,12,0,243277,3:0:0:0:
