osu file format v12

[General]
AudioFilename: tumblr_mgn8apW3t41rsm9j2o1.mp3
AudioLeadIn: 1500
PreviewTime: 60398
Countdown: 0
SampleSet: Soft
StackLeniency: 0.7
Mode: 0
LetterboxInBreaks: 0
WidescreenStoryboard: 0

[Editor]
DistanceSpacing: 1.1
BeatDivisor: 4
GridSize: 4
TimelineZoom: 1

[Metadata]
Title:Airman ga Taosenai (SOUND HOLIC Ver.)
TitleUnicode:エアーマンが倒せない (SOUND HOLIC Ver.)
Artist:Hanatan
ArtistUnicode:花たん
Creator:Natsu
Version:Insane
Source:
Tags:Gero Amamiya Yuko caren_sk P_A_N pan Skystar ROCKMAN the 25th Anniversary takaniso Sera MasKaleido Josh mingmichael -_R_u_m_i_a_- zeroarg aabc271 Kuo Kyoka [Yue] Can't Defeat Airman Nico Douga Mega Man 2
BeatmapID:345099
BeatmapSetID:134151

[Difficulty]
HPDrainRate:7
CircleSize:4
OverallDifficulty:7
ApproachRate:9
SliderMultiplier:2
SliderTickRate:1

[Events]
//Background and Video events
0,0,"airmancutebg.jpg",0,0
//Break Periods
2,85970,92712
2,192940,196255
//Storyboard Layer 0 (Background)
//Storyboard Layer 1 (Fail)
//Storyboard Layer 2 (Pass)
//Storyboard Layer 3 (Foreground)
//Storyboard Sound Samples
//Background Colour Transformations
3,100,163,162,255

[TimingPoints]
-630,342.857142857143,4,1,1,40,1,0
55,-133.333333333333,4,2,1,40,0,0
741,-100,4,2,1,40,0,0
1084,-100,4,2,1,30,0,0
1427,-133.333333333333,4,2,1,40,0,0
2284,-133.333333333333,4,2,1,30,0,0
2455,-133.333333333333,4,2,1,40,0,0
4341,-133.333333333333,4,2,1,30,0,0
4512,-133.333333333333,4,2,1,40,0,0
4684,-133.333333333333,4,2,1,30,0,0
4855,-133.333333333333,4,2,1,40,0,0
6227,-100,4,2,1,40,0,0
6570,-100,4,2,1,30,0,0
6912,-133.333333333333,4,2,1,40,0,0
10341,-133.333333333333,4,1,1,80,0,0
11198,-133.333333333333,4,1,1,45,0,0
11712,-100,4,1,2,60,0,0
25427,-100,4,1,2,70,0,0
27312,-100,4,1,2,60,0,0
28255,-100,4,2,2,30,0,0
28512,-133.333333333333,4,2,1,40,0,0
30227,-133.333333333333,4,2,1,30,0,0
30398,-133.333333333333,4,2,1,40,0,0
36398,-133.333333333333,4,2,2,45,0,0
36741,-133.333333333333,4,2,2,50,0,0
38112,-133.333333333333,4,2,2,55,0,0
39140,-100,4,1,1,60,0,0
47370,-100,4,1,1,65,0,0
50112,-100,4,1,2,60,0,0
59712,-166.666666666667,4,2,1,50,0,0
60398,-166.666666666667,4,2,1,30,0,0
61084,-100,4,1,2,60,0,1
71198,-100,4,1,2,60,0,0
71541,-100,4,1,2,60,0,1
83027,-100,4,1,1,85,0,0
83112,-100,4,1,1,30,0,0
85770,-100,4,1,1,50,0,0
93312,-100,4,1,1,45,0,0
93998,-100,4,1,1,55,0,0
107712,-100,4,1,1,80,0,0
110541,-100,4,2,2,30,0,0
110798,-133.333333333333,4,2,1,40,0,0
118684,-133.333333333333,4,2,2,50,0,0
120398,-133.333333333333,4,2,1,30,0,0
120741,-133.333333333333,4,2,1,40,0,0
121083,-133.333333333333,4,2,1,50,0,0
121427,-100,4,1,1,60,0,0
126912,-100,4,1,2,70,0,0
126998,-100,4,1,2,60,0,0
129655,-100,4,1,2,70,0,0
132055,-100,4,1,2,60,0,0
141998,-166.666666666667,4,2,1,50,0,0
142684,-166.666666666667,4,2,1,30,0,0
143370,-100,4,1,2,60,0,1
153484,-100,4,1,2,60,0,0
153827,-100,4,1,2,60,0,1
165312,-100,4,1,2,80,0,0
165398,-100,4,1,2,30,0,0
170798,-100,4,1,1,60,0,0
175598,-100,4,1,0,60,0,0
176112,-100,4,1,1,60,0,0
192740,-100,4,1,1,80,0,0
196855,-100,4,1,1,60,0,0
203712,-166.666666666667,4,2,1,50,0,0
203970,-166.666666666667,4,2,1,30,0,0
204055,-100,4,1,1,70,0,0
206455,-100,4,1,2,70,0,1
213826,-100,4,1,2,70,0,0
214170,-100,4,1,2,70,0,1
225655,-100,4,1,1,80,0,0
225740,-100,4,1,1,50,0,0

[Colours]
Combo1 : 0,0,151
Combo2 : 157,0,0
Combo3 : 0,103,206
Combo4 : 255,196,225

[HitObjects]
256,48,227,5,2,0:0:0:0:
388,116,398,1,2,0:0:0:0:
256,192,570,1,2,0:0:0:0:
332,64,741,6,0,P|400:40|460:136,1,200,12|0,3:0|0:0,0:0:0:0:
292,304,1427,1,2,0:0:0:0:
256,192,1598,1,0,0:0:0:0:
68,344,1941,6,0,P|20:292|32:216,1,150.000005722046,2|0,0:0|0:0,0:0:0:0:
76,132,2455,1,2,0:0:0:0:
256,192,2798,1,2,0:0:0:0:
188,120,2970,1,0,0:0:0:0:
188,120,3055,1,0,0:0:0:0:
188,120,3141,1,2,0:0:0:0:
256,52,3312,1,0,0:0:0:0:
324,120,3484,6,0,P|400:116|448:60,1,150.000005722046,2|2,0:0|0:0,0:0:0:0:
188,120,4170,2,0,P|148:128|112:156,1,75.0000028610231,2|0,0:0|0:0,0:0:0:0:
64,216,4512,2,0,P|30:199|7:165,1,75.0000028610231,2|0,0:0|0:0,0:0:0:0:
156,232,4855,5,2,0:0:0:0:
224,304,5027,1,0,0:0:0:0:
316,332,5198,1,2,0:0:0:0:
316,332,5284,1,0,0:0:0:0:
316,332,5370,2,0,P|356:332|396:312,1,75.0000028610231,2|0,0:0|0:0,0:0:0:0:
456,200,5712,1,0,0:0:0:0:
456,200,5798,1,0,0:0:0:0:
456,200,5884,2,0,P|416:200|376:220,1,75.0000028610231,2|0,0:0|0:0,0:0:0:0:
316,332,6227,6,0,P|248:324|204:212,1,200,12|2,3:0|0:0,0:0:0:0:
336,92,6912,1,2,0:0:0:0:
256,48,7084,2,0,P|216:40|168:48,1,75.0000028610231,2|0,0:0|0:0,0:0:0:0:
96,72,7427,6,0,B|112:120|164:132|164:132|148:204,1,150.000005722046,2|0,0:0|0:0,0:0:0:0:
132,272,7941,1,2,0:0:0:0:
260,144,8284,1,2,0:0:0:0:
336,92,8455,1,0,0:0:0:0:
340,184,8627,1,2,0:0:0:0:
260,144,8798,1,0,0:0:0:0:
336,92,8970,6,0,P|376:100|416:136,1,75.0000028610231,2|0,0:0|0:0,0:0:0:0:
260,144,9312,2,0,P|220:136|180:100,1,75.0000028610231,2|0,0:0|0:0,0:0:0:0:
155,32,9655,2,0,P|124:51|105:83,1,75.0000028610231,2|0,0:0|0:0,0:0:0:0:
120,172,9998,2,0,P|80:172|48:152,1,75.0000028610231,2|0,0:0|0:0,0:0:0:0:
202,266,10341,5,4,0:0:0:0:
325,323,10512,1,4,0:0:0:0:
384,200,10684,1,4,0:0:0:0:
260,144,10855,1,4,0:0:0:0:
260,144,11198,5,2,0:0:0:0:
384,200,11370,1,10,0:0:0:0:
272,272,11541,1,2,0:0:0:0:
185,40,11712,6,0,P|282:24|368:71,1,200,4|8,0:0|0:0,0:0:0:0:
32,172,12398,1,2,0:0:0:0:
20,272,12570,1,0,0:0:0:0:
108,228,12741,2,0,P|160:232|200:264,1,100,8|0,0:0|0:0,0:0:0:0:
256,340,13084,5,2,0:0:0:0:
392,184,13255,1,0,0:0:0:0:
248,320,13427,1,8,0:0:0:0:
384,164,13598,1,0,0:0:0:0:
240,300,13770,2,0,P|216:248|220:200,1,100,2|0,0:0|0:0,0:0:0:0:
352,48,14112,2,0,P|376:100|372:148,1,100,8|0,0:0|0:0,0:0:0:0:
240,300,14455,5,2,0:0:0:0:
144,328,14627,1,0,0:0:0:0:
52,288,14798,1,8,0:0:0:0:
16,196,14970,1,0,0:0:0:0:
56,104,15141,2,0,P|96:68|144:60,1,100,2|0,0:0|0:0,0:0:0:0:
268,108,15484,2,0,P|228:144|180:152,1,100,8|0,0:0|0:0,0:0:0:0:
284,20,15827,6,0,P|328:40|352:84,1,100,6|0,0:0|0:0,0:0:0:0:
425,151,16170,2,0,P|385:181|336:184,2,100,8|0|2,0:0|0:0|0:0,0:0:0:0:
268,108,16684,1,0,0:0:0:0:
247,136,16769,1,0,0:0:0:0:
237,169,16855,1,8,0:0:0:0:
238,204,16941,1,0,0:0:0:0:
251,236,17026,1,0,0:0:0:0:
276,264,17112,1,0,0:0:0:0:
304,284,17198,6,0,P|400:280|448:192,1,200,4|8,0:0|0:0,0:0:0:0:
268,108,17884,1,2,0:0:0:0:
172,140,18055,1,0,0:0:0:0:
188,40,18227,1,8,0:0:0:0:
148,236,18398,6,0,P|78:170|96:76,1,200,2|0,0:0|0:0,0:0:0:0:
344,164,18912,2,0,P|375:203|377:266,1,100,8|0,0:0|0:0,0:0:0:0:
268,108,19255,2,0,P|307:76|370:74,1,100,2|0,0:0|0:0,0:0:0:0:
256,196,19598,2,0,P|209:175|179:119,1,100,8|0,0:0|0:0,0:0:0:0:
155,20,19941,6,0,P|110:39|77:76,1,100,2|0,0:0|0:0,0:0:0:0:
68,176,20284,1,8,0:0:0:0:
120,264,20455,1,0,0:0:0:0:
212,308,20627,1,2,0:0:0:0:
312,292,20798,1,0,0:0:0:0:
400,240,20970,2,0,P|436:196|444:140,1,100,8|0,0:0|0:0,0:0:0:0:
376,84,21312,6,0,P|327:96|290:128,1,100,6|0,0:0|0:0,0:0:0:0:
248,220,21655,2,0,P|208:188|192:136,1,100,8|0,0:0|0:0,0:0:0:0:
216,48,21998,1,2,0:0:0:0:
181,45,22083,1,0,0:0:0:0:
147,54,22169,1,0,0:0:0:0:
119,74,22255,1,0,0:0:0:0:
100,104,22340,1,8,0:0:0:0:
92,137,22426,1,0,0:0:0:0:
96,172,22512,1,0,0:0:0:0:
108,204,22598,1,0,0:0:0:0:
132,228,22684,6,0,P|184:248|232:236,1,100,4|0,0:0|0:0,0:0:0:0:
276,152,23027,2,0,P|311:186|323:234,1,100,8|0,0:0|0:0,0:0:0:0:
344,332,23370,2,0,P|396:348|444:332,1,100,2|0,0:0|0:0,0:0:0:0:
464,236,23712,2,0,P|476:188|512:153,1,100,8|0,0:0|0:0,0:0:0:0:
452,72,24055,6,0,P|404:84|348:72,1,100,2|0,0:0|0:0,0:0:0:0:
264,28,24398,2,0,P|215:19|166:31,1,100,8|0,0:0|0:0,0:0:0:0:
44,100,24741,1,2,0:0:0:0:
31,132,24826,1,0,0:0:0:0:
32,167,24912,1,0,0:0:0:0:
46,199,24998,1,0,0:0:0:0:
71,223,25084,2,0,P|116:244|152:292,1,100,8|0,0:0|0:0,0:0:0:0:
56,324,25427,5,4,0:0:0:0:
56,324,25598,1,4,0:0:0:0:
456,324,26112,1,4,0:0:0:0:
456,324,26283,1,4,0:0:0:0:
256,20,26798,1,4,0:0:0:0:
256,20,26970,1,4,0:0:0:0:
256,308,27312,5,4,0:0:0:0:
112,72,27655,1,4,0:0:0:0:
400,72,27998,2,0,B|448:120|400:184|400:184|352:248|400:296,1,250,4|0,0:0|0:0,0:0:0:0:
424,328,28512,6,0,P|368:372|296:352,1,150.000005722046,2|0,0:0|0:0,0:0:0:0:
212,196,29198,1,2,0:0:0:0:
148,136,29370,2,0,P|124:212|168:276,1,150.000005722046,2|0,0:0|0:0,0:0:0:0:
260,268,29884,6,0,P|294:203|269:135,1,150.000005722046,2|0,0:0|0:0,0:0:0:0:
212,68,30398,1,0,0:0:0:0:
304,64,30570,1,2,0:0:0:0:
368,128,30741,1,0,0:0:0:0:
376,216,30912,6,0,P|372:288|312:336,1,150.000005722046,2|0,0:0|0:0,0:0:0:0:
136,215,31598,2,0,P|140:288|196:335,1,150.000005722046,2|0,0:0|0:0,0:0:0:0:
256,164,32284,5,2,0:0:0:0:
300,88,32455,1,0,0:0:0:0:
208,88,32627,1,0,0:0:0:0:
256,164,32798,2,0,P|336:168|384:112,1,150.000005722046,2|0,0:0|0:0,0:0:0:0:
368,32,33312,1,2,0:0:0:0:
452,68,33484,1,0,0:0:0:0:
484,152,33655,6,0,P|480:224|420:272,1,150.000005722046,2|0,0:0|0:0,0:0:0:0:
248,228,34341,2,0,P|172:240|132:300,1,150.000005722046,2|0,0:0|0:0,0:0:0:0:
220,312,34855,6,0,L|140:184,1,150.000005722046,2|0,0:0|0:0,0:0:0:0:
44,32,35541,1,2,0:0:0:0:
92,108,35712,2,0,P|140:88|156:60,1,75.0000028610231,2|0,0:0|0:0,0:0:0:0:
244,72,36055,2,0,P|268:99|304:109,1,75.0000028610231,2|0,0:0|0:0,0:0:0:0:
420,108,36398,5,2,0:0:0:0:
256,324,36741,1,2,0:0:0:0:
92,108,37084,1,2,0:0:0:0:
420,108,37427,1,2,0:0:0:0:
420,108,37598,6,0,P|468:160|448:240,1,150.000005722046,2|2,0:0|0:0,0:0:0:0:
368,260,38112,2,0,P|340:268|320:284,3,37.5000014305115,0|0|2|0,0:0|0:0|0:0|0:0,0:0:0:0:
308,284,38455,1,0,0:0:0:0:
284,295,38540,1,0,0:0:0:0:
262,309,38626,1,0,0:0:0:0:
242,326,38712,1,0,0:0:0:0:
225,346,38797,1,0,0:0:0:0:
204,353,38883,1,0,0:0:0:0:
181,341,38969,1,0,0:0:0:0:
163,322,39054,1,0,0:0:0:0:
150,299,39141,6,0,P|124:256|72:232,1,100,4|0,0:0|0:0,0:0:0:0:
56,332,39484,1,8,0:0:0:0:
124,256,39655,1,0,0:0:0:0:
188,184,39827,2,0,L|256:108,1,100,2|0,0:0|0:0,0:0:0:0:
319,31,40170,1,8,0:0:0:0:
384,108,40341,6,0,L|450:182,2,100,0|2|0,0:0|0:0|0:0,0:0:0:0:
319,31,40855,2,0,P|224:31|177:114,1,200,8|2,0:0|0:0,0:0:0:0:
276,120,41370,1,0,0:0:0:0:
177,115,41541,2,0,P|188:163|224:197,1,100,8|0,0:0|0:0,0:0:0:0:
412,224,41884,6,0,P|404:276|360:312,1,100,2|0,0:0|0:0,0:0:0:0:
276,280,42227,2,0,P|220:276|176:304,1,100,8|0,0:0|0:0,0:0:0:0:
112,368,42570,2,0,P|84:316|88:268,1,100,2|0,0:0|0:0,0:0:0:0:
140,192,42912,2,0,P|84:176|36:192,1,100,8|0,0:0|0:0,0:0:0:0:
192,268,43255,6,0,P|224:224|232:176,1,100,2|0,0:0|0:0,0:0:0:0:
332,28,43598,2,0,P|300:72|292:120,1,100,8|0,0:0|0:0,0:0:0:0:
320,268,43941,1,2,0:0:0:0:
180,28,44112,1,0,0:0:0:0:
192,268,44284,1,8,0:0:0:0:
332,28,44455,1,0,0:0:0:0:
320,268,44627,6,0,P|256:331|191:265,1,200,4|8,0:0|0:0,0:0:0:0:
184,168,45141,2,0,P|136:140|84:148,2,100,0|2|0,0:0|0:0|0:0,0:0:0:0:
24,200,45655,2,0,P|4:152|12:100,1,100,8|0,0:0|0:0,0:0:0:0:
152,36,45998,6,0,P|200:16|252:24,1,100,2|0,0:0|0:0,0:0:0:0:
360,236,46341,2,0,P|312:256|260:248,1,100,8|0,0:0|0:0,0:0:0:0:
352,24,46684,2,0,P|372:72|364:124,1,100,2|0,0:0|0:0,0:0:0:0:
152,232,47027,2,0,P|136:184|140:132,1,100,8|0,0:0|0:0,0:0:0:0:
216,312,47370,6,0,P|153:333|51:251,1,200,4|8,0:0|0:0,0:0:0:0:
228,168,47884,1,4,0:0:0:0:
60,120,48055,1,2,0:0:0:0:
228,168,48227,2,0,P|276:164|316:124,1,100,4|8,0:0|0:0,0:0:0:0:
60,120,48570,5,4,0:0:0:0:
384,16,48912,2,0,P|424:48|440:108,1,100,4|0,0:0|0:0,0:0:0:0:
388,272,49255,1,4,0:0:0:0:
60,120,49598,1,4,0:0:0:0:
60,120,49770,5,8,0:0:0:0:
55,85,49855,1,0,0:0:0:0:
71,55,49941,1,0,0:0:0:0:
102,40,50027,1,0,0:0:0:0:
136,46,50112,6,0,P|184:68|236:56,1,100,4|0,0:0|0:0,0:0:0:0:
217,153,50455,2,0,P|238:105|226:53,1,100,8|0,0:0|0:0,0:0:0:0:
323,73,50798,2,0,P|275:51|223:63,1,100,2|0,0:0|0:0,0:0:0:0:
60,120,51141,1,8,0:0:0:0:
12,208,51312,1,0,0:0:0:0:
60,295,51484,6,0,P|112:323|158:318,1,100,4|0,0:0|0:0,0:0:0:0:
324,260,51827,2,0,P|373:259|415:285,2,100,8|0|2,0:0|0:0|0:0,0:0:0:0:
256,332,52341,1,0,0:0:0:0:
188,260,52512,1,8,0:0:0:0:
256,188,52684,1,0,0:0:0:0:
332,120,52855,6,0,P|380:108|436:120,2,100,4|0|8,0:0|0:0|0:0,0:0:0:0:
188,260,53370,2,0,P|140:272|84:260,2,100,0|2|0,0:0|0:0|0:0,0:0:0:0:
256,188,53884,1,8,0:0:0:0:
332,120,54055,1,0,0:0:0:0:
256,56,54227,6,0,L|156:36,1,100,6|0,0:0|0:0,0:0:0:0:
332,120,54570,2,0,L|432:100,1,100,8|0,0:0|0:0,0:0:0:0:
256,188,54912,2,0,L|156:168,1,100,2|0,0:0|0:0,0:0:0:0:
332,252,55255,2,0,L|432:232,1,100,8|0,0:0|0:0,0:0:0:0:
256,316,55598,6,0,L|156:296,1,100,6|0,0:0|0:0,0:0:0:0:
59,276,55941,2,0,P|80:231|122:205,1,100,8|0,0:0|0:0,0:0:0:0:
220,188,56284,2,0,P|188:136|148:112,1,100,2|0,0:0|0:0,0:0:0:0:
56,128,56627,1,8,0:0:0:0:
123,205,56798,1,0,0:0:0:0:
292,88,56970,6,0,P|336:64|400:68,1,100,6|0,0:0|0:0,0:0:0:0:
296,212,57312,2,0,P|252:236|188:232,1,100,8|0,0:0|0:0,0:0:0:0:
360,148,57655,2,0,P|384:192|380:256,1,100,2|0,0:0|0:0,0:0:0:0:
312,308,57998,1,8,0:0:0:0:
212,316,58170,1,0,0:0:0:0:
116,296,58341,6,0,P|52:228|88:136,1,200,4|8,0:0|0:0,0:0:0:0:
116,120,58770,1,0,0:0:0:0:
146,103,58855,1,0,0:0:0:0:
174,82,58941,1,0,0:0:0:0:
197,56,59027,1,2,0:0:0:0:
223,39,59112,1,0,0:0:0:0:
258,43,59198,1,0,0:0:0:0:
291,54,59284,1,0,0:0:0:0:
322,71,59369,1,8,0:0:0:0:
347,95,59455,1,0,0:0:0:0:
365,124,59541,1,0,0:0:0:0:
374,158,59627,1,0,0:0:0:0:
371,193,59712,6,0,P|276:238|245:137,1,239.999992675781,4|2,0:0|0:0,0:0:0:0:
245,137,61084,6,0,P|200:56|104:76,1,200,4|8,0:0|0:0,0:0:0:0:
8,248,61770,1,2,0:0:0:0:
68,328,61941,2,0,P|116:344|172:324,2,100,0|8|0,0:0|0:0|0:0,0:0:0:0:
188,236,62455,5,2,0:0:0:0:
156,88,62627,1,0,0:0:0:0:
161,330,62798,2,0,P|210:331|253:307,1,100,8|0,0:0|0:0,0:0:0:0:
352,192,63141,1,2,0:0:0:0:
254,307,63312,1,0,0:0:0:0:
360,100,63484,2,0,P|416:124|440:160,1,100,8|0,0:0|0:0,0:0:0:0:
276,136,63827,6,0,P|220:112|196:76,1,100,2|0,0:0|0:0,0:0:0:0:
28,136,64170,2,0,P|84:112|108:76,1,100,2|0,0:0|0:0,0:0:0:0:
152,252,64512,2,0,L|152:152,1,100,2|0,0:0|0:0,0:0:0:0:
152,20,64855,1,8,0:0:0:0:
152,252,65027,1,0,0:0:0:0:
380,192,65198,5,2,0:0:0:0:
152,152,65370,1,0,0:0:0:0:
380,112,65541,1,8,0:0:0:0:
152,152,65712,2,0,P|189:184|237:192,1,100,2|0,0:0|0:0,0:0:0:0:
380,112,66055,1,0,0:0:0:0:
380,276,66227,1,8,0:0:0:0:
238,192,66398,1,0,0:0:0:0:
218,43,66570,6,0,P|315:39|380:112,1,200,4|8,0:0|0:0,0:0:0:0:
92,308,67255,2,0,P|51:333|-5:333,2,100,2|0|8,0:0|0:0|0:0,0:0:0:0:
146,219,67770,2,0,P|188:193|238:192,1,100,0|2,0:0|0:0,0:0:0:0:
477,277,68112,5,0,0:0:0:0:
322,224,68284,1,8,0:0:0:0:
417,357,68455,1,0,0:0:0:0:
420,196,68627,1,2,0:0:0:0:
322,325,68798,1,0,0:0:0:0:
477,277,68970,2,0,P|508:236|512:184,1,100,8|0,0:0|0:0,0:0:0:0:
290,59,69312,6,0,P|247:82|222:125,1,100,2|0,0:0|0:0,0:0:0:0:
215,254,69655,1,8,0:0:0:0:
330,195,69827,1,0,0:0:0:0:
221,125,69998,1,2,0:0:0:0:
209,264,70170,5,0,0:0:0:0:
342,196,70342,1,8,0:0:0:0:
216,115,70513,1,0,0:0:0:0:
210,336,70684,5,4,0:0:0:0:
400,236,70855,1,4,0:0:0:0:
299,46,71027,1,4,0:0:0:0:
112,148,71198,1,4,0:0:0:0:
112,148,71541,5,0,0:0:0:0:
89,174,71626,1,0,0:0:0:0:
79,208,71712,1,8,0:0:0:0:
84,242,71798,1,0,0:0:0:0:
101,272,71883,1,0,0:0:0:0:
129,292,71969,1,0,0:0:0:0:
160,304,72055,6,0,P|252:288|276:196,1,200,4|8,0:0|0:0,0:0:0:0:
140,24,72741,1,2,0:0:0:0:
240,24,72912,2,0,P|288:36|324:76,1,100,0|8,0:0|0:0,0:0:0:0:
372,264,73255,6,0,P|406:299|453:311,2,100,0|2|0,0:0|0:0|0:0,0:0:0:0:
240,24,73770,1,8,0:0:0:0:
160,184,73941,1,0,0:0:0:0:
300,68,74112,1,2,0:0:0:0:
128,120,74283,1,0,0:0:0:0:
308,140,74455,1,8,0:0:0:0:
148,52,74627,1,0,0:0:0:0:
248,200,74798,6,0,P|284:236|336:252,1,100,2|0,0:0|0:0,0:0:0:0:
440,244,75141,2,0,P|436:292|400:336,1,100,8|0,0:0|0:0,0:0:0:0:
295,331,75484,2,0,P|247:319|199:330,1,100,2|0,0:0|0:0,0:0:0:0:
100,376,75827,1,8,0:0:0:0:
84,268,75998,6,0,P|48:232|-12:216,2,100,0|2|0,0:0|0:0|0:0,0:0:0:0:
100,376,76512,1,8,0:0:0:0:
200,331,76684,2,0,P|236:292|248:232,1,100,2|0,0:0|0:0,0:0:0:0:
256,136,77027,1,0,0:0:0:0:
168,72,77198,1,8,0:0:0:0:
156,180,77370,1,0,0:0:0:0:
256,28,77541,6,0,P|304:28|360:60,1,100,4|0,0:0|0:0,0:0:0:0:
388,224,77884,1,8,0:0:0:0:
388,224,78055,2,0,P|340:224|284:192,1,100,0|2,0:0|0:0,0:0:0:0:
168,72,78398,2,0,P|119:80|79:110,1,100,0|8,0:0|0:0,0:0:0:0:
44,256,78741,6,0,L|16:376,2,100,0|2|0,0:0|0:0|0:0,0:0:0:0:
79,111,79255,1,8,0:0:0:0:
196,204,79427,2,0,L|298:272,1,100,0|2,0:0|0:0,0:0:0:0:
412,328,79770,1,0,0:0:0:0:
437,311,79855,1,0,0:0:0:0:
456,289,79941,1,8,0:0:0:0:
469,262,80027,1,0,0:0:0:0:
472,232,80112,1,0,0:0:0:0:
468,202,80198,1,0,0:0:0:0:
454,176,80284,6,0,P|416:136|376:120,1,100,4|0,0:0|0:0,0:0:0:0:
227,143,80627,2,0,P|261:180|307:200,1,100,4|0,0:0|0:0,0:0:0:0:
256,60,80970,1,2,0:0:0:0:
160,80,81141,1,0,0:0:0:0:
136,176,81312,1,8,0:0:0:0:
212,240,81484,1,0,0:0:0:0:
307,200,81655,5,0,0:0:0:0:
315,228,81740,1,0,0:0:0:0:
314,258,81826,1,0,0:0:0:0:
306,287,81912,1,0,0:0:0:0:
290,312,81997,1,0,0:0:0:0:
268,332,82083,1,0,0:0:0:0:
241,345,82169,1,0,0:0:0:0:
212,351,82255,1,0,0:0:0:0:
182,348,82340,1,0,0:0:0:0:
154,337,82426,1,0,0:0:0:0:
131,318,82512,1,0,0:0:0:0:
113,294,82597,1,0,0:0:0:0:
104,268,82684,1,8,0:0:0:0:
104,268,83027,5,4,0:0:0:0:
256,192,83112,12,2,85770,0:0:0:0:
88,92,93312,6,0,P|148:104|192:140,1,100,2|0,0:0|0:0,0:0:0:0:
196,152,93570,1,0,0:0:0:0:
210,178,93655,1,0,0:0:0:0:
231,199,93741,1,0,0:0:0:0:
257,214,93827,1,0,0:0:0:0:
286,221,93912,1,0,0:0:0:0:
316,219,93998,6,0,P|360:208|420:220,1,100,4|0,0:0|0:0,0:0:0:0:
504,260,94341,2,0,P|512:204|496:160,1,100,8|0,0:0|0:0,0:0:0:0:
420,96,94684,2,0,P|466:68|515:65,1,100,2|0,0:0|0:0,0:0:0:0:
420,95,95027,2,0,P|378:122|328:127,1,100,8|0,0:0|0:0,0:0:0:0:
88,80,95370,6,0,P|134:52|183:49,1,100,2|0,0:0|0:0,0:0:0:0:
329,127,95712,1,8,0:0:0:0:
311,151,95797,1,0,0:0:0:0:
287,169,95883,1,0,0:0:0:0:
259,179,95969,1,0,0:0:0:0:
229,181,96055,2,0,P|172:188|132:220,1,100,2|0,0:0|0:0,0:0:0:0:
76,288,96398,2,0,P|44:240|44:192,1,100,8|0,0:0|0:0,0:0:0:0:
168,303,96741,6,0,P|216:311|263:295,1,100,2|0,0:0|0:0,0:0:0:0:
344,192,97084,1,8,0:0:0:0:
392,312,97255,1,0,0:0:0:0:
263,295,97427,1,2,0:0:0:0:
344,192,97598,1,0,0:0:0:0:
436,100,97770,1,8,0:0:0:0:
308,72,97941,1,0,0:0:0:0:
344,192,98112,5,2,0:0:0:0:
216,168,98284,1,0,0:0:0:0:
207,144,98369,1,0,0:0:0:0:
207,119,98455,1,8,0:0:0:0:
214,95,98541,1,0,0:0:0:0:
228,75,98626,1,0,0:0:0:0:
116,24,98798,2,0,L|12:12,1,100,2|0,0:0|0:0,0:0:0:0:
24,136,99141,2,0,L|123:147,1,100,8|0,0:0|0:0,0:0:0:0:
368,124,99484,6,0,P|408:224|340:264,1,200,4|8,0:0|0:0,0:0:0:0:
256,220,99998,1,0,0:0:0:0:
180,156,100170,2,0,P|128:172|100:220,1,100,2|0,0:0|0:0,0:0:0:0:
256,220,100512,2,0,P|276:164|272:120,1,100,8|0,0:0|0:0,0:0:0:0:
192,64,100855,5,2,0:0:0:0:
288,32,101027,1,0,0:0:0:0:
372,88,101198,2,0,P|432:80|468:52,2,100,8|0|2,0:0|0:0|0:0,0:0:0:0:
288,32,101712,1,0,0:0:0:0:
192,64,101884,1,8,0:0:0:0:
100,28,102055,1,0,0:0:0:0:
56,144,102227,6,0,L|36:248,1,100,2|0,0:0|0:0,0:0:0:0:
28,292,102484,1,0,0:0:0:0:
24,344,102570,2,0,P|64:364|120:364,1,100,8|0,0:0|0:0,0:0:0:0:
160,340,102827,1,0,0:0:0:0:
200,308,102912,2,0,P|248:296|304:308,1,100,2|0,0:0|0:0,0:0:0:0:
344,324,103170,1,0,0:0:0:0:
384,352,103255,1,8,0:0:0:0:
496,216,103427,6,0,L|516:112,2,100,0|2|0,0:0|0:0|0:0,0:0:0:0:
476,316,103941,2,0,P|428:288|400:240,1,100,8|0,0:0|0:0,0:0:0:0:
412,152,104284,1,2,0:0:0:0:
398,125,104369,1,0,0:0:0:0:
379,101,104455,1,0,0:0:0:0:
356,82,104541,1,0,0:0:0:0:
330,68,104626,1,8,0:0:0:0:
301,60,104712,1,0,0:0:0:0:
271,58,104798,1,0,0:0:0:0:
241,62,104884,1,0,0:0:0:0:
213,72,104970,6,0,P|168:100|108:100,1,100,4|0,0:0|0:0,0:0:0:0:
32,60,105312,2,0,L|52:160,1,100,8|0,0:0|0:0,0:0:0:0:
76,256,105655,1,6,0:0:0:0:
104,352,105827,2,0,P|152:360|204:344,2,100,0|8|0,0:0|0:0|0:0,0:0:0:0:
76,256,106341,6,0,L|52:152,1,100,6|0,0:0|0:0,0:0:0:0:
32,60,106684,2,0,P|80:40|132:44,1,100,8|0,0:0|0:0,0:0:0:0:
192,120,107027,1,6,0:0:0:0:
211,142,107112,1,0,0:0:0:0:
238,154,107198,1,0,0:0:0:0:
268,155,107284,1,0,0:0:0:0:
295,143,107370,2,0,P|336:108|344:64,1,100,8|0,0:0|0:0,0:0:0:0:
256,20,107712,5,4,0:0:0:0:
256,20,107884,1,4,0:0:0:0:
68,336,108398,1,4,0:0:0:0:
68,336,108570,1,4,0:0:0:0:
444,336,109084,1,4,0:0:0:0:
444,336,109256,1,4,0:0:0:0:
396,128,109598,5,4,0:0:0:0:
256,324,109941,1,4,0:0:0:0:
116,128,110284,2,0,P|92:72|208:96,1,250,4|0,0:0|0:0,0:0:0:0:
224,124,110798,6,0,P|283:163|347:131,1,150.000005722046,2|0,0:0|0:0,0:0:0:0:
454,27,111484,1,2,0:0:0:0:
454,27,111655,2,0,P|403:82|347:132,1,150.000005722046,2|0,0:0|0:0,0:0:0:0:
224,224,112170,6,0,P|228:296|288:280,1,150.000005722046,2|0,0:0|0:0,0:0:0:0:
304,196,112684,1,0,0:0:0:0:
236,140,112855,1,2,0:0:0:0:
152,172,113027,1,0,0:0:0:0:
68,204,113198,6,0,P|84:112|136:84,1,150.000005722046,2|0,0:0|0:0,0:0:0:0:
255,299,113884,2,0,P|263:339|251:379,2,75.0000028610231,2|0|2,0:0|0:0|0:0,0:0:0:0:
152,172,114570,5,2,0:0:0:0:
236,140,114741,1,0,0:0:0:0:
304,196,114913,1,0,0:0:0:0:
348,276,115084,2,0,P|424:292|480:232,1,150.000005722046,2|0,0:0|0:0,0:0:0:0:
396,200,115598,1,2,0:0:0:0:
304,196,115770,1,0,0:0:0:0:
236,140,115941,6,0,B|188:116|188:64|188:64|152:60|112:76,1,150.000005722046,2|0,0:0|0:0,0:0:0:0:
36,136,116627,2,0,B|27:154|31:190|31:190|83:190|107:238,1,150.000005722046,2|0,0:0|0:0,0:0:0:0:
140,320,117141,6,0,P|216:340|276:300,1,150.000005722046,2|0,0:0|0:0,0:0:0:0:
308,220,117655,2,0,P|328:168|328:136,1,75.0000028610231,2|0,0:0|0:0,0:0:0:0:
280,72,117998,2,0,L|200:40,1,75.0000028610231,2|0,0:0|0:0,0:0:0:0:
136,96,118341,2,0,L|205:123,1,75.0000028610231,2|0,0:0|0:0,0:0:0:0:
416,192,118684,5,2,0:0:0:0:
256,324,119027,1,2,0:0:0:0:
416,192,119370,1,2,0:0:0:0:
256,324,119713,1,2,0:0:0:0:
416,192,119884,6,0,P|376:124|304:108,1,150.000005722046,2|2,0:0|0:0,0:0:0:0:
220,116,120398,2,0,P|188:100|176:88,3,37.5000014305115,0|0|2|0,0:0|0:0|0:0|0:0,0:0:0:0:
168,80,120741,1,2,0:0:0:0:
154,61,120826,1,0,0:0:0:0:
136,49,120912,1,0,0:0:0:0:
114,43,120998,1,0,0:0:0:0:
92,45,121083,1,0,0:0:0:0:
72,55,121169,1,0,0:0:0:0:
56,71,121255,1,0,0:0:0:0:
47,91,121341,1,0,0:0:0:0:
46,114,121427,6,0,P|56:164|44:220,1,100,4|0,0:0|0:0,0:0:0:0:
144,356,121770,2,0,P|134:306|146:250,1,100,8|0,0:0|0:0,0:0:0:0:
240,116,122112,2,0,P|250:166|238:222,1,100,2|0,0:0|0:0,0:0:0:0:
144,356,122456,1,8,0:0:0:0:
240,116,122627,6,0,P|264:60|304:32,2,100,0|2|0,0:0|0:0|0:0,0:0:0:0:
160,248,123141,2,0,P|232:300|324:244,1,200,8|2,0:0|0:0,0:0:0:0:
340,144,123656,1,0,0:0:0:0:
320,36,123827,2,0,P|368:36|424:72,1,100,8|0,0:0|0:0,0:0:0:0:
340,144,124170,6,0,P|292:144|236:108,1,100,2|0,0:0|0:0,0:0:0:0:
44,24,124512,2,0,P|92:24|148:60,1,100,8|0,0:0|0:0,0:0:0:0:
104,272,124855,2,0,P|104:224|140:168,1,100,2|0,0:0|0:0,0:0:0:0:
340,144,125198,2,0,P|340:192|304:248,1,100,8|0,0:0|0:0,0:0:0:0:
312,56,125541,6,0,P|360:52|412:84,1,100,2|0,0:0|0:0,0:0:0:0:
347,319,125884,2,0,P|298:322|255:299,1,100,8|0,0:0|0:0,0:0:0:0:
148,128,126227,1,2,0:0:0:0:
132,328,126398,1,0,0:0:0:0:
260,176,126570,1,8,0:0:0:0:
68,228,126741,1,0,0:0:0:0:
255,299,126912,6,0,B|300:340|372:340|408:280|408:236,1,200,4|8,0:0|0:0,0:0:0:0:
392,136,127427,2,0,P|444:144|484:172,2,100,0|2|0,0:0|0:0|0:0,0:0:0:0:
284,160,127941,2,0,P|232:152|192:124,1,100,8|0,0:0|0:0,0:0:0:0:
140,28,128284,6,0,P|100:60|84:108,1,100,2|0,0:0|0:0,0:0:0:0:
120,276,128627,2,0,P|160:244|176:196,1,100,8|0,0:0|0:0,0:0:0:0:
12,140,128970,2,0,P|44:180|92:196,1,100,2|0,0:0|0:0,0:0:0:0:
256,164,129312,2,0,P|224:124|176:108,1,100,8|0,0:0|0:0,0:0:0:0:
120,276,129655,6,0,B|160:356|208:352|208:352|232:320|272:308,1,200,4|8,0:0|0:0,0:0:0:0:
472,312,130170,1,0,0:0:0:0:
372,268,130341,1,2,0:0:0:0:
377,159,130512,2,0,P|425:168|460:204,1,100,4|8,0:0|0:0,0:0:0:0:
472,312,130856,5,4,0:0:0:0:
20,216,131198,2,0,P|40:164|80:140,1,100,4|0,0:0|0:0,0:0:0:0:
184,124,131541,1,4,0:0:0:0:
372,268,131884,1,4,0:0:0:0:
372,268,132055,5,0,0:0:0:0:
392,253,132140,1,0,0:0:0:0:
407,233,132226,1,0,0:0:0:0:
416,210,132312,1,0,0:0:0:0:
417,185,132398,6,0,P|412:132|384:96,1,100,4|0,0:0|0:0,0:0:0:0:
235,200,132741,2,0,P|284:197|324:168,1,100,8|0,0:0|0:0,0:0:0:0:
152,180,133084,2,0,P|155:229|184:268,1,100,2|0,0:0|0:0,0:0:0:0:
212,88,133427,1,8,0:0:0:0:
212,360,133598,1,0,0:0:0:0:
212,360,133770,6,0,P|260:368|312:344,1,100,4|0,0:0|0:0,0:0:0:0:
368,260,134112,2,0,P|404:296|416:344,2,100,8|0|2,0:0|0:0|0:0,0:0:0:0:
272,204,134627,1,0,0:0:0:0:
164,216,134798,1,8,0:0:0:0:
80,144,134970,1,0,0:0:0:0:
176,92,135141,6,0,P|156:56|104:32,2,100,4|0|8,0:0|0:0|0:0,0:0:0:0:
164,216,135655,2,0,P|184:252|236:276,2,100,0|2|0,0:0|0:0|0:0,0:0:0:0:
176,92,136170,1,8,0:0:0:0:
280,156,136341,1,0,0:0:0:0:
380,48,136512,6,0,L|404:160,1,100,4|0,0:0|0:0,0:0:0:0:
380,336,136855,2,0,L|359:238,1,100,8|0,0:0|0:0,0:0:0:0:
259,58,137198,2,0,L|280:156,1,100,2|0,0:0|0:0,0:0:0:0:
259,346,137541,2,0,L|235:234,1,100,8|0,0:0|0:0,0:0:0:0:
259,58,137884,6,0,P|208:77|180:117,1,100,4|0,0:0|0:0,0:0:0:0:
105,168,138227,2,0,P|155:148|183:108,1,100,8|0,0:0|0:0,0:0:0:0:
127,36,138570,2,0,P|146:86|186:114,1,100,2|0,0:0|0:0,0:0:0:0:
280,160,138913,1,8,0:0:0:0:
360,84,139084,1,0,0:0:0:0:
448,264,139255,6,0,P|420:308|368:328,1,100,4|0,0:0|0:0,0:0:0:0:
184,308,139598,2,0,P|228:280|283:285,1,100,8|0,0:0|0:0,0:0:0:0:
120,380,139941,2,0,P|92:332|96:280,1,100,2|0,0:0|0:0,0:0:0:0:
160,200,140284,1,8,0:0:0:0:
76,128,140456,1,0,0:0:0:0:
160,200,140627,6,0,P|256:216|312:140,1,200,4|8,0:0|0:0,0:0:0:0:
312,108,141055,1,0,0:0:0:0:
324,75,141140,1,0,0:0:0:0:
347,49,141226,1,0,0:0:0:0:
378,34,141312,1,0,0:0:0:0:
413,31,141397,1,0,0:0:0:0:
446,40,141483,1,0,0:0:0:0:
474,62,141569,1,0,0:0:0:0:
492,91,141655,1,0,0:0:0:0:
498,126,141740,1,0,0:0:0:0:
491,160,141826,1,0,0:0:0:0:
472,189,141912,1,0,0:0:0:0:
445,214,141998,6,0,B|396:264|336:220|336:220|256:176|229:222,1,239.999992675781,4|2,0:0|0:0,0:0:0:0:
230,222,143370,6,0,P|136:252|88:176,1,200,4|8,0:0|0:0,0:0:0:0:
292,24,144056,1,2,0:0:0:0:
340,112,144227,2,0,P|372:152|420:168,2,100,0|8|0,0:0|0:0|0:0,0:0:0:0:
292,24,144741,5,2,0:0:0:0:
230,222,144913,1,0,0:0:0:0:
198,50,145084,2,0,P|242:27|292:24,1,100,8|0,0:0|0:0,0:0:0:0:
400,168,145427,1,2,0:0:0:0:
230,222,145598,1,0,0:0:0:0:
198,50,145770,2,0,P|148:53|104:76,1,100,8|0,0:0|0:0,0:0:0:0:
32,208,146112,6,0,P|81:204|125:181,1,100,2|0,0:0|0:0,0:0:0:0:
230,222,146455,2,0,P|248:267|284:302,1,100,8|0,0:0|0:0,0:0:0:0:
392,328,146798,2,0,P|437:310|473:276,1,100,2|0,0:0|0:0,0:0:0:0:
476,156,147141,2,0,P|424:164|384:208,1,100,2|0,0:0|0:0,0:0:0:0:
276,332,147484,5,2,0:0:0:0:
108,268,147655,1,0,0:0:0:0:
172,100,147827,1,8,0:0:0:0:
348,128,147998,1,0,0:0:0:0:
288,252,148170,2,0,P|228:252|192:228,1,100,2|0,0:0|0:0,0:0:0:0:
48,216,148512,2,0,P|60:168|88:124,1,100,8|0,0:0|0:0,0:0:0:0:
172,44,148855,6,0,P|268:24|344:92,1,200,4|8,0:0|0:0,0:0:0:0:
124,208,149541,2,0,P|72:204|28:168,2,100,2|0|8,0:0|0:0|0:0,0:0:0:0:
232,175,150055,2,0,P|281:177|323:203,1,100,0|2,0:0|0:0,0:0:0:0:
396,288,150398,5,0,0:0:0:0:
288,308,150570,1,8,0:0:0:0:
323,203,150741,1,0,0:0:0:0:
432,188,150913,1,2,0:0:0:0:
364,100,151084,1,0,0:0:0:0:
256,116,151255,2,0,P|204:104|176:68,1,100,8|0,0:0|0:0,0:0:0:0:
80,16,151598,6,0,L|64:114,1,100,2|0,0:0|0:0,0:0:0:0:
48,244,151941,1,8,0:0:0:0:
168,192,152113,1,0,0:0:0:0:
65,115,152284,1,2,0:0:0:0:
168,324,152456,5,0,0:0:0:0:
244,220,152628,1,8,0:0:0:0:
120,260,152799,1,0,0:0:0:0:
244,300,152970,5,4,0:0:0:0:
228,140,153141,1,4,0:0:0:0:
120,260,153313,1,4,0:0:0:0:
228,140,153484,1,4,0:0:0:0:
228,140,153827,5,0,0:0:0:0:
245,109,153912,1,0,0:0:0:0:
271,86,153998,1,8,0:0:0:0:
303,72,154084,1,0,0:0:0:0:
338,69,154169,1,0,0:0:0:0:
372,76,154255,1,0,0:0:0:0:
400,96,154341,6,0,P|428:188|352:240,1,200,4|8,0:0|0:0,0:0:0:0:
120,128,155027,1,2,0:0:0:0:
120,128,155198,2,0,L|104:232,1,100,4|8,0:0|0:0,0:0:0:0:
24,304,155541,6,0,P|58:339|105:351,2,100,0|2|0,0:0|0:0|0:0,0:0:0:0:
176,288,156056,1,8,0:0:0:0:
308,360,156227,1,0,0:0:0:0:
300,212,156398,1,2,0:0:0:0:
218,361,156569,1,0,0:0:0:0:
349,287,156741,1,8,0:0:0:0:
220,216,156912,1,0,0:0:0:0:
152,120,157084,6,0,P|188:80|236:64,1,100,4|0,0:0|0:0,0:0:0:0:
380,84,157427,1,8,0:0:0:0:
300,212,157598,1,0,0:0:0:0:
380,84,157770,2,0,P|428:104|460:152,1,100,2|0,0:0|0:0,0:0:0:0:
428,288,158113,1,8,0:0:0:0:
300,212,158284,6,0,P|252:196|200:200,2,100,0|2|0,0:0|0:0|0:0,0:0:0:0:
428,288,158798,1,8,0:0:0:0:
300,364,158970,2,0,P|252:380|200:376,1,100,2|0,0:0|0:0,0:0:0:0:
68,316,159312,1,0,0:0:0:0:
24,172,159484,1,8,0:0:0:0:
148,260,159656,1,0,0:0:0:0:
100,116,159827,6,0,P|144:84|192:76,1,100,4|0,0:0|0:0,0:0:0:0:
328,128,160170,1,8,0:0:0:0:
328,128,160341,2,0,P|284:160|236:168,1,100,0|2,0:0|0:0,0:0:0:0:
348,36,160684,2,0,P|391:59|417:101,1,100,0|8,0:0|0:0,0:0:0:0:
428,252,161027,6,0,P|453:294|497:317,2,100,0|2|0,0:0|0:0|0:0,0:0:0:0:
417,102,161541,1,8,0:0:0:0:
428,252,161712,2,0,P|402:294|358:317,1,100,0|2,0:0|0:0,0:0:0:0:
228,244,162055,1,0,0:0:0:0:
198,237,162140,1,0,0:0:0:0:
168,238,162226,1,8,0:0:0:0:
140,247,162312,1,0,0:0:0:0:
114,261,162397,1,0,0:0:0:0:
92,282,162483,1,0,0:0:0:0:
76,316,162570,6,0,L|48:204,1,100,4|0,0:0|0:0,0:0:0:0:
88,36,162912,2,0,L|116:148,1,100,8|0,0:0|0:0,0:0:0:0:
168,316,163256,1,6,0:0:0:0:
200,128,163427,1,0,0:0:0:0:
256,308,163598,1,8,0:0:0:0:
284,120,163770,1,0,0:0:0:0:
340,300,163941,5,6,0:0:0:0:
369,295,164026,1,0,0:0:0:0:
396,283,164112,1,0,0:0:0:0:
420,265,164198,1,0,0:0:0:0:
439,241,164283,1,8,0:0:0:0:
451,214,164369,1,0,0:0:0:0:
456,184,164455,1,0,0:0:0:0:
454,154,164541,1,0,0:0:0:0:
444,126,164626,1,6,0:0:0:0:
428,101,164712,1,0,0:0:0:0:
407,80,164798,1,0,0:0:0:0:
385,59,164883,1,0,0:0:0:0:
360,48,164969,1,8,0:0:0:0:
360,48,165312,5,4,0:0:0:0:
256,192,165398,12,8,170455,0:0:0:0:
256,308,170798,6,0,P|298:268|315:208,1,100,4|0,0:0|0:0,0:0:0:0:
130,154,171141,2,0,P|162:191|208:212,1,100,8|0,0:0|0:0,0:0:0:0:
277,30,171484,2,0,P|240:62|220:108,1,100,2|0,0:0|0:0,0:0:0:0:
256,308,171827,1,8,0:0:0:0:
381,154,171998,1,0,0:0:0:0:
381,154,172084,1,0,0:0:0:0:
381,154,172170,6,0,L|444:60,1,100,4|0,0:0|0:0,0:0:0:0:
328,64,172512,2,0,L|272:147,1,100,8|0,0:0|0:0,0:0:0:0:
216,240,172855,2,0,P|180:200|168:156,1,100,2|0,0:0|0:0,0:0:0:0:
124,56,173198,2,0,L|68:139,1,100,8|0,0:0|0:0,0:0:0:0:
16,236,173541,5,2,0:0:0:0:
17,265,173626,1,0,0:0:0:0:
26,294,173712,1,0,0:0:0:0:
42,319,173798,1,0,0:0:0:0:
64,340,173883,1,8,0:0:0:0:
91,354,173969,1,0,0:0:0:0:
120,361,174055,1,0,0:0:0:0:
149,361,174141,1,0,0:0:0:0:
178,353,174227,5,2,0:0:0:0:
200,332,174312,1,0,0:0:0:0:
225,316,174398,1,0,0:0:0:0:
253,305,174484,1,0,0:0:0:0:
283,300,174569,1,8,0:0:0:0:
312,301,174655,1,0,0:0:0:0:
342,308,174741,1,0,0:0:0:0:
368,324,174827,1,0,0:0:0:0:
392,344,174912,5,2,0:0:0:0:
420,352,174997,1,0,0:0:0:0:
449,347,175083,1,0,0:0:0:0:
473,329,175169,1,0,0:0:0:0:
486,302,175254,1,8,0:0:0:0:
486,273,175340,1,0,0:0:0:0:
473,246,175426,1,0,0:0:0:0:
452,228,175512,1,0,0:0:0:0:
428,212,175598,6,0,P|404:192|392:168,1,50,2|0,0:0|0:0,0:0:0:0:
380,128,175770,2,0,P|360:104|332:88,1,50,2|0,1:1|0:0,0:0:0:0:
296,88,175941,2,0,P|256:76|232:56,1,50,2|0,1:1|0:0,0:0:0:0:
212,40,176112,2,0,P|184:28|156:28,1,50,12|0,0:3|0:0,0:0:0:0:
116,32,176284,6,0,P|80:72|72:124,1,100,4|0,0:0|0:0,0:0:0:0:
100,212,176627,1,8,0:0:0:0:
184,268,176798,1,0,0:0:0:0:
276,304,176970,2,0,P|322:286|353:247,1,100,2|0,0:0|0:0,0:0:0:0:
288,116,177312,2,0,P|241:133|210:172,1,100,8|0,0:0|0:0,0:0:0:0:
156,363,177655,5,2,0:0:0:0:
100,212,177827,1,0,0:0:0:0:
56,368,177998,1,8,0:0:0:0:
184,268,178170,1,0,0:0:0:0:
22,273,178341,1,2,0:0:0:0:
156,363,178512,1,0,0:0:0:0:
156,363,178598,1,0,0:0:0:0:
156,363,178684,2,0,P|208:364|252:336,1,100,8|0,0:0|0:0,0:0:0:0:
352,280,179027,6,0,L|424:244,2,66.6666666666667,2|0|0,0:0|0:0|0:0,0:0:0:0:
348,200,179370,2,0,L|420:164,2,66.6666666666667,8|0|0,0:0|0:0|0:0,0:0:0:0:
336,120,179712,2,0,L|408:84,2,66.6666666666667,2|0|0,0:0|0:0|0:0,0:0:0:0:
332,40,180055,2,0,L|404:4,2,66.6666666666667,8|0|0,0:0|0:0|0:0,0:0:0:0:
264,84,180398,5,4,0:0:0:0:
168,136,180570,1,0,0:0:0:0:
168,28,180741,1,8,0:0:0:0:
84,100,180912,1,0,0:0:0:0:
84,100,180998,1,0,0:0:0:0:
84,100,181084,2,0,L|60:208,1,100,2|0,0:0|0:0,0:0:0:0:
52,308,181427,1,8,0:0:0:0:
73,328,181512,1,0,0:0:0:0:
99,343,181598,1,0,0:0:0:0:
128,349,181684,1,0,0:0:0:0:
158,348,181770,6,0,P|216:332|248:296,1,100,4|0,0:0|0:0,0:0:0:0:
372,152,182112,2,0,P|314:168|282:204,1,100,8|0,0:0|0:0,0:0:0:0:
364,352,182455,2,0,P|347:294|311:262,1,100,2|0,0:0|0:0,0:0:0:0:
167,138,182798,2,0,P|183:195|212:224,1,100,8|0,0:0|0:0,0:0:0:0:
240,64,183141,5,2,0:0:0:0:
140,48,183312,1,0,0:0:0:0:
64,112,183484,1,8,0:0:0:0:
68,212,183655,1,0,0:0:0:0:
132,288,183827,2,0,P|72:312|28:304,1,100,2|0,0:0|0:0,0:0:0:0:
156,204,184170,2,0,P|216:180|260:188,1,100,8|0,0:0|0:0,0:0:0:0:
468,280,184512,5,6,0:0:0:0:
376,320,184684,1,0,0:0:0:0:
388,220,184855,1,8,0:0:0:0:
476,172,185027,1,0,0:0:0:0:
476,172,185112,1,0,0:0:0:0:
476,172,185198,2,0,P|440:132|384:120,1,100,2|0,0:0|0:0,0:0:0:0:
304,156,185541,1,8,0:0:0:0:
304,156,185627,1,0,0:0:0:0:
304,156,185712,1,0,0:0:0:0:
196,24,185884,5,2,0:0:0:0:
66,117,186055,1,0,0:0:0:0:
225,117,186227,1,8,0:0:0:0:
95,24,186398,1,0,0:0:0:0:
146,176,186570,1,2,0:0:0:0:
144,312,186741,1,0,0:0:0:0:
144,312,186827,1,0,0:0:0:0:
144,312,186912,2,0,P|192:332|244:328,1,100,8|0,0:0|0:0,0:0:0:0:
372,316,187255,5,2,0:0:0:0:
372,316,187370,2,0,L|444:300,1,66.6666666666667,0|0,0:0|0:0,0:0:0:0:
496,208,187598,1,8,0:0:0:0:
496,208,187712,2,0,L|430:222,1,66.6666666666667,0|0,0:0|0:0,0:0:0:0:
332,160,187941,1,2,0:0:0:0:
332,160,188055,2,0,L|397:145,1,66.6666666666667,0|0,0:0|0:0,0:0:0:0:
448,40,188284,1,8,0:0:0:0:
448,40,188398,2,0,L|382:54,1,66.6666666666667,0|0,0:0|0:0,0:0:0:0:
272,48,188627,6,0,P|240:40|204:16,2,66.6666666666667,2|0|0,0:0|0:0|0:0,0:0:0:0:
112,108,188970,2,0,P|144:116|184:148,2,66.6666666666667,8|0|0,0:0|0:0|0:0,0:0:0:0:
4,184,189312,1,2,0:0:0:0:
1,213,189397,1,0,0:0:0:0:
6,243,189483,1,0,0:0:0:0:
18,270,189569,1,0,0:0:0:0:
36,294,189655,2,0,P|64:328|124:348,1,100,8|0,0:0|0:0,0:0:0:0:
224,364,189998,5,2,0:0:0:0:
253,361,190083,1,0,0:0:0:0:
281,351,190169,1,0,0:0:0:0:
305,333,190255,1,0,0:0:0:0:
324,312,190341,2,0,P|356:264|364:220,1,100,12|0,0:0|0:0,0:0:0:0:
256,20,190684,2,0,P|224:68|216:112,1,100,2|0,0:0|0:0,0:0:0:0:
224,364,191027,5,8,0:0:0:0:
194,361,191112,1,0,0:0:0:0:
166,351,191198,1,0,0:0:0:0:
142,333,191284,1,0,0:0:0:0:
124,312,191370,2,0,P|92:264|84:220,1,100,4|0,0:0|0:0,0:0:0:0:
84,192,191627,1,0,0:0:0:0:
88,164,191712,2,0,P|99:115|127:75,1,100,8|0,0:0|0:0,0:0:0:0:
224,128,192055,5,2,0:0:0:0:
248,145,192140,1,0,0:0:0:0:
277,153,192226,1,0,0:0:0:0:
306,151,192312,1,0,0:0:0:0:
334,140,192397,1,8,0:0:0:0:
357,121,192483,1,0,0:0:0:0:
371,95,192569,1,0,0:0:0:0:
377,65,192655,1,0,0:0:0:0:
372,36,192740,5,4,0:0:0:0:
240,112,196855,6,0,P|204:148|192:204,1,100,4|0,0:0|0:0,0:0:0:0:
384,248,197198,2,0,P|349:212|301:199,1,100,8|0,0:0|0:0,0:0:0:0:
251,370,197541,2,0,P|286:335|300:288,1,100,2|0,0:0|0:0,0:0:0:0:
240,112,197884,1,8,0:0:0:0:
220,89,197969,1,0,0:0:0:0:
195,73,198055,1,0,0:0:0:0:
166,64,198141,1,0,0:0:0:0:
136,60,198227,6,0,P|80:56|32:80,1,100,4|0,0:0|0:0,0:0:0:0:
48,184,198570,2,0,P|104:188|152:164,1,100,8|0,0:0|0:0,0:0:0:0:
240,112,198912,2,0,P|288:116|332:144,1,100,2|0,0:0|0:0,0:0:0:0:
412,220,199255,1,8,0:0:0:0:
444,324,199426,1,0,0:0:0:0:
340,364,199598,6,0,P|272:352|240:320,1,100,4|0,0:0|0:0,0:0:0:0:
204,232,199941,2,0,P|160:264|140:308,1,100,8|0,0:0|0:0,0:0:0:0:
304,244,200284,2,0,P|337:201|344:153,1,100,2|0,0:0|0:0,0:0:0:0:
256,24,200626,1,8,0:0:0:0:
164,156,200798,1,0,0:0:0:0:
308,84,200970,6,0,L|404:24,1,100,4|0,0:0|0:0,0:0:0:0:
356,136,201312,2,0,L|464:102,1,100,8|0,0:0|0:0,0:0:0:0:
392,200,201655,2,0,L|505:196,1,100,2|0,0:0|0:0,0:0:0:0:
408,272,201998,2,0,L|518:297,1,100,8|0,0:0|0:0,0:0:0:0:
408,348,202341,6,0,L|310:325,1,100,4|0,0:0|0:0,0:0:0:0:
204,300,202684,1,0,0:0:0:0:
175,292,202769,1,0,0:0:0:0:
148,277,202855,1,0,0:0:0:0:
127,257,202941,1,0,0:0:0:0:
112,231,203026,1,0,0:0:0:0:
103,202,203112,1,0,0:0:0:0:
103,172,203198,1,0,0:0:0:0:
110,143,203284,1,0,0:0:0:0:
125,117,203369,1,0,0:0:0:0:
145,95,203455,1,0,0:0:0:0:
171,80,203541,1,0,0:0:0:0:
199,71,203626,1,0,0:0:0:0:
232,72,203712,6,0,P|276:76|324:48,1,89.9999972534181,2|0,0:0|0:0,0:0:0:0:
316,56,204055,5,12,0:0:0:0:
444,344,204570,1,12,0:0:0:0:
256,196,204912,1,12,0:0:0:0:
64,344,205255,1,12,0:0:0:0:
132,244,205427,1,12,0:0:0:0:
372,244,205770,5,12,0:0:0:0:
256,196,205941,1,8,0:0:0:0:
160,124,206112,1,0,0:0:0:0:
133,109,206197,1,0,0:0:0:0:
113,88,206283,1,0,0:0:0:0:
100,61,206369,1,0,0:0:0:0:
104,32,206455,6,0,L|208:12,1,100,4|0,0:0|0:0,0:0:0:0:
368,64,206798,2,0,L|269:82,1,100,8|0,0:0|0:0,0:0:0:0:
157,214,207141,2,0,L|256:196,1,100,2|0,0:0|0:0,0:0:0:0:
456,164,207484,1,8,0:0:0:0:
320,312,207655,1,0,0:0:0:0:
368,64,207827,5,2,0:0:0:0:
376,233,207998,1,0,0:0:0:0:
225,156,208170,1,8,0:0:0:0:
160,12,208341,2,0,P|108:20|60:52,1,100,0|2,0:0|0:0,0:0:0:0:
1,213,208684,1,0,0:0:0:0:
144,305,208855,1,8,0:0:0:0:
152,136,209027,1,0,0:0:0:0:
144,305,209198,6,0,P|228:352|312:288,1,200,4|8,0:0|0:0,0:0:0:0:
256,32,209884,2,0,P|208:20|148:40,2,100,2|0|8,0:0|0:0|0:0,0:0:0:0:
332,112,210398,2,0,P|380:124|440:104,1,100,0|2,0:0|0:0,0:0:0:0:
376,16,210740,5,0,0:0:0:0:
433,206,210912,1,8,0:0:0:0:
378,359,211083,1,0,0:0:0:0:
331,206,211255,1,2,0:0:0:0:
461,303,211426,1,0,0:0:0:0:
298,299,211598,2,0,P|258:270|239:225,1,100,8|0,0:0|0:0,0:0:0:0:
220,20,211941,6,0,P|178:50|160:99,1,100,2|0,0:0|0:0,0:0:0:0:
240,225,212283,1,8,0:0:0:0:
380,276,212455,1,0,0:0:0:0:
356,128,212626,1,2,0:0:0:0:
240,225,212798,5,0,0:0:0:0:
256,76,212970,1,8,0:0:0:0:
328,208,213141,1,0,0:0:0:0:
164,92,213312,5,4,0:0:0:0:
120,288,213483,1,4,0:0:0:0:
268,152,213655,1,4,0:0:0:0:
72,192,213826,1,4,0:0:0:0:
72,192,214170,5,0,0:0:0:0:
75,221,214255,1,0,0:0:0:0:
86,249,214341,1,0,0:0:0:0:
104,273,214427,1,0,0:0:0:0:
127,293,214512,1,0,0:0:0:0:
153,306,214598,1,0,0:0:0:0:
184,316,214684,6,0,P|280:316|328:232,1,200,4|8,0:0|0:0,0:0:0:0:
104,32,215369,1,2,0:0:0:0:
212,32,215540,2,0,P|260:44|296:84,1,100,0|8,0:0|0:0,0:0:0:0:
328,184,215884,6,0,P|372:156|396:108,2,100,0|2|0,0:0|0:0|0:0,0:0:0:0:
224,148,216398,1,8,0:0:0:0:
252,256,216569,1,0,0:0:0:0:
360,276,216740,1,2,0:0:0:0:
148,224,216911,5,0,0:0:0:0:
176,332,217083,1,8,0:0:0:0:
284,356,217255,1,0,0:0:0:0:
328,184,217427,6,0,L|344:80,1,100,4|0,0:0|0:0,0:0:0:0:
239,49,217770,2,0,L|224:148,1,100,8|0,0:0|0:0,0:0:0:0:
120,116,218112,2,0,L|135:17,2,100,2|0|8,0:0|0:0|0:0,0:0:0:0:
104,268,218627,6,0,P|88:312|40:348,2,100,0|2|0,0:0|0:0|0:0,0:0:0:0:
120,116,219140,1,8,0:0:0:0:
240,203,219312,2,0,P|287:216|335:202,1,100,0|2,0:0|0:0,0:0:0:0:
440,92,219655,1,0,0:0:0:0:
296,56,219826,1,8,0:0:0:0:
335,202,219998,1,0,0:0:0:0:
371,345,220170,6,0,P|418:332|452:296,1,100,4|0,0:0|0:0,0:0:0:0:
268,304,220512,1,8,0:0:0:0:
168,256,220684,2,0,P|120:268|87:305,1,100,0|2,0:0|0:0,0:0:0:0:
168,256,221027,2,0,P|215:243|248:206,1,100,0|8,0:0|0:0,0:0:0:0:
256,32,221370,6,0,P|304:32|352:64,2,100,0|2|0,0:0|0:0|0:0,0:0:0:0:
164,92,221883,1,8,0:0:0:0:
60,128,222055,2,0,P|20:92|8:44,1,100
164,92,222398,1,0,0:0:0:0:
168,121,222483,1,0,0:0:0:0:
163,151,222569,1,8,0:0:0:0:
152,178,222655,1,0,0:0:0:0:
133,202,222740,1,0,0:0:0:0:
109,219,222826,1,0,0:0:0:0:
80,232,222912,6,0,P|36:256|8:300,1,100,4|0,0:0|0:0,0:0:0:0:
144,332,223255,2,0,P|188:308|216:264,1,100,8|0,0:0|0:0,0:0:0:0:
256,164,223598,1,6,0:0:0:0:
348,104,223769,1,0,0:0:0:0:
356,212,223940,1,8,0:0:0:0:
256,164,224112,1,0,0:0:0:0:
348,104,224284,5,6,0:0:0:0:
328,81,224369,1,0,0:0:0:0:
304,64,224455,1,0,0:0:0:0:
275,54,224541,1,0,0:0:0:0:
246,52,224626,1,8,0:0:0:0:
216,58,224712,1,0,0:0:0:0:
190,71,224798,1,0,0:0:0:0:
168,92,224884,1,0,0:0:0:0:
152,117,224969,1,6,0:0:0:0:
143,146,225055,1,0,0:0:0:0:
142,175,225141,1,0,0:0:0:0:
150,204,225226,1,0,0:0:0:0:
168,232,225312,1,8,0:0:0:0:
168,232,225655,5,4,0:0:0:0:
256,192,225740,12,2,228398,0:0:0:0:
