osu file format v12

[General]
AudioFilename: tumblr_mgn8apW3t41rsm9j2o1.mp3
AudioLeadIn: 1500
PreviewTime: 60398
Countdown: 0
SampleSet: Normal
StackLeniency: 0.7
Mode: 0
LetterboxInBreaks: 0
WidescreenStoryboard: 0

[Editor]
DistanceSpacing: 1.1
BeatDivisor: 4
GridSize: 4
TimelineZoom: 1

[Metadata]
Title:Airman ga Taosenai (SOUND HOLIC Ver.)
TitleUnicode:エアーマンが倒せない (SOUND HOLIC Ver.)
Artist:Hanatan
ArtistUnicode:花たん
Creator:Natsu
Version:Hard
Source:
Tags:Gero Amamiya Yuko caren_sk P_A_N pan Skystar ROCKMAN the 25th Anniversary takaniso Sera MasKaleido Josh mingmichael -_R_u_m_i_a_- zeroarg aabc271 Kuo Kyoka [Yue] Can't Defeat Airman Nico Douga Mega Man 2
BeatmapID:340104
BeatmapSetID:134151

[Difficulty]
HPDrainRate:6
CircleSize:4
OverallDifficulty:6
ApproachRate:8
SliderMultiplier:1.6
SliderTickRate:1

[Events]
//Background and Video events
0,0,"airmancutebg.jpg",0,0
//Break Periods
2,28198,35991
2,85970,92562
2,110484,118277
2,192940,196105
//Storyboard Layer 0 (Background)
//Storyboard Layer 1 (Fail)
//Storyboard Layer 2 (Pass)
//Storyboard Layer 3 (Foreground)
//Storyboard Sound Samples
//Background Colour Transformations
3,100,163,162,255

[TimingPoints]
-630,342.857142857143,4,1,1,40,1,0
55,-133.333333333333,4,2,1,40,0,0
741,-100,4,2,1,40,0,0
1084,-100,4,2,1,30,0,0
1427,-133.333333333333,4,2,1,40,0,0
2284,-133.333333333333,4,2,1,30,0,0
2455,-133.333333333333,4,2,1,40,0,0
4855,-133.333333333333,4,2,1,40,0,0
6227,-100,4,2,1,40,0,0
6570,-100,4,2,1,30,0,0
6912,-133.333333333333,4,2,1,40,0,0
10341,-133.333333333333,4,1,1,80,0,0
11198,-133.333333333333,4,1,1,45,0,0
11712,-100,4,1,2,60,0,0
25427,-100,4,1,2,70,0,0
27312,-100,4,1,2,60,0,0
36741,-100,4,2,1,60,0,0
39140,-100,4,1,1,60,0,0
47370,-100,4,1,1,65,0,0
50112,-100,4,1,2,60,0,0
59712,-153.846153846154,4,2,1,50,0,0
60398,-166.666666666667,4,2,1,30,0,0
61084,-100,4,1,2,60,0,1
71198,-100,4,1,2,60,0,0
71541,-100,4,1,2,60,0,1
83027,-100,4,1,1,85,0,0
83112,-100,4,1,1,30,0,0
85770,-100,4,1,1,50,0,0
93312,-100,4,1,1,45,0,0
93998,-100,4,1,1,55,0,0
107712,-100,4,1,1,80,0,0
118684,-133.333333333333,4,2,2,70,0,0
120398,-133.333333333333,4,2,1,50,0,0
121427,-100,4,1,1,60,0,0
126912,-100,4,1,2,70,0,0
126998,-100,4,1,2,60,0,0
129655,-100,4,1,2,70,0,0
132055,-100,4,1,2,60,0,0
141998,-153.846153846154,4,2,1,50,0,0
142684,-166.666666666667,4,2,1,30,0,0
143370,-100,4,1,2,60,0,1
153484,-100,4,1,2,60,0,0
153827,-100,4,1,2,60,0,1
165312,-100,4,1,2,80,0,0
165398,-100,4,1,2,30,0,0
170798,-100,4,1,1,60,0,0
175598,-100,4,1,0,60,0,0
176112,-100,4,1,1,60,0,0
192740,-100,4,1,1,80,0,0
196855,-100,4,1,1,60,0,0
203712,-153.846153846154,4,2,1,50,0,0
203970,-153.846153846154,4,2,1,30,0,0
204055,-100,4,1,1,70,0,0
206455,-100,4,1,2,70,0,1
213826,-100,4,1,2,70,0,0
214170,-100,4,1,2,70,0,1
225655,-100,4,1,1,80,0,0
225740,-100,4,1,1,50,0,0

[Colours]
Combo1 : 0,0,151
Combo2 : 157,0,0
Combo3 : 0,103,206
Combo4 : 255,196,225

[HitObjects]
128,172,227,5,2,0:0:0:0:
188,124,398,1,2,0:0:0:0:
264,144,570,1,2,0:0:0:0:
348,256,741,6,0,P|396:216|392:120,1,160,12|0,3:0|0:0,0:0:0:0:
256,52,1427,1,2,0:0:0:0:
256,52,1598,1,0,0:0:0:0:
128,172,1941,6,0,P|152:228|216:252,1,120.000004577637,2|0,0:0|0:0,0:0:0:0:
280,260,2455,1,2,0:0:0:0:
372,132,2798,1,2,0:0:0:0:
436,176,2970,1,0,0:0:0:0:
460,248,3141,1,2,0:0:0:0:
428,320,3312,1,0,0:0:0:0:
360,360,3484,6,0,P|296:368|248:328,1,120.000004577637,2|0,0:0|0:0,0:0:0:0:
172,204,4170,1,2,0:0:0:0:
104,344,4512,1,2,0:0:0:0:
36,204,4855,5,2,0:0:0:0:
104,244,5027,1,0,0:0:0:0:
172,204,5198,1,0,0:0:0:0:
180,128,5370,1,2,0:0:0:0:
40,60,5712,2,0,P|16:40|4:12,2,60.0000022888184
180,128,6227,6,0,P|252:96|200:48,1,160,12|0,3:0|0:0,0:0:0:0:
172,204,6912,1,2,0:0:0:0:
172,204,7084,1,0,0:0:0:0:
312,272,7427,6,0,P|364:248|388:180,1,120.000004577637,2|0,0:0|0:0,0:0:0:0:
376,116,7941,1,2,0:0:0:0:
260,12,8284,1,2,0:0:0:0:
192,52,8455,1,0,0:0:0:0:
256,96,8627,1,2,0:0:0:0:
188,132,8798,1,0,0:0:0:0:
120,92,8970,5,2,0:0:0:0:
256,168,9312,2,0,P|304:148|326:84,2,120.000004577637,2|2|2,0:0|0:0|0:0,0:0:0:0:
120,92,10341,5,4,0:0:0:0:
44,184,10512,1,4,0:0:0:0:
160,152,10684,1,4,0:0:0:0:
84,244,10855,1,4,0:0:0:0:
84,244,11198,5,2,0:0:0:0:
132,308,11370,1,10,0:0:0:0:
208,308,11541,1,2,0:0:0:0:
320,268,11712,6,0,P|376:208|360:136,1,160,4|8,0:0|0:0,0:0:0:0:
216,36,12398,2,0,L|136:20,1,80,2|0,0:0|0:0,0:0:0:0:
80,88,12741,2,0,L|158:103,1,80,8|0,0:0|0:0,0:0:0:0:
244,116,13084,5,2,0:0:0:0:
312,172,13255,1,0,0:0:0:0:
228,204,13427,1,8,0:0:0:0:
244,116,13598,1,0,0:0:0:0:
312,172,13770,2,0,P|316:216|304:252,1,80,2|0,0:0|0:0,0:0:0:0:
232,300,14112,2,0,P|260:328|316:336,1,80,8|0,0:0|0:0,0:0:0:0:
392,344,14455,5,2,0:0:0:0:
468,304,14627,1,0,0:0:0:0:
392,260,14798,1,8,0:0:0:0:
392,344,14970,1,0,0:0:0:0:
468,304,15141,2,0,P|476:248|460:208,1,80,2|0,0:0|0:0,0:0:0:0:
404,168,15484,2,0,P|396:112|412:72,1,80,8|0,0:0|0:0,0:0:0:0:
336,32,15827,6,0,P|299:47|259:47,1,80,6|0,0:0|0:0,0:0:0:0:
176,24,16170,2,0,P|136:23|99:39,1,80,8|0,0:0|0:0,0:0:0:0:
64,120,16512,2,0,P|81:155|113:180,1,80,2|0,0:0|0:0,0:0:0:0:
200,200,16855,2,0,P|224:204|256:224,3,40,8|0|0|0,0:0|0:0|0:0|0:0,0:0:0:0:
264,236,17198,6,0,P|316:256|384:172,1,160,4|8,0:0|0:0,0:0:0:0:
292,40,17884,2,0,P|324:16|372:8,2,80,2|0|8,0:0|0:0|0:0,0:0:0:0:
236,108,18398,6,0,P|192:132|100:80,1,160,2|0,0:0|0:0,0:0:0:0:
40,20,18912,2,0,L|16:108,1,80,8|0,0:0|0:0,0:0:0:0:
20,184,19255,2,0,L|41:261,1,80,2|0,0:0|0:0,0:0:0:0:
68,344,19598,2,0,P|108:316|120:284,1,80,8|0,0:0|0:0,0:0:0:0:
140,204,19941,6,0,P|157:168|191:148,2,80,2|0|8,0:0|0:0|0:0,0:0:0:0:
204,264,20455,1,0,0:0:0:0:
292,280,20627,1,2,0:0:0:0:
372,248,20798,1,0,0:0:0:0:
424,176,20970,2,0,P|440:136|432:88,1,80,8|0,0:0|0:0,0:0:0:0:
360,56,21312,6,0,P|400:20|432:12,1,80,6|0,0:0|0:0,0:0:0:0:
360,56,21655,2,0,P|320:92|288:100,1,80,8|0,0:0|0:0,0:0:0:0:
212,72,21998,2,0,P|184:68|148:72,3,40,2|0|0|0,0:0|0:0|0:0|0:0,0:0:0:0:
128,76,22341,2,0,P|104:84|84:100,3,40,8|0|0|0,0:0|0:0|0:0|0:0,0:0:0:0:
60,120,22684,6,0,L|36:204,1,80,4|0,0:0|0:0,0:0:0:0:
92,284,23027,2,0,L|113:207,1,80,8|0,0:0|0:0,0:0:0:0:
208,160,23370,2,0,L|186:236,1,80,2|0,0:0|0:0,0:0:0:0:
240,324,23712,2,0,L|261:247,1,80,8|0,0:0|0:0,0:0:0:0:
292,148,24055,6,0,P|328:168|356:208,1,80,2|0,0:0|0:0,0:0:0:0:
396,276,24398,2,0,P|428:248|440:204,1,80,8|0,0:0|0:0,0:0:0:0:
432,124,24741,2,0,P|424:104|408:84,3,40,2|0|0|0,0:0|0:0|0:0|0:0,0:0:0:0:
380,60,25084,2,0,P|344:40|304:36,1,80,8|0,0:0|0:0,0:0:0:0:
256,108,25427,5,4,0:0:0:0:
256,108,25598,1,4,0:0:0:0:
120,332,26112,1,4,0:0:0:0:
120,332,26283,1,4,0:0:0:0:
392,332,26798,1,4,0:0:0:0:
392,332,26969,1,4,0:0:0:0:
256,220,27312,5,4,0:0:0:0:
164,68,27655,1,4,0:0:0:0:
344,68,27998,1,4,0:0:0:0:
88,64,36741,5,2,0:0:0:0:
108,240,37084,1,2,0:0:0:0:
248,132,37427,1,2,0:0:0:0:
280,52,37598,6,0,P|328:104|308:192,1,160,2|2,0:0|0:0,0:0:0:0:
232,224,38112,2,0,P|220:236|208:260,3,40,2|0|0|0,0:0|0:0|0:0|0:0,0:0:0:0:
208,292,38455,2,0,P|217:309|230:324,3,40,2|0|0|0,0:0|0:0|0:0|0:0,0:0:0:0:
264,340,38798,2,0,P|296:344|316:344,3,40,2|0|0|0,0:0|0:0|0:0|0:0,0:0:0:0:
340,344,39141,6,0,P|384:336|412:304,1,80,4|0,0:0|0:0,0:0:0:0:
405,223,39484,2,0,P|413:183|437:147,1,80,8|0,0:0|0:0,0:0:0:0:
510,106,39827,2,0,P|470:70|366:98,1,160,2|8,0:0|0:0,0:0:0:0:
311,154,40341,6,0,P|275:170|236:167,2,80,0|2|0,0:0|0:0|0:0,0:0:0:0:
169,109,40855,2,0,P|153:192|211:251,1,160,8|2,0:0|0:0,0:0:0:0:
284,268,41370,1,0,0:0:0:0:
360,308,41541,2,0,P|324:348|296:356,1,80,8|0,0:0|0:0,0:0:0:0:
212,340,41884,6,0,L|132:364,1,80,2|0,0:0|0:0,0:0:0:0:
160,280,42227,2,0,L|76:282,1,80,8|0,0:0|0:0,0:0:0:0:
128,208,42570,2,0,L|46:188,1,80,2|0,0:0|0:0,0:0:0:0:
112,128,42912,2,0,L|38:88,1,80,8|0,0:0|0:0,0:0:0:0:
120,48,43255,6,0,L|190:85,1,80,2|0,0:0|0:0,0:0:0:0:
244,155,43598,2,0,P|268:124|276:85,1,80,8|0,0:0|0:0,0:0:0:0:
190,86,43941,5,2,0:0:0:0:
184,204,44112,1,0,0:0:0:0:
304,216,44284,1,8,0:0:0:0:
308,336,44455,1,0,0:0:0:0:
190,372,44627,6,0,P|124:356|72:272,1,160,2|8,0:0|0:0,0:0:0:0:
4,232,45141,2,0,P|84:280|152:256,1,160,2|0,0:0|0:0,0:0:0:0:
180,184,45655,2,0,P|216:216|228:256,1,80,8|0,0:0|0:0,0:0:0:0:
256,328,45998,6,0,P|292:304|312:264,1,80,2|0,0:0|0:0,0:0:0:0:
320,184,46341,2,0,P|364:200|388:228,1,80,8|0,0:0|0:0,0:0:0:0:
424,304,46684,2,0,P|460:276|472:240,1,80,2|0,0:0|0:0,0:0:0:0:
444,160,47027,2,0,P|428:120|436:72,1,80,8|0,0:0|0:0,0:0:0:0:
504,32,47370,6,0,P|456:76|356:52,1,160,4|8,0:0|0:0,0:0:0:0:
296,12,47884,1,4,0:0:0:0:
284,100,48055,1,2,0:0:0:0:
212,48,48227,2,0,P|196:84|200:132,1,80,4|0,0:0|0:0,0:0:0:0:
264,180,48570,5,4,0:0:0:0:
428,332,48912,1,4,0:0:0:0:
264,180,49255,1,4,0:0:0:0:
84,332,49598,1,4,0:0:0:0:
148,268,49770,2,0,P|160:252|164:232,3,40,8|0|0|0,0:0|0:0|0:0|0:0,0:0:0:0:
160,196,50112,6,0,L|140:108,1,80,4|0,0:0|0:0,0:0:0:0:
204,36,50455,2,0,L|221:114,1,80,8|0,0:0|0:0,0:0:0:0:
316,164,50798,2,0,L|296:76,1,80,2|0,0:0|0:0,0:0:0:0:
376,16,51141,1,8,0:0:0:0:
408,116,51312,1,0,0:0:0:0:
440,216,51484,6,0,P|416:248|376:272,1,80,4|0,0:0|0:0,0:0:0:0:
296,280,51827,2,0,P|320:328|352:348,2,80,8|0|2,0:0|0:0|0:0,0:0:0:0:
324,196,52341,1,0,0:0:0:0:
240,216,52512,1,8,0:0:0:0:
204,296,52684,1,0,0:0:0:0:
152,228,52855,6,0,P|112:232|64:256,2,80,4|0|8,0:0|0:0|0:0,0:0:0:0:
240,216,53370,2,0,P|261:174|264:132,2,80,0|2|0,0:0|0:0|0:0,0:0:0:0:
180,152,53884,1,8,0:0:0:0:
220,76,54055,1,0,0:0:0:0:
296,28,54227,6,0,L|388:16,1,80,4|0,0:0|0:0,0:0:0:0:
220,76,54570,2,0,L|128:88,1,80,8|0,0:0|0:0,0:0:0:0:
296,140,54912,2,0,L|388:128,1,80,2|0,0:0|0:0,0:0:0:0:
220,188,55255,2,0,L|128:200,1,80,8|0,0:0|0:0,0:0:0:0:
52,204,55598,6,0,P|68:248|100:272,1,80,4|0,0:0|0:0,0:0:0:0:
172,308,55941,2,0,P|144:340|100:356,1,80,8|0,0:0|0:0,0:0:0:0:
172,308,56284,2,0,P|200:276|244:260,1,80,2|0,0:0|0:0,0:0:0:0:
320,252,56627,1,8,0:0:0:0:
404,272,56798,1,0,0:0:0:0:
484,312,56970,6,0,P|492:264|476:220,1,80,6|0,0:0|0:0,0:0:0:0:
444,156,57312,2,0,P|496:148|528:160,1,80,8|0,0:0|0:0,0:0:0:0:
444,156,57655,2,0,P|392:164|360:152,1,80,2|0,0:0|0:0,0:0:0:0:
296,104,57998,1,8,0:0:0:0:
256,24,58170,1,0,0:0:0:0:
216,104,58341,6,0,P|184:132|148:140,1,80,4|0,0:0|0:0,0:0:0:0:
64,116,58684,2,0,P|40:128|24:148,3,40,8|0|0|0,0:0|0:0|0:0|0:0,0:0:0:0:
16,176,59027,2,0,P|16:196|28:220,3,40,2|0|0|0,0:0|0:0|0:0|0:0,0:0:0:0:
52,240,59370,2,0,P|80:248|100:248,3,40,8|0|0|0,0:0|0:0|0:0|0:0,0:0:0:0:
116,240,59712,6,0,P|216:240|248:332,1,207.999990478516,4|2,0:0|0:0,0:0:0:0:
248,329,61084,6,0,P|320:360|392:308,1,160,4|8,0:0|0:0,0:0:0:0:
448,120,61770,1,2,0:0:0:0:
400,196,61941,2,0,P|440:208|488:200,2,80,0|8|0,0:0|0:0|0:0,0:0:0:0:
356,120,62455,5,2,0:0:0:0:
284,72,62627,1,0,0:0:0:0:
200,56,62798,2,0,P|128:68|88:144,1,160,8|2,0:0|0:0,0:0:0:0:
120,220,63312,1,0,0:0:0:0:
208,236,63484,2,0,P|248:224|280:188,1,80,8|0,0:0|0:0,0:0:0:0:
312,120,63827,6,0,L|348:40,1,80,2|0,0:0|0:0,0:0:0:0:
432,52,64170,2,0,L|399:124,1,80,8|0,0:0|0:0,0:0:0:0:
356,200,64512,2,0,L|323:272,1,80,2|0,0:0|0:0,0:0:0:0:
280,348,64855,1,8,0:0:0:0:
232,272,65027,1,0,0:0:0:0:
184,348,65198,5,2,0:0:0:0:
140,272,65370,1,0,0:0:0:0:
188,200,65541,1,8,0:0:0:0:
276,200,65712,2,0,P|265:155|236:124,1,80,2|0,0:0|0:0,0:0:0:0:
156,120,66055,1,0,0:0:0:0:
100,188,66227,1,8,0:0:0:0:
72,104,66398,1,0,0:0:0:0:
128,35,66570,6,0,P|205:19|283:36,1,160,4|8,0:0|0:0,0:0:0:0:
480,180,67255,2,0,P|448:203|409:209,2,80,2|0|8,0:0|0:0|0:0,0:0:0:0:
340,171,67770,2,0,P|332:219|352:263,1,80,2|0,0:0|0:0,0:0:0:0:
416,292,68112,5,0,0:0:0:0:
336,332,68284,1,8,0:0:0:0:
264,284,68455,1,0,0:0:0:0:
248,196,68627,2,0,P|248:152|272:108,1,80,2|0,0:0|0:0,0:0:0:0:
192,36,68970,2,0,P|192:80|168:124,1,80,8|0,0:0|0:0,0:0:0:0:
80,160,69312,6,0,P|79:120|94:83,2,80,2|0|8,0:0|0:0|0:0,0:0:0:0:
160,200,69827,1,0,0:0:0:0:
248,196,69998,2,0,L|328:208,1,80,2|0,0:0|0:0,0:0:0:0:
384,140,70341,2,0,L|304:128,1,80,8|0,0:0|0:0,0:0:0:0:
176,120,70684,5,4,0:0:0:0:
60,64,70855,1,4,0:0:0:0:
72,192,71027,1,4,0:0:0:0:
176,120,71198,1,4,0:0:0:0:
176,120,71541,5,0,0:0:0:0:
240,60,71712,2,0,P|264:48|284:44,3,40,8|0|0|0,0:0|0:0|0:0|0:0,0:0:0:0:
316,36,72055,6,0,P|384:52|424:128,1,160,4|8,0:0|0:0,0:0:0:0:
316,324,72741,2,0,P|352:360|396:372,2,80,2|0|8,0:0|0:0|0:0,0:0:0:0:
308,236,73255,6,0,P|268:172|184:152,1,160,2|0,0:0|0:0,0:0:0:0:
104,140,73770,2,0,P|128:92|156:72,1,80,8|0,0:0|0:0,0:0:0:0:
236,72,74112,2,0,P|280:80|320:68,1,80,2|0,0:0|0:0,0:0:0:0:
380,16,74455,2,0,P|400:56|396:100,1,80,8|0,0:0|0:0,0:0:0:0:
325,180,74798,6,0,P|344:215|376:240,1,80,2|0,0:0|0:0,0:0:0:0:
316,290,75141,2,0,P|351:271|376:240,1,80,8|0,0:0|0:0,0:0:0:0:
426,299,75484,2,0,P|407:264|376:240,1,80,2|0,0:0|0:0,0:0:0:0:
256,232,75827,1,8,0:0:0:0:
256,232,75998,6,0,B|192:232|192:232|140:228|116:180,1,160,2|0,0:0|0:0,0:0:0:0:
104,92,76512,1,8,0:0:0:0:
164,28,76684,2,0,P|204:24|252:36,1,80,2|0,0:0|0:0,0:0:0:0:
316,80,77027,1,0,0:0:0:0:
356,160,77198,1,8,0:0:0:0:
328,244,77370,1,0,0:0:0:0:
248,284,77541,6,0,P|208:292|160:276,2,80,4|0|8,0:0|0:0|0:0,0:0:0:0:
328,244,78055,2,0,P|340:284|332:324,1,80,0|2,0:0|0:0,0:0:0:0:
328,244,78398,2,0,P|316:204|324:164,1,80,0|8,0:0|0:0,0:0:0:0:
392,116,78741,6,0,P|316:80|244:128,1,160,2|0,0:0|0:0,0:0:0:0:
208,188,79255,1,8,0:0:0:0:
160,264,79427,2,0,P|128:228|120:188,1,80,2|0,0:0|0:0,0:0:0:0:
156,116,79770,1,0,0:0:0:0:
68,124,79941,2,0,P|44:140|32:156,3,40,8|0|0|0,0:0|0:0|0:0|0:0,0:0:0:0:
20,184,80284,6,0,L|8:272,1,80,4|0,0:0|0:0,0:0:0:0:
76,344,80627,2,0,L|86:264,1,80,8|0,0:0|0:0,0:0:0:0:
176,208,80970,2,0,L|164:296,1,80,6|0,0:0|0:0,0:0:0:0:
232,368,81312,2,0,L|242:288,1,80,8|0,0:0|0:0,0:0:0:0:
264,168,81655,6,0,L|284:128,3,40,6|0|0|0,0:0|0:0|0:0|0:0,0:0:0:0:
320,148,81998,2,0,L|340:108,3,40,8|0|0|0,0:0|0:0|0:0|0:0,0:0:0:0:
376,128,82341,2,0,L|396:88,3,40,6|0|0|0,0:0|0:0|0:0|0:0,0:0:0:0:
428,116,82684,1,8,0:0:0:0:
416,308,83027,5,4,0:0:0:0:
256,192,83112,12,2,85770,0:0:0:0:
40,236,93312,6,0,P|64:200|76:156,1,80,2|0,0:0|0:0,0:0:0:0:
64,76,93655,2,0,P|84:72|108:80,3,40,8|0|0|0,0:0|0:0|0:0|0:0,0:0:0:0:
136,96,93998,6,0,P|174:107|213:106,1,80,4|0,0:0|0:0,0:0:0:0:
344,48,94341,2,0,P|304:36|256:40,1,80,8|0,0:0|0:0,0:0:0:0:
214,106,94684,2,0,P|202:146|206:194,1,80,2|0,0:0|0:0,0:0:0:0:
296,264,95027,2,0,P|308:224|304:176,1,80,8|0,0:0|0:0,0:0:0:0:
240,324,95370,6,0,P|275:341|315:346,1,80,2|0,0:0|0:0,0:0:0:0:
396,344,95712,2,0,P|420:336|440:324,2,40,8|0|0,0:0|0:0|0:0,0:0:0:0:
376,256,96055,1,2,0:0:0:0:
424,184,96227,1,0,0:0:0:0:
424,184,96398,2,0,P|430:144|452:111,1,80,8|0,0:0|0:0,0:0:0:0:
508,44,96741,5,2,0:0:0:0:
424,20,96912,1,0,0:0:0:0:
344,56,97084,2,0,P|304:56|256:40,1,80,8|0,0:0|0:0,0:0:0:0:
184,12,97427,2,0,L|168:96,1,80,2|0,0:0|0:0,0:0:0:0:
252,124,97770,2,0,L|236:208,1,80,8|0,0:0|0:0,0:0:0:0:
224,288,98112,6,0,P|268:284|300:264,1,80
340,188,98455,1,8,0:0:0:0:
340,188,98541,1,0,0:0:0:0:
340,188,98627,1,0,0:0:0:0:
424,164,98798,2,0,P|468:176|496:208,1,80,6|0,0:0|0:0,0:0:0:0:
484,288,99141,2,0,P|455:314|416:323,1,80,8|0,0:0|0:0,0:0:0:0:
336,292,99484,6,0,P|251:262|186:313,1,160,4|8,0:0|0:0,0:0:0:0:
268,348,99998,1,0,0:0:0:0:
248,176,100170,2,0,L|235:83,1,80,2|0,0:0|0:0,0:0:0:0:
156,68,100512,2,0,L|167:147,1,80,8|0,0:0|0:0,0:0:0:0:
180,236,100855,6,0,P|160:272|120:296,1,80,2|0,0:0|0:0,0:0:0:0:
40,292,101198,2,0,P|48:328|80:364,2,80,8|0|2,0:0|0:0|0:0,0:0:0:0:
84,216,101712,1,0,0:0:0:0:
148,156,101884,2,0,P|176:128|216:116,1,80,8|0,0:0|0:0,0:0:0:0:
304,120,102227,5,4,0:0:0:0:
392,120,102398,2,0,P|416:128|436:140,2,40,0|0|8,0:0|0:0|0:0,0:0:0:0:
384,208,102741,2,0,P|360:200|340:188,2,40,0|0|2,0:0|0:0|0:0,0:0:0:0:
412,292,103084,2,0,P|436:284|456:272,2,40,0|0|8,0:0|0:0|0:0,0:0:0:0:
328,320,103427,6,0,P|356:360|392:376,2,80,0|2|0,0:0|0:0|0:0,0:0:0:0:
288,240,103941,2,0,P|260:200|224:184,1,80,8|0,0:0|0:0,0:0:0:0:
148,168,104284,2,0,P|120:160|104:148,3,40,2|0|0|0,0:0|0:0|0:0|0:0,0:0:0:0:
80,124,104627,2,0,P|68:108|64:84,3,40,8|0|0|0,0:0|0:0|0:0|0:0,0:0:0:0:
52,48,104970,6,0,L|136:16,1,80,4|0,0:0|0:0,0:0:0:0:
172,96,105312,1,8,0:0:0:0:
172,96,105484,2,0,L|256:64,1,80,2|4,0:0|0:0,0:0:0:0:
268,152,105827,2,0,L|352:120,1,80,0|8,0:0|0:0,0:0:0:0:
404,188,106170,1,0,0:0:0:0:
420,276,106341,6,0,L|345:304,1,80,6|0,0:0|0:0,0:0:0:0:
260,324,106684,2,0,P|228:288|224:248,1,80,8|0,0:0|0:0,0:0:0:0:
236,172,107027,2,0,P|220:152|200:140,3,40,6|0|0|0,0:0|0:0|0:0|0:0,0:0:0:0:
172,120,107370,2,0,P|136:96|88:92,1,80,8|0,0:0|0:0,0:0:0:0:
12,104,107712,5,4,0:0:0:0:
12,104,107884,1,4,0:0:0:0:
268,36,108398,1,4,0:0:0:0:
268,36,108570,1,4,0:0:0:0:
204,292,109084,1,4,0:0:0:0:
204,292,109256,1,4,0:0:0:0:
352,196,109598,5,4,0:0:0:0:
176,184,109941,1,4,0:0:0:0:
268,36,110284,1,4,0:0:0:0:
256,312,119027,5,2,0:0:0:0:
412,308,119370,1,2,0:0:0:0:
276,232,119713,1,2,0:0:0:0:
276,232,119884,6,0,P|224:196|216:136,1,120.000004577637,2|2,0:0|0:0,0:0:0:0:
256,76,120398,2,0,L|288:56,3,30.0000011444092,0|0|0|0,0:0|0:0|0:0|0:0,0:0:0:0:
312,88,120741,2,0,L|344:68,3,30.0000011444092,2|0|0|0,0:0|0:0|0:0|0:0,0:0:0:0:
364,100,121084,2,0,L|396:80,3,30.0000011444092,0|0|0|0,0:0|0:0|0:0|0:0,0:0:0:0:
428,64,121427,6,0,P|460:88|480:136,1,80,4|0,0:0|0:0,0:0:0:0:
432,200,121770,2,0,L|384:268,1,80,8|0,0:0|0:0,0:0:0:0:
332,332,122112,2,0,P|292:325|260:302,1,80,2|0,0:0|0:0,0:0:0:0:
216,224,122456,1,8,0:0:0:0:
276,160,122627,6,0,P|192:140|136:188,1,160,2|0,0:0|0:0,0:0:0:0:
216,224,123141,2,0,L|188:64,1,160,8|2,0:0|0:0,0:0:0:0:
252,8,123656,1,0,0:0:0:0:
252,8,123827,2,0,L|268:88,1,80,8|0,0:0|0:0,0:0:0:0:
292,172,124170,6,0,P|364:208|440:188,1,160,2|8,0:0|0:0,0:0:0:0:
276,256,124855,2,0,P|204:220|128:240,1,160,2|8,0:0|0:0,0:0:0:0:
292,172,125541,6,0,L|312:84,1,80,2|0,0:0|0:0,0:0:0:0:
252,28,125884,2,0,L|234:106,1,80,8|0,0:0|0:0,0:0:0:0:
216,224,126227,1,2,0:0:0:0:
160,116,126398,1,0,0:0:0:0:
96,220,126570,1,8,0:0:0:0:
216,224,126741,1,0,0:0:0:0:
272,116,126912,6,0,P|338:132|390:216,1,160,4|8,0:0|0:0,0:0:0:0:
332,312,127427,2,0,P|266:296|214:212,1,160,2|0,0:0|0:0,0:0:0:0:
182,141,127941,2,0,P|138:177|130:205,1,80,8|0,0:0|0:0,0:0:0:0:
104,280,128284,6,0,P|63:254|48:212,1,80,2|0,0:0|0:0,0:0:0:0:
64,140,128627,2,0,P|88:104|124:76,1,80,8|0,0:0|0:0,0:0:0:0:
200,48,128970,2,0,P|238:57|266:85,1,80,2|0,0:0|0:0,0:0:0:0:
304,164,129312,2,0,P|340:132|352:96,1,80,8|0,0:0|0:0,0:0:0:0:
360,16,129655,6,0,P|420:48|428:144,1,160,4|8,0:0|0:0,0:0:0:0:
384,208,130169,1,4,0:0:0:0:
308,252,130340,1,2,0:0:0:0:
220,260,130512,2,0,P|240:312|268:332,1,80,4|0,0:0|0:0,0:0:0:0:
344,332,130855,5,4,0:0:0:0:
304,164,131197,1,4,0:0:0:0:
140,100,131540,1,4,0:0:0:0:
220,260,131883,1,4,0:0:0:0:
152,316,132055,2,0,P|136:320|112:316,3,40,8|0|0|0,0:0|0:0|0:0|0:0,0:0:0:0:
76,292,132398,6,0,P|56:248|56:204,1,80,4|0,0:0|0:0,0:0:0:0:
116,132,132741,2,0,P|136:176|136:220,1,80,8|0,0:0|0:0,0:0:0:0:
48,92,133084,2,0,P|84:60|132:56,1,80,2|0,0:0|0:0,0:0:0:0:
216,44,133426,1,8,0:0:0:0:
316,76,133597,1,0,0:0:0:0:
400,140,133769,6,0,P|395:179|373:220,1,80,4|0,0:0|0:0,0:0:0:0:
316,276,134112,2,0,P|298:240|294:200,2,80,8|0|2,0:0|0:0|0:0,0:0:0:0:
312,364,134627,2,0,P|350:355|384:333,2,80,0|8|0,0:0|0:0|0:0,0:0:0:0:
236,320,135141,6,0,P|152:304|80:336,1,160,4|8,0:0|0:0,0:0:0:0:
0,304,135655,2,0,P|32:264|144:228,1,160,2|0,0:0|0:0,0:0:0:0:
220,232,136170,2,0,P|272:228|296:212,1,80,8|0,0:0|0:0,0:0:0:0:
356,152,136512,6,0,L|408:92,1,80,6|0,0:0|0:0,0:0:0:0:
324,72,136855,2,0,L|272:132,1,80,8|0,0:0|0:0,0:0:0:0:
184,112,137198,2,0,L|236:52,1,80,2|0,0:0|0:0,0:0:0:0:
148,36,137541,2,0,L|96:96,1,80,8|0,0:0|0:0,0:0:0:0:
16,192,137883,6,0,P|32:236|64:260,1,80,6|0,0:0|0:0,0:0:0:0:
144,268,138227,2,0,P|184:280|216:312,1,80,8|0,0:0|0:0,0:0:0:0:
276,364,138570,2,0,P|320:352|352:320,1,80,2|0,0:0|0:0,0:0:0:0:
396,260,138912,1,8,0:0:0:0:
400,172,139083,1,0,0:0:0:0:
348,100,139255,6,0,P|388:84|428:88,1,80,6|0,0:0|0:0,0:0:0:0:
348,100,139598,2,0,P|308:116|268:112,1,80,8|0,0:0|0:0,0:0:0:0:
200,64,139941,2,0,P|160:61|123:77,1,80,2|0,0:0|0:0,0:0:0:0:
60,140,140283,1,8,0:0:0:0:
44,228,140455,1,0,0:0:0:0:
100,296,140627,6,0,P|144:288|176:264,1,80,4|0,0:0|0:0,0:0:0:0:
228,200,140969,2,0,P|248:188|280:188,3,40,8|0|0|0,0:0|0:0|0:0|0:0,0:0:0:0:
308,188,141312,2,0,P|332:196|348:212,3,40,2|0|0|0,0:0|0:0|0:0|0:0,0:0:0:0:
376,232,141655,2,0,P|396:244|424:248,3,40,8|0|0|0,0:0|0:0|0:0|0:0,0:0:0:0:
456,252,141998,6,0,P|500:176|428:96,1,207.999990478516,4|2,0:0|0:0,0:0:0:0:
429,96,143370,6,0,P|348:108|284:64,1,160,4|8,0:0|0:0,0:0:0:0:
116,20,144056,1,2,0:0:0:0:
116,108,144227,2,0,P|75:96|40:63,2,80,0|8|0,0:0|0:0|0:0,0:0:0:0:
204,104,144741,5,2,0:0:0:0:
288,124,144913,1,0,0:0:0:0:
364,168,145084,2,0,P|400:224|376:312,1,160,8|2,0:0|0:0,0:0:0:0:
300,356,145598,1,0,0:0:0:0:
212,364,145770,2,0,P|160:344|136:312,1,80,8|0,0:0|0:0,0:0:0:0:
96,252,146113,6,0,L|48:184,1,80,2|0,0:0|0:0,0:0:0:0:
136,184,146455,2,0,L|107:105,1,80,8|0,0:0|0:0,0:0:0:0:
192,132,146798,2,0,L|184:49,1,80,2|0,0:0|0:0,0:0:0:0:
260,96,147141,2,0,L|274:13,1,80,8|0,0:0|0:0,0:0:0:0:
336,80,147484,5,2,0:0:0:0:
416,116,147656,1,0,0:0:0:0:
476,180,147827,1,8,0:0:0:0:
476,180,147998,2,0,P|472:220|444:260,1,80,2|0,0:0|0:0,0:0:0:0:
372,292,148341,1,0,0:0:0:0:
284,300,148513,1,8,0:0:0:0:
208,256,148684,1,0,0:0:0:0:
156,184,148855,6,0,P|120:244|152:324,1,160,4|8,0:0|0:0,0:0:0:0:
244,172,149541,2,0,P|274:147|290:110,2,80,2|0|8,0:0|0:0|0:0,0:0:0:0:
156,184,150055,2,0,P|120:166|97:134,1,80,2|0,0:0|0:0,0:0:0:0:
96,48,150398,5,0,0:0:0:0:
188,76,150570,1,8,0:0:0:0:
260,24,150741,1,0,0:0:0:0:
348,32,150912,2,0,P|392:48|420:76,1,80,2|0,0:0|0:0,0:0:0:0:
420,159,151255,2,0,P|389:186|352:198,1,80,8|0,0:0|0:0,0:0:0:0:
264,184,151598,6,0,P|226:196|196:222,2,80,2|0|8,0:0|0:0|0:0,0:0:0:0:
352,198,152113,1,0,0:0:0:0:
420,252,152284,2,0,P|424:291|414:329,1,80,2|0,0:0|0:0,0:0:0:0:
328,344,152627,2,0,P|288:344|244:364,1,80,8|0,0:0|0:0,0:0:0:0:
124,376,152970,5,4,0:0:0:0:
8,320,153141,1,4,0:0:0:0:
136,300,153313,1,4,0:0:0:0:
20,248,153484,1,4,0:0:0:0:
20,248,153827,5,0,0:0:0:0:
104,220,153998,2,0,P|128:208|144:196,3,40,8|0|0|0,0:0|0:0|0:0|0:0,0:0:0:0:
168,164,154341,6,0,P|220:116|304:120,1,160,4|8,0:0|0:0,0:0:0:0:
292,296,155027,2,0,P|328:332|372:344,2,80,2|0|8,0:0|0:0|0:0,0:0:0:0:
372,256,155541,6,0,P|404:228|416:108,1,160,2|0,0:0|0:0,0:0:0:0:
344,72,156055,2,0,P|376:40|412:32,1,80,8|0,0:0|0:0,0:0:0:0:
344,72,156398,2,0,P|312:104|276:112,1,80,2|0,0:0|0:0,0:0:0:0:
196,80,156741,2,0,P|196:136|212:164,1,80,8|0,0:0|0:0,0:0:0:0:
264,224,157084,6,0,P|220:244|180:240,1,80,2|0,0:0|0:0,0:0:0:0:
124,300,157427,2,0,P|104:256|108:216,1,80,8|0,0:0|0:0,0:0:0:0:
48,156,157770,2,0,P|92:136|132:140,1,80,2|0,0:0|0:0,0:0:0:0:
208,164,158113,1,8,0:0:0:0:
284,116,158284,1,0,0:0:0:0:
372,120,158455,6,0,P|412:120|460:104,2,80,2|0|8,0:0|0:0|0:0,0:0:0:0:
340,204,158970,2,0,P|364:236|396:264,1,80,2|0,0:0|0:0,0:0:0:0:
452,332,159313,1,0,0:0:0:0:
376,376,159484,1,8,0:0:0:0:
320,308,159656,1,0,0:0:0:0:
260,372,159827,6,0,P|220:380|172:364,2,80,4|0|8,0:0|0:0|0:0,0:0:0:0:
220,292,160341,2,0,P|180:284|132:300,1,80,0|2,0:0|0:0,0:0:0:0:
68,340,160684,2,0,P|56:300|64:260,1,80,0|8,0:0|0:0,0:0:0:0:
132,207,161027,6,0,P|191:156|209:80,1,160,2|0,0:0|0:0,0:0:0:0:
156,12,161541,1,8,0:0:0:0:
210,80,161713,2,0,P|240:100|292:96,1,80,2|0,0:0|0:0,0:0:0:0:
364,68,162056,1,0,0:0:0:0:
452,72,162227,2,0,P|476:88|488:104,3,40,8|0|0|0,0:0|0:0|0:0|0:0,0:0:0:0:
504,136,162570,6,0,P|504:172|488:220,1,80,4|0,0:0|0:0,0:0:0:0:
400,268,162912,2,0,P|400:232|416:184,1,80,8|0,0:0|0:0,0:0:0:0:
324,132,163255,2,0,P|324:168|308:216,1,80,6|0,0:0|0:0,0:0:0:0:
216,256,163598,2,0,P|216:220|232:172,1,80,8|0,0:0|0:0,0:0:0:0:
248,92,163941,6,0,L|212:56,3,40,6|0|0|0,0:0|0:0|0:0|0:0,0:0:0:0:
188,96,164284,2,0,L|152:60,3,40,8|0|0|0,0:0|0:0|0:0|0:0,0:0:0:0:
132,100,164627,2,0,L|96:64,3,40,6|0|0|0,0:0|0:0|0:0|0:0,0:0:0:0:
76,108,164970,1,8,0:0:0:0:
76,284,165313,5,4,0:0:0:0:
256,192,165398,12,8,170455,0:0:0:0:
64,184,170798,6,0,B|96:164|96:164|108:148|108:148|140:128,1,80,4|0,0:0|0:0,0:0:0:0:
152,220,171141,2,0,B|184:200|184:200|196:184|196:184|228:164,1,80,8|0,0:0|0:0,0:0:0:0:
244,256,171484,2,0,B|276:236|276:236|288:220|288:220|320:200,1,80,2|0,0:0|0:0,0:0:0:0:
380,160,171827,1,8,0:0:0:0:
456,112,171998,1,0,0:0:0:0:
456,112,172084,1,0,0:0:0:0:
456,112,172170,6,0,P|436:72|400:44,1,80,4|0,0:0|0:0,0:0:0:0:
324,60,172512,2,0,P|272:68|240:56,1,80,8|0,0:0|0:0,0:0:0:0:
160,44,172855,2,0,P|130:70|113:106,1,80,2|0,0:0|0:0,0:0:0:0:
104,196,173198,2,0,P|60:176|40:152,1,80,8|0,0:0|0:0,0:0:0:0:
104,196,173541,6,0,P|148:216|168:240,1,80,2|0,0:0|0:0,0:0:0:0:
180,328,173884,2,0,P|232:300|248:204,1,160,8|2,0:0|0:0,0:0:0:0:
196,136,174398,2,0,B|180:104|180:104|180:84|180:84|168:56,2,80,0|8|0,0:0|0:0|0:0,0:0:0:0:
280,112,174912,6,0,B|264:80|264:80|264:60|264:60|252:32,1,80,2|0,0:0|0:0,0:0:0:0:
340,16,175255,2,0,B|349:38|349:38|349:58|349:58|365:90,1,80,8|0,0:0|0:0,0:0:0:0:
440,172,175598,1,2,0:0:0:0:
476,276,175770,1,2,0:0:0:0:
364,268,175941,1,2,0:0:0:0:
364,268,176112,1,8,0:0:0:0:
312,168,176284,6,0,P|284:140|244:124,2,80,4|0|8,0:0|0:0|0:0,0:0:0:0:
224,236,176798,1,0,0:0:0:0:
136,304,176970,2,0,P|164:332|204:348,2,80,2|0|8,0:0|0:0|0:0,0:0:0:0:
72,212,177484,1,0,0:0:0:0:
48,104,177655,6,0,B|65:60|102:38|102:38|176:47,1,160,4|8,0:0|0:0,0:0:0:0:
260,80,178170,1,0,0:0:0:0:
344,112,178341,2,0,P|380:84|400:48,1,80,2|0,0:0|0:0,0:0:0:0:
476,16,178684,2,0,P|484:60|472:96,1,80,8|0,0:0|0:0,0:0:0:0:
428,168,179027,6,0,L|400:208,2,40,2|0|0,0:0|0:0|0:0,0:0:0:0:
460,260,179370,2,0,L|432:300,2,40,8|0|0,0:0|0:0|0:0,0:0:0:0:
364,264,179712,2,0,L|341:296,2,40,2|0|0,0:0|0:0|0:0,0:0:0:0:
332,180,180055,2,0,L|309:212,2,40,8|0|0,0:0|0:0|0:0,0:0:0:0:
388,100,180398,5,4,0:0:0:0:
324,40,180570,1,0,0:0:0:0:
236,32,180741,1,8,0:0:0:0:
152,52,180912,1,0,0:0:0:0:
152,52,180998,1,0,0:0:0:0:
152,52,181084,2,0,P|116:76|92:108,1,80,2|0,0:0|0:0,0:0:0:0:
72,192,181427,2,0,P|80:216|100:240,3,40,8|0|0|0,0:0|0:0|0:0|0:0,0:0:0:0:
116,256,181770,6,0,P|144:284|188:300,1,80,4|0,0:0|0:0,0:0:0:0:
220,368,182112,2,0,P|248:340|264:296,1,80,8|0,0:0|0:0,0:0:0:0:
332,264,182455,2,0,P|304:236|260:220,1,80,2|0,0:0|0:0,0:0:0:0:
228,152,182798,2,0,P|200:180|184:224,1,80,8|0,0:0|0:0,0:0:0:0:
184,296,183141,5,2,0:0:0:0:
116,256,183312,1,0,0:0:0:0:
108,176,183484,1,8,0:0:0:0:
148,108,183655,2,0,P|192:76|292:96,1,160,2|0,0:0|0:0,0:0:0:0:
340,160,184170,2,0,P|368:124|372:80,1,80,8|0,0:0|0:0,0:0:0:0:
452,92,184512,6,0,P|459:53|485:22,2,80,6|0|8,0:0|0:0|0:0,0:0:0:0:
460,172,185027,1,0,0:0:0:0:
460,172,185112,1,0,0:0:0:0:
460,172,185198,2,0,P|456:212|436:252,1,80,2|0,0:0|0:0,0:0:0:0:
388,312,185541,2,0,P|412:324|432:328,2,40
320,268,185884,6,0,P|280:252|232:252,1,80,2|0,0:0|0:0,0:0:0:0:
244,332,186227,2,0,P|204:329|167:314,1,80,8|0,0:0|0:0,0:0:0:0:
168,232,186570,2,0,P|128:216|80:216,1,80,2|0,0:0|0:0,0:0:0:0:
16,244,186912,2,0,P|12:200|32:156,1,80,8|0,0:0|0:0,0:0:0:0:
76,96,187255,6,0,P|88:72|92:40,2,53.3333333333333,2|0|0,0:0|0:0|0:0,0:0:0:0:
136,132,187598,2,0,P|124:156|120:184,2,53.3333333333333,8|0|0,0:0|0:0|0:0,0:0:0:0:
204,120,187941,2,0,P|216:96|220:68,2,53.3333333333333,2|0|0,0:0|0:0|0:0,0:0:0:0:
252,172,188284,2,0,P|240:196|236:228,2,53.3333333333333,8|0|0,0:0|0:0|0:0,0:0:0:0:
312,140,188627,6,0,L|364:124,2,53.3333333333333,2|0|0,0:0|0:0|0:0,0:0:0:0:
336,204,188970,2,0,L|388:188,2,53.3333333333333,8|0|0,0:0|0:0|0:0,0:0:0:0:
364,268,189312,2,0,L|408:256,2,40,2|0|0,0:0|0:0|0:0,0:0:0:0:
416,340,189655,2,0,L|464:324,2,40,8|0|0,0:0|0:0|0:0,0:0:0:0:
328,356,189998,6,0,P|300:352|280:344,3,40,2|0|0|0,0:0|0:0|0:0|0:0,0:0:0:0:
252,324,190341,2,0,P|208:308|168:308,1,80
92,280,190684,2,0,P|124:239|156:223,1,80,2|0,0:0|0:0,0:0:0:0:
228,192,191027,2,0,P|248:172|260:148,3,40,8|0|0|0,0:0|0:0|0:0|0:0,0:0:0:0:
268,120,191370,6,0,L|284:40,1,80,4|0,0:0|0:0,0:0:0:0:
368,24,191712,2,0,L|352:102,1,80,8|0,0:0|0:0,0:0:0:0:
332,188,192055,2,0,P|328:212|336:240,3,40,2|0|0|0,0:0|0:0|0:0|0:0,0:0:0:0:
356,264,192398,2,0,P|372:284|392:296,3,40,8|0|0|0,0:0|0:0|0:0|0:0,0:0:0:0:
428,300,192740,5,4,0:0:0:0:
140,200,196855,6,0,P|172:168|180:120,1,80,4|0,0:0|0:0,0:0:0:0:
256,88,197198,2,0,L|256:172,1,80,8|0,0:0|0:0,0:0:0:0:
256,256,197541,2,0,P|267:293|296:320,1,80,2|0,0:0|0:0,0:0:0:0:
380,348,197884,2,0,P|404:352|424:348,3,40,8|0|0|0,0:0|0:0|0:0|0:0,0:0:0:0:
460,336,198227,6,0,P|488:308|500:260,1,80,4|0,0:0|0:0,0:0:0:0:
468,188,198570,2,0,P|452:144|456:104,1,80,8|0,0:0|0:0,0:0:0:0:
504,40,198912,2,0,P|456:24|424:32,1,80,2|0,0:0|0:0,0:0:0:0:
360,84,199255,1,8,0:0:0:0:
276,104,199426,1,0,0:0:0:0:
188,92,199598,6,0,P|148:80|120:44,1,80,4|0,0:0|0:0,0:0:0:0:
44,12,199941,2,0,L|36:96,1,80,8|0,0:0|0:0,0:0:0:0:
32,180,200284,2,0,P|48:216|88:240,1,80,2|0,0:0|0:0,0:0:0:0:
168,244,200627,1,8,0:0:0:0:
252,216,200798,1,0,0:0:0:0:
328,172,200970,6,0,P|360:144|376:96,1,80,4|0,0:0|0:0,0:0:0:0:
288,92,201312,2,0,P|260:60|212:44,1,80,8|0,0:0|0:0,0:0:0:0:
208,132,201655,2,0,P|176:160|160:208,1,80,2|0,0:0|0:0,0:0:0:0:
252,216,201998,2,0,P|280:248|328:264,1,80,8|0,0:0|0:0,0:0:0:0:
392,300,202341,6,0,P|364:332|316:348,1,80,4|0,0:0|0:0,0:0:0:0:
240,340,202684,2,0,P|216:336|192:324,3,40,8|0|0|0,0:0|0:0|0:0|0:0,0:0:0:0:
164,304,203027,2,0,P|149:284|139:259,3,40,2|0|0|0,0:0|0:0|0:0|0:0,0:0:0:0:
128,228,203370,2,0,P|126:203|131:177,3,40,8|0|0|0,0:0|0:0|0:0|0:0,0:0:0:0:
140,144,203712,6,0,P|164:116|212:104,1,77.9999964294435,4|0,0:0|0:0,0:0:0:0:
202,103,204055,5,12,0:0:0:0:
464,124,204570,1,12,0:0:0:0:
304,200,204912,1,12,0:0:0:0:
416,64,205255,1,12,0:0:0:0:
416,64,205427,1,12,0:0:0:0:
376,236,205770,5,12,0:0:0:0:
376,236,205941,1,8,0:0:0:0:
304,284,206112,2,0,P|280:280|252:264,3,40,8|0|0|0,0:0|0:0|0:0|0:0,0:0:0:0:
228,248,206455,6,0,P|200:208|196:164,1,80
248,88,206798,2,0,P|276:128|280:172,1,80,8|0,0:0|0:0,0:0:0:0:
388,168,207141,2,0,P|360:128|356:84,1,80,2|0,0:0|0:0,0:0:0:0:
400,24,207484,1,8,0:0:0:0:
452,96,207655,1,0,0:0:0:0:
476,180,207827,5,2,0:0:0:0:
428,256,207998,1,0,0:0:0:0:
340,256,208170,1,8,0:0:0:0:
256,228,208341,2,0,P|208:216|172:216,1,80,2|0,0:0|0:0,0:0:0:0:
124,284,208684,2,0,P|172:296|208:296,2,80,0|8|0,0:0|0:0|0:0,0:0:0:0:
84,204,209198,6,0,P|68:152|116:60,1,160,4|8,0:0|0:0,0:0:0:0:
284,20,209884,2,0,P|324:16|380:28,2,80,2|0|8,0:0|0:0|0:0,0:0:0:0:
328,96,210398,2,0,P|368:100|424:88,2,80,0|2|0,0:0|0:0|0:0,0:0:0:0:
240,100,210912,5,8,0:0:0:0:
184,168,211083,1,0,0:0:0:0:
212,252,211255,1,2,0:0:0:0:
296,280,211426,1,0,0:0:0:0:
348,208,211598,2,0,P|376:240|384:284,1,80,8|0,0:0|0:0,0:0:0:0:
344,352,211941,6,0,P|304:364|260:352,1,80,2|0,0:0|0:0,0:0:0:0:
188,324,212284,2,0,P|144:320|92:340,1,80,8|0,0:0|0:0,0:0:0:0:
32,372,212627,2,0,L|16:288,1,80,2|0,0:0|0:0,0:0:0:0:
96,252,212970,2,0,L|80:168,1,80,8|0,0:0|0:0,0:0:0:0:
12,84,213312,5,4,0:0:0:0:
124,96,213483,1,4,0:0:0:0:
196,180,213655,1,4,0:0:0:0:
232,76,213826,1,4,0:0:0:0:
232,76,214170,6,0,P|256:77|280:88,5,40
304,108,214684,6,0,P|372:140|448:108,1,160,4|8,0:0|0:0,0:0:0:0:
380,272,215369,1,2,0:0:0:0:
380,272,215541,2,0,L|380:360,1,80,0|8,0:0|0:0,0:0:0:0:
292,368,215884,6,0,L|292:288,2,80,0|2|0,0:0|0:0|0:0,0:0:0:0:
200,352,216398,2,0,L|200:272,1,80,8|8,0:0|0:0,0:0:0:0:
200,184,216740,1,2,0:0:0:0:
204,96,216912,2,0,P|248:108|272:132,2,80,0|8|0,0:0|0:0|0:0,0:0:0:0:
128,140,217427,6,0,P|116:96|132:48,1,80,4|0,0:0|0:0,0:0:0:0:
200,184,217770,2,0,P|212:228|196:276,1,80,8|0,0:0|0:0,0:0:0:0:
132,312,218112,2,0,P|196:348|276:312,1,160,2|8,0:0|0:0,0:0:0:0:
304,236,218627,6,0,P|375:205|443:241,1,160,2|0,0:0|0:0,0:0:0:0:
372,292,219140,1,8,0:0:0:0:
372,128,219312,2,0,L|372:32,1,80,2|0,0:0|0:0,0:0:0:0:
292,12,219655,1,0,0:0:0:0:
292,12,219827,2,0,L|292:92,1,80,8|0,0:0|0:0,0:0:0:0:
212,128,220170,6,0,L|212:32,1,80,4|0,0:0|0:0,0:0:0:0:
132,12,220513,1,8,0:0:0:0:
132,12,220685,2,0,L|132:92,1,80,2|0,0:0|0:0,0:0:0:0:
136,180,221027,2,0,P|164:208|220:220,1,80,0|8,0:0|0:0,0:0:0:0:
288,224,221370,6,0,P|325:236|353:264,2,80,0|2|0,0:0|0:0|0:0,0:0:0:0:
280,312,221883,1,8,0:0:0:0:
360,348,222055,2,0,P|400:336|428:300,1,80,2|0,0:0|0:0,0:0:0:0:
452,224,222398,2,0,P|456:192|452:164,5,40
444,140,222912,6,0,P|424:104|392:76,1,80,4|0,0:0|0:0,0:0:0:0:
360,160,223255,2,0,P|320:172|280:160,1,80,8|0,0:0|0:0,0:0:0:0:
228,92,223598,1,6,0:0:0:0:
152,52,223769,1,0,0:0:0:0:
68,72,223940,1,8,0:0:0:0:
24,148,224112,1,0,0:0:0:0:
48,232,224284,6,0,L|64:272,3,40,6|0|0|0,0:0|0:0|0:0|0:0,0:0:0:0:
104,256,224627,2,0,L|120:296,3,40,8|0|0|0,0:0|0:0|0:0|0:0,0:0:0:0:
160,280,224970,2,0,L|176:320,3,40,6|0|0|0,0:0|0:0|0:0|0:0,0:0:0:0:
216,308,225312,1,8,0:0:0:0:
256,136,225655,5,4,0:0:0:0:
256,192,225740,12,2,228398,0:0:0:0:
