osu file format v14

[General]
AudioFilename: scenario.mp3
AudioLeadIn: 0
PreviewTime: 69793
Countdown: 1
SampleSet: None
StackLeniency: 0.3
Mode: 0
LetterboxInBreaks: 1
WidescreenStoryboard: 0

[Editor]
DistanceSpacing: 1
BeatDivisor: 4
GridSize: 32
TimelineZoom: 2.1

[Metadata]
Title:Ai no Scenario
TitleUnicode:アイのシナリオ
Artist:Hanatan
ArtistUnicode:花たん
Creator:Amamiya Yuko
Version:NSFW
Source:
Tags:CHiCO with HoneyWorks nico douga magic kaito 1412 まじっく快斗1412
BeatmapID:744114
BeatmapSetID:336202

[Difficulty]
HPDrainRate:6
CircleSize:4
OverallDifficulty:8.3
ApproachRate:9.3
SliderMultiplier:1.6
SliderTickRate:1

[Events]
//Background and Video events
0,0,"bg.png",0,0
Video,0,"video.flv"
//Break Periods
2,169827,178406
2,201827,206406
//Storyboard Layer 0 (Background)
//Storyboard Layer 1 (Fail)
//Storyboard Layer 2 (Pass)
//Storyboard Layer 3 (Foreground)
//Storyboard Sound Samples

[TimingPoints]
294,333.333333333333,4,3,2,60,1,0
627,-50,4,3,2,60,0,0
960,-100,4,2,2,5,0,0
1627,-100,4,3,2,60,0,0
6960,-125,4,3,2,60,0,0
10960,-125,4,2,2,40,0,0
11793,-125,4,2,1,60,0,0
12293,-125,4,2,3,45,0,0
16960,-100,4,2,2,60,0,0
17627,-83.3333333333333,4,2,1,60,0,0
28293,-125,4,3,2,50,0,0
38627,-100,4,3,2,60,0,0
38960,-100,4,2,1,50,0,0
48877,-100,4,2,2,60,0,0
49543,-100,4,2,1,55,0,0
58960,-90.9090909090909,4,2,1,55,0,0
60293,-90.9090909090909,4,3,2,60,0,0
65793,-90.9090909090909,4,2,2,40,0,0
67543,-90.9090909090909,4,1,2,60,0,0
68293,-181.818181818182,4,1,2,60,0,0
68627,-181.818181818182,4,1,2,5,0,0
68960,-60.6060606060606,4,1,2,60,0,0
69960,-90.9090909090909,4,2,2,60,0,0
70960,-71.4285714285714,4,2,1,70,0,1
71293,-83.3333333333333,4,2,1,60,0,1
76293,-71.4285714285714,4,2,1,60,0,1
80627,-71.4285714285714,4,2,1,60,0,0
81627,-71.4285714285714,4,2,1,60,0,1
81960,-83.3333333333333,4,2,1,60,0,1
86960,-71.4285714285714,4,2,1,60,0,1
92293,-166.666666666667,4,2,1,60,0,0
92627,-83.3333333333333,4,2,1,60,0,1
92710,-83.3333333333333,4,2,1,60,0,0
103210,-166.666666666667,4,3,2,20,0,0
103460,-166.666666666667,4,3,2,5,0,0
103543,-125,4,3,2,30,0,0
103793,-125,4,3,2,5,0,0
103877,-100,4,3,2,40,0,0
104127,-100,4,3,2,5,0,0
104210,-83.3333333333333,4,3,2,50,0,0
104460,-83.3333333333333,4,3,2,5,0,0
104543,-71.4285714285714,4,3,2,60,0,0
104793,-83.3333333333333,4,3,2,5,0,0
104877,-100,4,3,2,60,0,0
105627,-125,4,3,2,60,0,0
113627,-125,4,2,2,30,0,0
114460,-100,4,2,2,60,0,0
114960,-66.6666666666667,4,2,2,60,0,0
115793,-100,4,2,2,60,0,0
115877,-100,4,2,2,5,0,0
116293,-100,4,2,1,60,0,0
136293,-90.9090909090909,4,2,1,60,0,0
137627,-100,4,3,2,60,0,0
143127,-90.9090909090909,4,2,2,40,0,0
144877,-90.9090909090909,4,1,2,60,0,0
145627,-181.818181818182,4,1,2,60,0,0
145961,-181.818181818182,4,1,2,5,0,0
146293,-60.6060606060606,4,1,2,60,0,0
146960,-83.3333333333333,4,3,2,60,0,0
148293,-71.4285714285714,4,2,1,70,0,1
148627,-83.3333333333333,4,2,1,60,0,1
153627,-71.4285714285714,4,2,1,60,0,1
157960,-71.4285714285714,4,2,1,60,0,0
158960,-71.4285714285714,4,2,1,60,0,1
159294,-83.3333333333333,4,2,1,60,0,1
164293,-71.4285714285714,4,2,1,60,0,1
169627,-166.666666666667,4,2,1,60,0,0
178960,-125,4,2,3,60,0,0
180293,-100,4,3,2,60,0,0
180627,-83.3333333333333,4,2,1,60,0,0
198960,-166.666666666667,4,2,1,60,0,0
199460,-83.3333333333333,4,2,1,60,0,0
201293,-200,4,2,1,60,0,0
201627,-200,4,2,1,70,0,0
206960,-200,4,3,2,60,0,0
207127,-200,4,3,2,5,0,0
207293,-200,4,3,2,60,0,0
207460,-200,4,3,2,5,0,0
207627,-200,4,3,2,60,0,0
207793,-200,4,3,2,5,0,0
207960,-200,4,3,2,60,0,0
208127,-200,4,3,2,5,0,0
208293,-200,4,3,2,60,0,0
208460,-200,4,3,2,5,0,0
208543,-200,4,3,2,60,0,0
208793,-200,4,3,2,5,0,0
208960,-200,4,3,2,60,0,0
209127,-200,4,3,2,5,0,0
209293,-200,4,3,2,60,0,0
209460,-200,4,3,2,5,0,0
209627,-200,4,3,2,60,0,0
209793,-200,4,3,2,5,0,0
209960,-200,4,3,2,60,0,0
210127,-200,4,3,2,5,0,0
210293,-200,4,3,2,60,0,0
210460,-200,4,3,2,5,0,0
210627,-200,4,3,2,60,0,0
210793,-200,4,3,2,5,0,0
210960,-200,4,2,2,30,0,0
211293,-200,4,1,4,20,0,0
211460,-200,4,1,3,30,0,0
211627,-200,4,1,4,40,0,0
211793,-200,4,1,3,50,0,0
211960,-200,4,1,4,60,0,0
212127,-200,4,1,4,70,0,0
212293,-200,4,3,2,40,0,0
212627,-83.3333333333333,4,2,1,60,0,1
217627,-71.4285714285714,4,2,1,60,0,1
221960,-71.4285714285714,4,2,1,60,0,0
222960,-71.4285714285714,4,2,1,60,0,1
223293,-83.3333333333333,4,2,1,60,0,1
228293,-71.4285714285714,4,2,1,60,0,1
232627,-71.4285714285714,4,2,1,60,0,0
233627,-71.4285714285714,4,2,1,60,0,1
233960,-83.3333333333333,4,2,1,60,0,1
238960,-71.4285714285714,4,2,1,60,0,1
244293,-200,4,2,1,60,0,0
244627,-83.3333333333333,4,2,1,60,0,1
244710,-83.3333333333333,4,2,1,60,0,0
255210,-166.666666666667,4,3,2,20,0,0
255460,-166.666666666667,4,3,2,5,0,0
255543,-125,4,3,2,30,0,0
255793,-125,4,3,2,5,0,0
255877,-100,4,3,2,40,0,0
256127,-100,4,3,2,5,0,0
256210,-83.3333333333333,4,3,2,50,0,0
256460,-83.3333333333333,4,3,2,5,0,0
256543,-71.4285714285714,4,3,2,60,0,0
256793,-83.3333333333333,4,3,2,5,0,0
256877,-100,4,3,2,60,0,0

[Colours]
Combo1 : 255,170,170
Combo2 : 128,64,64
Combo3 : 255,255,0
Combo4 : 128,255,255

[HitObjects]
154,186,627,6,0,B|166:141|128:123|94:132|83:170|105:199|105:199|76:222|78:262|109:279|150:270|149:224|149:224|273:233|291:248|291:248|314:246|320:226|320:226|319:205|297:197|297:197|276:207|160:186,1,640,4|0,0:3|3:0,0:0:0:0:
120,209,1627,6,0,L|84:32,2,160
177,271,2460,2,0,L|262:299,1,80,0|0,2:0|0:0,0:0:0:0:
94,289,2793,2,0,L|26:348,1,80,0|0,2:0|0:0,0:0:0:0:
203,191,3127,2,0,L|207:88,1,80,0|0,2:0|0:0,0:0:0:0:
358,273,3460,1,0,2:0:0:0:
416,207,3627,6,0,B|423:167|423:167|408:130,1,80,0|0,0:0|2:0,0:0:0:0:
271,142,3960,2,0,B|263:181|263:181|278:218,1,80,0|0,0:0|2:0,0:0:0:0:
344,177,4293,6,0,L|379:0,2,160
287,239,5126,2,0,L|201:267,1,80,0|0,2:0|0:0,0:0:0:0:
370,257,5459,2,0,L|437:316,1,80,0|0,2:0|0:0,0:0:0:0:
261,159,5793,2,0,L|257:56,1,80,0|0,2:0|0:0,0:0:0:0:
106,241,6126,1,0,2:0:0:0:
190,217,6293,5,0,0:0:0:0:
21,211,6460,1,4,1:2:0:0:
184,197,6627,5,0,0:0:0:0:
19,231,6793,1,4,1:2:0:0:
173,360,6960,6,0,P|175:328|169:297,1,64
110,155,7293,1,0,0:0:0:0:
283,296,7460,5,0,0:0:0:0:
283,296,7543,1,0,0:0:0:0:
283,296,7627,1,0,0:0:0:0:
291,201,7793,2,0,P|295:164|323:119,1,64
460,118,8127,2,0,L|512:124,2,32
230,107,8460,1,0,0:0:0:0:
371,192,8627,2,0,L|380:267,1,64
380,274,8877,1,0,0:0:0:0:
382,293,8960,1,0,0:0:0:0:
464,213,9127,1,0,0:0:0:0:
466,232,9210,1,0,0:0:0:0:
468,251,9293,1,0,0:0:0:0:
469,351,9460,1,0,0:0:0:0:
293,323,9627,5,4,0:2:0:0:
359,383,9793,1,0,0:0:0:0:
359,383,9960,1,0,0:0:0:0:
204,308,10127,5,4,0:2:0:0:
118,335,10293,1,0,0:0:0:0:
118,335,10460,1,0,0:0:0:0:
260,239,10627,6,0,L|286:102,1,128,4|0,0:2|0:0,0:0:0:0:
363,0,11127,2,0,P|369:34|360:90,1,64
221,70,11460,2,0,P|214:35|223:-20,1,64
294,36,11793,5,0,0:0:0:0:
294,39,11877,1,0,0:0:0:0:
294,42,11960,1,2,0:0:0:0:
53,297,12293,5,0,0:0:0:0:
64,213,12460,2,0,P|34:201|-17:206,1,64,0|8,0:0|0:0,0:0:0:0:
191,252,12793,5,0,0:0:0:0:
202,336,12960,2,0,P|172:348|121:343,1,64
329,297,13293,5,8,0:0:0:0:
340,213,13460,2,0,P|310:201|259:206,1,64
467,252,13793,5,0,0:0:0:0:
478,336,13960,2,0,P|448:348|397:343,1,64,8|0,0:0|0:0,0:0:0:0:
340,213,14293,5,0,0:0:0:0:
448,150,14460,1,0,0:0:0:0:
467,252,14627,1,8,0:0:0:0:
340,213,14793,1,0,0:0:0:0:
459,66,14960,5,0,0:0:0:0:
448,150,15127,2,0,P|478:162|529:157,1,64,0|8,0:0|0:0,0:0:0:0:
321,111,15460,5,0,0:0:0:0:
310,27,15627,2,0,P|340:15|391:20,1,64
183,66,15960,5,8,0:0:0:0:
172,150,16127,2,0,P|202:162|253:157,1,64
45,111,16460,5,0,0:0:0:0:
34,27,16627,2,0,P|64:15|115:20,1,64,8|0,0:0|0:0,0:0:0:0:
172,150,16960,6,0,L|164:218,1,40,2|0,1:0|2:0,0:0:0:0:
76,282,17127,5,2,0:0:0:0:
37,278,17210,1,2,0:1:0:0:
15,247,17293,5,2,1:2:0:0:
25,209,17376,1,2,0:1:0:0:
61,194,17460,5,2,0:0:0:0:
95,211,17543,1,2,0:1:0:0:
152,264,17627,6,0,B|199:277|199:277|272:262,1,95.9999970703126,2|0,3:1|0:0,0:0:0:0:
438,189,17960,2,0,B|391:176|391:176|318:191,1,95.9999970703126,8|0,0:0|0:0,0:0:0:0:
249,357,18293,1,0,3:1:0:0:
391,317,18460,1,2,0:1:0:0:
391,317,18543,1,0,0:0:0:0:
391,317,18627,2,0,L|385:245,1,47.9999985351563,8|2,0:0|0:1,0:0:0:0:
351,88,18793,1,2,0:1:0:0:
438,189,18960,6,0,L|366:190,1,47.9999985351563,2|0,3:1|0:0,0:0:0:0:
241,219,19127,2,0,P|228:177|256:88,1,95.9999970703126,0|10,0:0|0:1,0:0:0:0:
420,38,19460,2,0,P|433:80|405:169,1,95.9999970703126,0|2,0:0|3:1,0:0:0:0:
391,317,19793,1,0,0:0:0:0:
301,147,19960,2,0,P|248:129|169:143,1,95.9999970703126,10|0,0:1|0:0,0:0:0:0:
137,175,20210,1,0,0:0:0:0:
137,175,20293,6,0,L|126:107,1,47.9999985351563,0|2,3:0|0:1,0:1:0:0:
117,43,20460,1,0,0:0:0:0:
241,219,20627,1,8,0:0:0:0:
54,291,20793,1,0,0:0:0:0:
137,175,20960,6,2,L|187:163,1,47.9999985351563,2|0,3:1|0:1,0:1:0:0:
312,123,21127,1,2,0:1:0:0:
312,123,21210,1,0,0:0:0:0:
312,123,21293,2,0,L|300:192,1,47.9999985351563,8|2,0:0|0:1,0:0:0:0:
269,341,21460,1,2,0:1:0:0:
209,113,21627,5,2,3:1:0:0:
394,221,21793,1,0,0:0:0:0:
194,266,21960,5,10,0:1:0:0:
379,374,22127,1,0,0:0:0:0:
168,338,22293,5,2,3:1:0:0:
380,297,22460,1,0,0:0:0:0:
208,190,22627,5,10,0:1:0:0:
420,149,22793,1,0,0:0:0:0:
209,113,22960,6,0,B|163:120|163:120|86:98,1,95.9999970703126,2|0,3:1|0:0,0:0:0:0:
334,225,23293,2,0,B|380:218|380:218|457:240,1,95.9999970703126,8|0,0:0|0:0,0:0:0:0:
215,265,23627,2,0,L|201:189,1,47.9999985351563,0|0,3:0|0:0,0:0:0:0:
171,42,23793,1,2,0:1:0:0:
171,42,23877,1,0,0:0:0:0:
171,42,23960,2,0,L|102:67,1,47.9999985351563,8|2,0:0|0:1,0:0:0:0:
19,109,24127,1,2,0:1:0:0:
209,113,24293,5,2,3:1:0:0:
138,299,24460,2,0,B|132:249|132:249|163:189,1,95.9999970703126,0|10,0:0|0:1,0:0:0:0:
312,41,24793,2,0,B|318:91|318:91|287:151,1,95.9999970703126,0|2,0:0|3:1,0:0:0:0:
76,184,25127,1,0,0:0:0:0:
215,265,25293,2,0,L|350:263,1,95.9999970703126,10|0,0:1|0:0,0:0:0:0:
393,249,25543,1,0,0:0:0:0:
393,249,25627,6,0,L|382:314,1,47.9999985351563,0|2,3:0|0:1,0:0:0:0:
368,380,25793,1,0,0:0:0:0:
331,177,25960,1,8,0:0:0:0:
476,289,26127,1,0,0:0:0:0:
331,177,26293,6,0,L|251:187,1,47.9999985351563,2|0,3:1|0:0,0:0:0:0:
140,210,26460,1,2,0:1:0:0:
140,210,26543,1,0,0:0:0:0:
140,210,26627,2,0,L|155:136,1,47.9999985351563,8|2,0:0|0:1,0:0:0:0:
170,70,26793,1,2,0:1:0:0:
347,258,26960,5,2,3:1:0:0:
139,355,27127,1,0,0:0:0:0:
331,177,27293,5,10,0:1:0:0:
426,383,27460,1,0,0:0:0:0:
249,193,27627,5,2,3:1:0:0:
454,97,27793,5,0,1:0:0:0:
454,97,27877,1,0,1:0:0:0:
454,97,27960,5,10,0:1:0:0:
266,274,28127,1,0,1:0:0:0:
266,274,28210,1,0,1:0:0:0:
266,274,28293,6,0,L|195:266,1,64
433,222,28627,2,0,L|508:214,1,64
320,353,28960,5,0,0:0:0:0:
349,274,29127,1,0,0:0:0:0:
332,192,29293,1,0,0:0:0:0:
274,131,29460,1,0,0:0:0:0:
192,112,29627,5,0,0:0:0:0:
192,112,29793,2,0,L|118:118,1,64
343,58,30127,2,0,L|419:63,2,64
192,112,30627,1,0,0:0:0:0:
211,192,30793,1,0,0:0:0:0:
235,36,30960,6,0,P|192:27|109:64,1,128
93,221,31460,1,0,0:0:0:0:
219,255,31627,2,0,L|211:192,1,64
305,153,31960,2,0,L|313:216,1,64
434,376,32293,6,0,P|465:337|447:246,1,128
386,198,32793,1,0,0:0:0:0:
404,37,32960,2,0,L|393:114,2,64
235,159,33460,1,0,0:0:0:0:
235,159,33627,6,0,L|229:81,1,64
112,49,33960,1,0,0:0:0:0:
93,155,34127,1,0,0:0:0:0:
98,34,34293,1,0,0:0:0:0:
75,164,34460,1,0,0:0:0:0:
33,90,34627,1,0,0:0:0:0:
161,112,34793,1,0,0:0:0:0:
107,252,34960,6,0,P|66:209|-21:206,1,128
148,335,35460,2,0,L|220:345,1,64
28,289,35793,1,0,0:0:0:0:
194,254,35960,2,0,P|189:221|191:168,1,64
285,69,36293,5,0,0:0:0:0:
287,169,36460,1,0,0:0:0:0:
305,66,36627,5,0,0:0:0:0:
363,168,36793,1,0,0:0:0:0:
321,55,36960,5,0,0:0:0:0:
434,145,37127,1,0,0:0:0:0:
213,127,37293,5,0,0:0:0:0:
248,358,37460,1,0,1:0:0:0:
304,305,37793,5,0,2:0:0:0:
176,328,37960,1,0,2:0:0:0:
48,351,38127,1,0,2:0:0:0:
304,305,38293,5,0,1:0:0:0:
276,332,38377,1,0,1:0:0:0:
248,358,38460,1,0,1:0:0:0:
212,343,38543,1,0,1:0:0:0:
176,328,38627,1,0,1:0:0:0:
148,355,38710,1,0,1:0:0:0:
120,381,38793,1,0,1:0:0:0:
84,366,38876,1,0,1:0:0:0:
48,351,38960,5,0,3:0:0:0:
233,262,39127,1,0,0:0:0:0:
51,122,39293,1,8,0:0:0:0:
106,283,39460,1,0,0:0:0:0:
51,122,39627,5,0,3:0:0:0:
279,170,39793,1,0,0:0:0:0:
110,193,39960,1,8,0:0:0:0:
136,36,40127,1,0,0:0:0:0:
279,170,40293,5,0,3:0:0:0:
136,36,40460,2,0,B|129:77|129:77|149:127,1,80,0|8,0:0|0:0,0:0:0:0:
202,275,40793,2,0,B|209:234|209:234|189:184,1,80,0|0,0:0|3:0,0:0:0:0:
390,87,41127,5,2,0:2:0:0:
376,165,41293,1,8,0:0:0:0:
362,243,41460,1,0,0:0:0:0:
232,290,41627,6,0,B|315:278|291:343|405:328,1,160,0|8,3:0|0:0,0:0:0:0:
250,370,42127,1,0,0:0:0:0:
174,159,42293,2,0,P|164:202|174:259,1,80,0|0,3:0|0:0,0:0:0:0:
173,348,42627,1,8,0:0:0:0:
245,209,42793,1,0,0:0:0:0:
79,218,42960,5,0,3:0:0:0:
150,38,43127,1,0,0:0:0:0:
161,42,43210,1,0,0:0:0:0:
172,46,43293,2,0,L|158:152,1,80,8|0,0:0|0:0,0:0:0:0:
159,258,43627,1,0,3:0:0:0:
314,128,43793,2,0,P|352:116|426:123,1,80,0|8,0:0|0:0,0:0:0:0:
359,203,44127,1,0,0:0:0:0:
261,52,44293,5,0,3:0:0:0:
465,186,44460,1,0,0:0:0:0:
276,206,44627,1,8,0:0:0:0:
458,169,44793,1,0,0:0:0:0:
172,46,44960,5,0,3:0:0:0:
282,223,45127,1,0,0:0:0:0:
101,260,45294,1,8,0:0:0:0:
276,206,45460,1,0,0:0:0:0:
83,40,45627,5,0,3:0:0:0:
94,180,45793,2,0,L|100:259,1,80,0|8,0:0|0:0,0:0:0:0:
183,315,46127,2,0,B|200:278|200:278|196:226,1,80,0|0,0:0|3:0,0:0:0:0:
94,180,46460,1,0,0:0:0:0:
2,256,46627,2,0,B|6:295|6:295|29:328,1,80,8|0,0:0|0:0,0:0:0:0:
196,238,46960,5,0,3:0:0:0:
101,260,47127,1,0,0:0:0:0:
281,236,47293,5,8,0:0:0:0:
184,224,47460,1,0,0:0:0:0:
361,263,47627,5,0,3:0:0:0:
274,218,47794,1,0,0:0:0:0:
427,316,47960,5,8,0:0:0:0:
360,243,48127,2,0,P|355:202|378:132,1,80,4|0,0:0|0:0,0:0:0:0:
481,45,48460,5,0,3:0:0:0:
434,208,48627,1,8,0:0:0:0:
278,274,48793,1,0,0:0:0:0:
307,103,48960,6,0,P|327:99|368:109,1,40,2|0,0:0|2:0,0:0:0:0:
434,208,49127,2,0,B|445:255|445:255,1,40,0|0,1:0|0:0,0:0:0:0:
265,287,49293,5,2,0:0:0:0:
294,116,49460,1,0,1:0:0:0:
351,220,49627,6,0,B|362:267|362:267|341:326|369:375,1,160,0|0,1:0|0:0,0:0:0:0:
439,314,50127,1,0,1:0:0:0:
347,188,50293,5,8,0:1:0:0:
494,102,50460,2,0,B|420:131|420:131|345:99,1,160
271,24,50960,5,0,1:0:0:0:
230,108,51127,2,0,P|306:121|347:188,1,160,8|0,0:1|1:0,0:0:0:0:
170,179,51627,5,8,0:1:0:0:
250,270,51793,2,0,B|244:230|244:230|256:193,1,80
146,99,52127,1,8,0:1:0:0:
170,277,52293,6,0,B|123:243|53:250|53:250|74:264|87:304,1,160,0|0,1:0|0:0,0:0:0:0:
221,348,52793,1,0,1:0:0:0:
229,188,52960,6,0,L|221:348,1,160,8|0,0:1|0:0,0:0:0:0:
306,240,53460,2,0,L|302:320,1,80,0|0,0:0|1:0,0:0:0:0:
383,288,53793,5,8,0:1:0:0:
354,169,53960,1,0,0:0:0:0:
495,241,54127,1,0,1:0:0:0:
378,367,54293,6,0,L|382:287,1,80,8|0,0:1|0:0,0:0:0:0:
401,97,54627,1,0,0:0:0:0:
401,97,54960,6,0,B|343:101|343:101|313:127|313:127|246:132,1,160,0|0,1:0|0:0,0:0:0:0:
276,50,55460,1,0,1:0:0:0:
166,186,55627,6,0,B|243:174|243:174|317:210,1,160,8|0,0:1|0:0,0:0:0:0:
236,264,56127,1,0,0:0:0:0:
327,114,56293,5,0,1:0:0:0:
372,305,56460,2,0,P|313:254|236:264,1,160,8|0,0:1|1:0,0:0:0:0:
171,332,56960,2,0,L|70:344,1,80,8|0,0:1|0:0,0:0:0:0:
288,336,57293,1,0,0:0:0:0:
26,112,57627,6,0,B|152:80|112:192|249:159,1,240,0|0,1:0|1:0,0:0:0:0:
64,329,58293,2,0,P|32:258|67:189,1,160,8|0,0:1|0:0,0:0:0:0:
204,83,58793,1,0,0:0:0:0:
158,265,58960,6,0,L|109:261,2,44.0000013427735,0|0|0,1:0|1:0|1:0,0:0:0:0:
338,283,59293,2,0,L|456:292,1,88.000002685547,8|0,0:0|0:0,0:0:0:0:
248,274,59627,1,8,0:0:0:0:
293,148,59793,6,0,L|302:217,1,44.0000013427735,0|0,1:0|1:0,0:0:0:0:
195,340,59960,1,0,1:0:0:0:
107,144,60127,2,0,L|116:213,1,44.0000013427735,0|0,1:0|1:0,0:0:0:0:
57,287,60293,5,0,0:0:0:0:
189,173,60460,1,0,0:0:0:0:
25,115,60627,1,0,1:0:0:0:
123,230,60793,1,0,0:0:0:0:
123,230,60877,1,0,0:0:0:0:
123,230,60960,1,0,0:0:0:0:
339,87,61127,5,0,0:0:0:0:
455,287,61293,1,0,1:0:0:0:
323,173,61460,1,0,0:0:0:0:
323,173,61543,1,0,0:0:0:0:
323,173,61627,1,0,0:0:0:0:
139,316,61793,5,0,0:0:0:0:
173,87,61960,1,0,1:0:0:0:
205,259,62127,1,0,0:0:0:0:
205,259,62210,1,0,0:0:0:0:
205,259,62293,1,0,0:0:0:0:
487,115,62460,5,0,0:0:0:0:
373,316,62627,1,0,1:0:0:0:
189,173,62793,1,0,0:0:0:0:
189,173,62877,1,0,0:0:0:0:
189,173,62960,5,0,0:0:0:0:
405,144,63127,1,0,0:0:0:0:
173,87,63293,1,0,1:0:0:0:
389,230,63460,1,0,0:0:0:0:
389,230,63544,1,0,0:0:0:0:
389,230,63627,1,0,0:0:0:0:
139,316,63793,5,0,0:0:0:0:
307,259,63960,1,0,1:0:0:0:
107,144,64127,1,0,0:0:0:0:
373,316,64293,5,0,1:0:0:0:
123,230,64460,1,0,1:0:0:0:
405,144,64627,1,0,1:0:0:0:
91,58,64793,1,0,1:0:0:0:
421,58,64960,5,0,1:0:0:0:
107,144,65127,1,0,1:0:0:0:
389,230,65293,1,0,1:0:0:0:
139,316,65460,1,0,1:0:0:0:
256,132,65627,5,4,0:2:0:0:
350,321,65960,5,0,0:0:0:0:
103,142,66293,1,0,0:0:0:0:
408,142,66627,1,0,0:0:0:0:
161,321,66960,1,0,0:0:0:0:
256,32,67293,1,0,0:0:0:0:
256,263,67627,6,0,L|255:106,2,132.00000402832
382,268,68293,6,0,B|301:247|301:247|249:265,1,132.00000402832
129,258,68960,6,0,B|210:279|210:279|262:261,1,132.00000402832
256,263,69210,1,0,0:0:0:0:
256,263,69293,1,0,0:0:0:0:
310,117,69460,1,0,0:0:0:0:
80,353,69960,5,4,0:3:0:0:
92,329,70293,5,0,0:0:0:0:
92,302,70627,5,0,0:0:0:0:
61,221,70960,6,2,B|148:195|135:274|219:251,1,167.999994873047,2|0,3:1|0:0,0:0:0:0:
246,246,71293,1,8,0:0:0:0:
92,302,71460,1,0,0:0:0:0:
192,126,71627,5,0,3:1:0:0:
192,126,71710,1,0,0:0:0:0:
192,126,71793,2,0,L|199:207,1,47.9999985351563,2|0,0:1|0:0,0:0:0:0:
207,326,71960,1,8,0:0:0:0:
368,162,72127,6,0,B|315:170|315:170|264:150,1,95.9999970703126,2|0,0:1|3:1,0:0:0:0:
113,60,72460,1,2,0:1:0:0:
326,81,72627,1,8,0:1:0:0:
149,207,72793,5,0,0:0:0:0:
149,207,72877,1,2,0:1:0:0:
149,207,72960,2,0,L|156:260,1,47.9999985351563,0|0,3:1|0:0,0:0:0:0:
299,332,73127,2,0,L|306:279,1,47.9999985351563,2|0,0:1|0:0,0:0:0:0:
326,81,73293,1,8,0:1:0:0:
438,272,73460,1,2,0:1:0:0:
438,272,73543,1,0,0:0:0:0:
438,272,73627,6,0,L|369:281,1,47.9999985351563,0|2,3:0|0:1,0:0:0:0:
206,301,73793,1,0,0:0:0:0:
401,106,73960,2,0,B|416:153|416:153|396:228,1,95.9999970703126,8|0,0:0|0:0,0:0:0:0:
298,370,74293,6,0,L|295:296,1,47.9999985351563,0|0,3:0|0:0,0:0:0:0:
239,172,74460,1,2,0:1:0:0:
239,172,74543,1,0,0:0:0:0:
239,172,74627,2,0,L|242:98,1,47.9999985351563,8|2,0:0|0:1,0:0:0:0:
309,18,74793,1,2,0:1:0:0:
122,244,74960,5,2,3:1:0:0:
370,187,75127,1,0,0:0:0:0:
166,90,75293,1,10,0:1:0:0:
400,34,75460,1,0,0:0:0:0:
149,12,75627,5,2,3:1:0:0:
369,108,75793,1,0,0:0:0:0:
151,168,75960,1,10,0:1:0:0:
386,267,76127,1,0,0:0:0:0:
193,365,76293,6,0,B|171:242|171:242|206:270,1,167.999994873047,2|0,3:1|0:0,0:0:0:0:
314,312,76627,2,0,B|281:323|281:323|224:316,1,55.9999982910157,8|0,0:0|0:0,0:0:0:0:
97,286,76793,1,0,0:0:0:0:
237,119,76960,6,0,L|228:184,1,55.9999982910157,0|2,3:0|0:1,0:0:0:0:
314,312,77127,2,0,L|305:247,1,55.9999982910157,2|0,0:1|0:0,0:0:0:0:
391,119,77293,2,0,L|382:184,1,55.9999982910157,8|0,0:0|0:0,0:0:0:0:
496,231,77460,1,2,0:1:0:0:
496,231,77543,1,2,0:1:0:0:
496,231,77627,5,2,3:1:0:0:
311,150,77793,1,0,0:0:0:0:
467,39,77960,2,0,B|486:92|486:92|468:167,1,111.999996582031,8|0,0:1|0:0,0:0:0:0:
473,146,78210,1,0,0:0:0:0:
473,146,78293,1,0,3:1:0:0:
405,335,78460,2,0,B|386:282|386:282|404:207,1,111.999996582031,2|8,0:1|0:1,0:0:0:0:
245,36,78793,1,2,0:1:0:0:
245,36,78877,1,0,0:0:0:0:
245,36,78960,6,0,L|257:100,1,55.9999982910157,0|2,3:0|0:1,0:0:0:0:
320,232,79127,1,0,0:0:0:0:
168,96,79293,1,8,0:0:0:0:
357,53,79460,1,0,0:0:0:0:
320,314,79627,5,0,3:0:0:0:
276,302,79710,1,0,0:0:0:0:
245,271,79793,2,0,B|238:241|238:241|238:188,1,55.9999982910157,2|0,0:1|0:0,0:0:0:0:
168,96,79960,2,0,B|174:125|174:125|175:179,1,55.9999982910157,10|0,0:1|0:1,0:0:0:0:
83,288,80127,1,2,0:1:0:0:
83,288,80210,1,0,0:0:0:0:
83,288,80293,5,2,3:1:0:0:
320,232,80460,1,0,0:0:0:0:
112,185,80627,6,0,B|28:186|28:186|77:203,1,111.999996582031,10|0,0:1|1:0,0:0:0:0:
190,191,80877,1,0,1:0:0:0:
269,198,80960,6,0,B|353:197|353:197|304:180,1,111.999996582031,2|0,3:1|1:0,0:0:0:0:
190,191,81210,1,0,1:0:0:0:
197,113,81293,6,0,B|196:29|196:29|179:78,1,111.999996582031,10|0,0:1|1:0,0:0:0:0:
190,191,81543,1,0,1:0:0:0:
183,269,81627,6,0,B|199:387|199:387|230:309,1,167.999994873047,2|0,3:1|0:0,0:0:0:0:
262,276,81960,1,8,0:0:0:0:
29,260,82127,1,0,0:0:0:0:
114,366,82294,5,0,3:1:0:0:
114,366,82377,1,0,0:0:0:0:
114,366,82460,2,0,B|106:310,1,47.9999985351563,2|0,0:1|0:0,0:0:0:0:
88,146,82627,1,8,0:0:0:0:
262,276,82793,6,0,B|316:264|316:264|390:282,1,95.9999970703126,2|0,0:1|3:1,0:0:0:0:
169,204,83127,1,2,0:1:0:0:
316,343,83293,1,8,0:1:0:0:
378,128,83460,5,0,0:0:0:0:
378,128,83543,1,2,0:1:0:0:
378,128,83627,2,0,L|365:202,1,47.9999985351563,0|0,3:1|0:0,0:0:0:0:
262,276,83793,1,2,0:1:0:0:
301,54,83960,1,8,0:1:0:0:
507,172,84127,1,2,0:1:0:0:
507,172,84210,1,0,0:0:0:0:
507,172,84293,6,0,L|439:180,1,47.9999985351563,0|2,3:0|0:1,0:0:0:0:
286,146,84460,1,0,0:0:0:0:
417,346,84627,2,0,P|441:305|438:258,1,95.9999970703126,8|0,0:0|0:0,0:0:0:0:
379,208,84877,1,0,0:0:0:0:
379,208,84960,6,0,L|313:220,1,47.9999985351563,0|0,3:0|0:0,0:0:0:0:
178,286,85127,1,2,0:1:0:0:
369,288,85293,1,8,0:0:0:0:
267,166,85460,2,0,P|254:193|251:243,1,47.9999985351563,2|0,0:1|0:0,0:0:0:0:
213,364,85627,5,2,3:1:0:0:
163,184,85793,1,0,0:0:0:0:
239,375,85960,1,10,0:1:0:0:
58,322,86127,1,0,0:0:0:0:
267,166,86293,5,2,3:1:0:0:
353,374,86460,1,0,0:0:0:0:
353,374,86543,1,0,0:0:0:0:
353,374,86627,1,10,0:1:0:0:
481,194,86793,2,0,L|405:207,1,47.9999985351563,0|0,0:0|0:0,0:0:0:0:
254,296,86960,6,0,B|358:275|358:275|457:307,1,167.999994873047,2|0,3:1|0:0,0:0:0:0:
447,308,87293,1,8,0:0:0:0:
267,166,87460,1,0,0:0:0:0:
353,374,87627,6,0,L|366:310,1,55.9999982910157,0|2,3:0|0:1,0:0:0:0:
257,183,87793,2,0,L|270:247,1,55.9999982910157,2|0,0:1|0:0,0:0:0:0:
161,374,87960,2,0,L|174:310,1,55.9999982910157,8|0,0:0|0:0,0:0:0:0:
64,254,88127,1,2,0:1:0:0:
64,254,88210,1,2,0:1:0:0:
64,254,88293,5,2,3:1:0:0:
259,367,88460,1,0,0:0:0:0:
185,137,88627,2,0,P|148:104|58:110,1,111.999996582031,8|0,0:1|0:0,0:0:0:0:
23,143,88877,1,0,0:0:0:0:
23,143,88960,1,0,3:1:0:0:
265,97,89127,2,0,L|397:101,1,111.999996582031,2|8,0:1|0:1,0:0:0:0:
112,178,89460,1,2,0:1:0:0:
202,0,89627,6,0,L|197:66,1,55.9999982910157,0|2,3:0|0:1,0:0:0:0:
256,180,89793,1,0,0:0:0:0:
115,79,89960,1,8,0:0:0:0:
281,15,90127,1,0,0:0:0:0:
185,238,90293,5,0,3:0:0:0:
185,238,90377,1,0,0:0:0:0:
185,238,90460,2,0,P|219:234|268:242,1,55.9999982910157,2|0,0:1|0:0,0:0:0:0:
398,110,90627,2,0,P|364:114|315:106,1,55.9999982910157,10|0,0:1|0:0,0:0:0:0:
205,86,90793,1,0,0:0:0:0:
361,239,90960,5,10,3:1:0:0:
205,86,91127,1,0,0:0:0:0:
217,373,91293,6,0,L|219:308,1,55.9999982910157,10|0,3:1|0:0,0:0:0:0:
200,105,91460,1,0,0:0:0:0:
26,229,91627,6,0,L|102:214,1,55.9999982910157,10|0,3:1|0:0,0:0:0:0:
331,116,91793,2,0,L|276:126,1,55.9999982910157,0|0,0:0|0:0,0:0:0:0:
119,91,91960,5,10,3:1:0:0:
242,289,92127,1,0,0:0:0:0:
284,46,92293,6,0,L|371:28,1,71.9999978027344,2|0,3:1|0:0,0:0:0:0:
430,46,92627,6,0,B|410:92|410:92|423:155,1,95.9999970703126,8|0,0:0|0:0,0:0:0:0:
328,317,92960,2,0,L|334:246,1,47.9999985351563,0|0,3:1|0:0,0:0:0:0:
331,116,93127,1,2,0:1:0:0:
331,116,93210,1,0,0:0:0:0:
331,116,93293,2,0,L|257:133,1,47.9999985351563,8|2,0:0|0:1,0:0:0:0:
177,156,93460,1,2,0:1:0:0:
405,223,93627,6,0,L|399:165,1,47.9999985351563,2|0,3:1|0:0,0:0:0:0:
245,101,93793,2,0,B|258:148|258:148|247:204,1,95.9999970703126,0|10,0:0|0:1,0:0:0:0:
227,322,94127,1,0,0:0:0:0:
177,156,94293,1,2,3:1:0:0:
327,203,94460,1,0,0:0:0:0:
146,280,94627,2,0,L|32:276,1,95.9999970703126,10|0,0:1|0:0,0:0:0:0:
22,207,94877,1,0,0:0:0:0:
24,192,94960,6,0,L|36:120,1,47.9999985351563,0|2,3:0|0:1,0:0:0:0:
46,48,95127,1,0,0:0:0:0:
60,284,95293,1,8,0:0:0:0:
109,111,95460,1,0,0:0:0:0:
269,225,95627,6,0,L|221:231,1,47.9999985351563,0|0,3:0|0:0,0:0:0:0:
169,47,95793,1,2,0:1:0:0:
169,47,95877,1,0,0:0:0:0:
169,47,95960,2,0,L|216:53,1,47.9999985351563,8|2,0:0|0:1,0:0:0:0:
403,88,96127,1,2,0:1:0:0:
251,317,96293,5,2,3:1:0:0:
376,99,96460,1,0,0:0:0:0:
279,309,96627,5,10,0:1:0:0:
299,79,96793,1,0,0:0:0:0:
307,310,96960,5,2,3:1:0:0:
220,85,97127,1,0,0:0:0:0:
333,320,97293,5,10,0:1:0:0:
148,121,97460,1,0,0:0:0:0:
346,239,97627,6,0,B|296:218|239:236|239:236|253:196,1,143.999995605469,2|0,3:1|0:0,0:0:0:0:
158,212,97960,2,0,B|168:188|168:188|148:121,1,95.9999970703126,8|0,0:0|0:0,0:0:0:0:
102,356,98293,1,0,3:0:0:0:
35,172,98460,1,2,0:1:0:0:
35,172,98543,1,0,0:0:0:0:
35,172,98627,2,0,L|83:178,1,47.9999985351563,8|0,0:0|0:0,0:0:0:0:
244,220,98793,1,2,0:1:0:0:
86,266,98960,5,2,3:1:0:0:
141,26,99127,2,0,P|152:77|140:142,1,95.9999970703126,0|10,0:0|0:1,0:0:0:0:
250,314,99460,2,0,P|239:263|251:198,1,95.9999970703126,0|2,0:0|3:1,0:0:0:0:
290,151,99710,1,0,0:0:0:0:
290,151,99793,2,0,L|352:145,1,47.9999985351563,0|0,0:0|0:0,0:0:0:0:
427,142,99960,1,10,0:1:0:0:
200,96,100127,1,0,0:0:0:0:
200,96,100210,1,0,0:0:0:0:
200,96,100293,6,0,L|211:157,1,47.9999985351563,0|2,3:0|0:1,0:0:0:0:
329,263,100460,1,0,0:0:0:0:
300,74,100627,1,8,0:0:0:0:
143,273,100793,1,0,0:0:0:0:
200,96,100960,6,0,L|211:157,1,47.9999985351563,0|0,3:0|0:0,0:0:0:0:
263,313,101127,1,2,0:1:0:0:
263,313,101210,1,0,0:0:0:0:
263,313,101293,2,0,L|202:307,1,47.9999985351563,8|2,0:0|0:1,0:0:0:0:
58,285,101460,1,2,0:1:0:0:
233,202,101627,5,2,3:1:0:0:
48,259,101793,1,0,0:0:0:0:
200,96,101960,5,10,0:1:0:0:
28,237,102127,1,0,0:0:0:0:
114,27,102293,5,2,3:1:0:0:
156,290,102460,1,0,1:0:0:0:
396,142,102627,5,10,0:1:0:0:
361,368,102793,1,0,1:0:0:0:
368,61,103210,5,0,0:0:0:0:
368,61,103293,2,0,L|376:130,1,47.9999985351563,0|0,1:0|0:0,0:0:0:0:
279,37,103543,5,0,0:0:0:0:
289,53,103627,2,0,L|295:116,1,64
197,25,103877,5,0,0:0:0:0:
210,45,103960,2,0,L|219:127,1,80,0|0,1:0|0:0,0:0:0:0:
116,13,104210,5,0,0:0:0:0:
131,37,104293,2,0,L|141:132,1,95.9999970703126
34,1,104543,5,0,0:0:0:0:
52,29,104627,2,0,L|64:140,1,111.999996582031,0|0,1:0|0:0,0:0:0:0:
71,180,104877,5,0,0:0:0:0:
101,205,104960,1,0,0:0:0:0:
140,213,105043,1,0,0:0:0:0:
178,203,105126,1,0,0:0:0:0:
207,176,105210,1,0,0:0:0:0:
231,144,105293,1,0,1:0:0:0:
266,126,105376,1,0,0:0:0:0:
306,126,105459,1,0,0:0:0:0:
341,144,105543,1,0,0:0:0:0:
365,175,105627,5,0,0:0:0:0:
287,211,105793,1,0,0:0:0:0:
416,113,105960,2,0,P|450:115|495:123,1,64
419,266,106293,2,0,P|385:264|340:256,1,64
287,211,106627,1,0,0:0:0:0:
280,364,106793,6,0,L|284:283,1,64
195,187,107127,2,0,L|199:268,1,64
114,366,107460,2,0,L|118:285,1,64
116,224,107793,5,0,0:0:0:0:
198,328,107960,1,0,0:0:0:0:
198,328,108043,1,0,0:0:0:0:
37,258,108210,1,0,0:0:0:0:
37,258,108293,6,0,P|33:221|43:167,1,64,0|0,0:0|0:0,1:0:0:0:
128,105,108627,1,0,0:0:0:0:
37,92,108793,1,0,0:0:0:0:
116,224,108960,5,0,0:0:0:0:
276,179,109127,1,0,2:0:0:0:
276,179,109210,1,0,2:0:0:0:
276,179,109293,1,0,0:0:0:0:
197,202,109460,1,0,0:0:0:0:
355,82,109627,5,0,0:0:0:0:
195,37,109794,1,0,2:0:0:0:
195,37,109877,1,0,2:0:0:0:
195,37,109960,1,0,0:0:0:0:
274,60,110127,1,0,0:0:0:0:
147,113,110293,6,0,L|211:119,1,64,0|0,0:0|0:0,1:0:0:0:
369,190,110627,2,0,L|305:184,1,64,0|0,0:0|0:0,1:0:0:0:
224,305,110960,6,0,P|228:242|229:156,2,128,0|0|0,0:0|0:0|0:0,1:0:0:0:
156,353,111793,1,0,0:0:0:0:
89,302,111960,1,0,0:0:0:0:
21,350,112127,1,0,0:0:0:0:
97,157,112293,5,0,0:0:0:0:
170,242,112460,2,0,L|165:298,2,32,0|0|0,2:0|2:0|0:0,1:0:0:0:
301,108,112793,1,0,0:0:0:0:
415,157,112960,5,0,0:0:0:0:
342,242,113127,2,0,L|347:298,2,32,0|0|0,2:0|2:0|0:0,1:0:0:0:
211,108,113460,1,0,0:0:0:0:
329,194,113627,5,0,0:0:0:0:
183,194,113793,1,0,0:0:0:0:
301,108,113960,1,0,0:0:0:0:
211,108,114127,1,0,0:0:0:0:
256,247,114293,1,0,0:0:0:0:
256,32,114460,5,0,1:0:0:0:
256,32,114543,1,0,1:0:0:0:
256,32,114627,1,0,1:0:0:0:
256,247,114793,2,0,L|256:293,1,40,0|0,1:0|2:0,0:0:0:0:
331,327,114960,6,2,B|306:318|306:318|292:321|292:321|277:313|277:313|262:321|262:321|249:313|249:313|237:317|237:317|222:310|222:310|207:315|207:315|191:309|191:309|175:315|175:315|147:309,1,180.000006866455,0|0,0:0|0:0,1:0:0:0:
88,282,115293,2,2,P|70:218|147:259,1,180.000006866455,0|0,0:0|0:0,1:0:0:0:
164,312,115627,5,0,3:0:0:0:
0,190,115793,2,0,P|43:143|181:150,1,200,0|0,3:0|0:0,0:0:0:0:
200,150,116293,6,0,L|197:61,1,80,0|0,3:0|0:0,0:0:0:0:
281,32,116627,1,8,0:0:0:0:
256,218,116793,1,0,0:0:0:0:
281,58,116960,6,0,L|283:137,1,80,0|0,3:0|0:0,0:0:0:0:
175,237,117293,1,8,0:0:0:0:
338,203,117460,1,0,0:0:0:0:
200,150,117627,5,0,3:0:0:0:
313,283,117793,2,0,B|315:322|315:322|295:367,1,80,0|8,0:0|0:0,0:0:0:0:
118,172,118127,2,0,B|115:132|115:132|135:87,1,80,0|0,0:0|3:0,0:0:0:0:
316,79,118460,1,2,0:2:0:0:
316,79,118543,1,0,0:0:0:0:
316,79,118627,1,8,0:0:0:0:
256,218,118793,1,0,0:0:0:0:
175,52,118960,6,0,B|210:31|210:31|198:169,1,160,0|8,3:0|0:0,0:0:0:0:
132,273,119460,1,0,0:0:0:0:
256,218,119627,2,0,L|242:315,1,80,0|0,3:0|0:0,0:0:0:0:
120,193,119960,2,0,L|134:290,1,80,8|0,0:0|0:0,0:0:0:0:
220,384,120293,5,0,3:0:0:0:
388,241,120460,1,0,0:0:0:0:
393,251,120543,1,0,0:0:0:0:
398,262,120627,2,0,P|373:292|324:299,1,80,8|0,0:0|0:0,0:0:0:0:
243,196,120960,1,0,3:0:0:0:
355,160,121127,2,0,P|396:156|453:186,1,80,0|8,0:0|0:0,0:0:0:0:
319,304,121460,1,0,0:0:0:0:
266,102,121627,5,0,3:0:0:0:
105,172,121793,1,0,0:0:0:0:
249,148,121960,1,8,0:0:0:0:
118,202,122127,1,0,0:0:0:0:
243,196,122293,1,0,3:0:0:0:
120,235,122460,1,0,0:0:0:0:
246,244,122627,1,8,0:0:0:0:
117,269,122793,1,0,0:0:0:0:
342,188,122960,6,0,L|442:188,1,80,0|0,3:0|0:0,0:0:0:0:
371,102,123293,1,8,0:0:0:0:
329,275,123460,2,0,P|332:312|328:371,1,80,0|0,0:0|3:0,0:0:0:0:
258,214,123793,1,0,0:0:0:0:
258,214,123877,1,0,0:0:0:0:
258,214,123960,1,8,0:0:0:0:
416,290,124127,1,0,0:0:0:0:
246,315,124293,6,0,L|159:318,1,80,0|0,3:0|0:0,0:0:0:0:
77,325,124627,1,8,0:0:0:0:
36,247,124793,1,0,0:0:0:0:
83,172,124960,1,0,3:0:0:0:
258,214,125127,1,0,0:0:0:0:
157,382,125293,1,8,0:0:0:0:
1,169,125460,6,0,B|-4:37|-4:37|32:60,1,160,4|0,0:0|3:0,0:0:0:0:
83,172,125960,1,8,0:0:0:0:
175,43,126127,1,0,0:0:0:0:
181,213,126293,5,2,1:2:0:0:
219,223,126377,1,0,1:0:0:0:
258,214,126460,1,0,1:0:0:0:
287,188,126543,1,0,1:0:0:0:
301,151,126627,1,2,1:2:0:0:
317,115,126710,1,0,1:0:0:0:
348,89,126793,1,0,1:0:0:0:
386,79,126877,1,0,1:0:0:0:
425,86,126960,5,0,1:0:0:0:
389,169,127127,2,0,B|369:247|369:247|414:326,1,160,0|0,0:0|1:0,0:0:0:0:
327,357,127627,1,8,0:0:0:0:
469,384,127793,2,0,P|419:346|312:370,1,160,0|0,0:0|0:0,0:0:0:0:
389,169,128293,5,0,1:0:0:0:
280,252,128460,2,0,B|336:243|336:243|386:254|386:254|456:242,1,160,8|0,0:0|1:0,0:0:0:0:
287,166,128960,1,8,0:0:0:0:
206,294,129127,2,0,B|196:255|196:255|208:200,1,80,0|0,0:0|0:0,0:0:0:0:
327,328,129460,1,0,0:0:0:0:
123,294,129627,6,0,B|41:297|41:297|83:365,1,160,0|0,1:0|0:0,0:0:0:0:
164,367,130127,1,0,1:0:0:0:
94,214,130293,6,0,B|12:217|12:217|50:141,1,160,8|0,0:0|0:0,0:0:0:0:
129,134,130793,1,0,0:0:0:0:
23,50,130960,5,0,1:0:0:0:
182,53,131127,2,0,L|23:50,1,160,8|0,0:0|1:0,0:0:0:0:
216,139,131627,1,8,0:0:0:0:
269,59,131793,1,0,0:0:0:0:
302,144,131960,1,0,0:0:0:0:
355,64,132127,1,0,0:0:0:0:
388,149,132293,6,0,B|435:126|435:126|406:249,1,160,0|0,1:0|0:0,0:0:0:0:
346,287,132793,1,0,1:0:0:0:
420,356,132960,6,0,P|357:320|258:345,1,160,8|0,0:0|0:0,0:0:0:0:
190,367,133460,1,0,0:0:0:0:
109,319,133627,5,0,1:0:0:0:
194,287,133793,2,0,L|190:367,1,80,8|0,0:0|0:0,0:0:0:0:
23,350,134127,1,0,1:0:0:0:
23,350,134293,2,0,L|27:270,1,80,8|0,0:0|0:0,0:0:0:0:
190,366,134627,1,0,0:0:0:0:
486,272,134960,6,0,B|360:304|400:192|263:225,1,240,0|0,1:0|1:0,0:0:0:0:
448,55,135627,2,0,P|480:126|445:195,1,160,8|0,0:0|0:0,0:0:0:0:
308,301,136127,1,0,0:0:0:0:
353,126,136293,6,0,L|402:122,2,44.0000013427735,0|0|0,1:0|1:0|1:0,0:0:0:0:
173,144,136627,2,0,L|55:153,1,88.000002685547,8|0,0:0|0:0,0:0:0:0:
263,135,136960,1,8,0:0:0:0:
218,9,137127,6,0,L|209:78,1,44.0000013427735,0|0,1:0|1:0,0:0:0:0:
322,244,137293,2,0,L|313:175,1,44.0000013427735,0|0,1:0|0:0,0:0:0:0:
404,5,137460,2,0,L|395:74,1,44.0000013427735,0|0,1:0|1:0,0:0:0:0:
405,240,137627,5,0,0:0:0:0:
205,125,137793,1,0,0:0:0:0:
373,68,137960,1,0,1:0:0:0:
123,154,138127,1,0,0:0:0:0:
123,154,138210,1,0,0:0:0:0:
123,154,138293,1,0,0:0:0:0:
339,297,138460,5,0,0:0:0:0:
107,240,138627,1,0,1:0:0:0:
323,211,138793,1,0,0:0:0:0:
323,211,138877,1,0,0:0:0:0:
323,211,138960,1,0,0:0:0:0:
139,68,139127,5,0,0:0:0:0:
25,269,139293,1,0,1:0:0:0:
307,125,139460,1,0,0:0:0:0:
307,125,139543,1,0,0:0:0:0:
307,125,139627,1,0,0:0:0:0:
339,297,139793,5,0,0:0:0:0:
373,68,139960,1,0,1:0:0:0:
189,211,140127,1,0,0:0:0:0:
189,211,140210,1,0,0:0:0:0:
189,211,140293,5,0,0:0:0:0:
57,97,140460,1,0,0:0:0:0:
173,297,140627,1,0,1:0:0:0:
389,154,140793,1,0,0:0:0:0:
389,154,140877,1,0,0:0:0:0:
389,154,140960,1,0,0:0:0:0:
487,269,141127,5,0,0:0:0:0:
323,211,141293,1,0,1:0:0:0:
455,97,141460,1,0,0:0:0:0:
421,326,141627,5,0,1:0:0:0:
107,240,141793,1,0,1:0:0:0:
389,154,141960,1,0,1:0:0:0:
139,68,142127,1,0,1:0:0:0:
373,68,142293,5,0,1:0:0:0:
123,154,142460,1,0,1:0:0:0:
405,240,142627,1,0,1:0:0:0:
91,326,142793,1,0,1:0:0:0:
256,252,142960,5,4,0:2:0:0:
162,63,143293,5,0,0:0:0:0:
409,242,143627,1,0,0:0:0:0:
104,242,143960,1,0,0:0:0:0:
351,63,144293,1,0,0:0:0:0:
256,352,144627,1,0,3:0:0:0:
256,352,144710,1,0,3:0:0:0:
256,352,144793,1,0,3:0:0:0:
256,121,144960,6,0,L|257:278,2,132.00000402832,0|0|0,0:0|0:0|0:0,0:0:0:0:
130,116,145627,6,0,B|211:137|211:137|263:119,1,132.00000402832,0|0,0:0|0:0,0:0:0:0:
383,126,146293,6,0,B|302:105|302:105|250:123,1,132.00000402832,0|0,0:0|0:0,0:0:0:0:
256,121,146543,1,0,0:0:0:0:
256,121,146627,1,0,0:0:0:0:
248,252,146793,1,0,0:0:0:0:
250,36,146960,5,2,2:2:0:0:
324,294,147127,1,0,1:0:0:0:
334,268,147210,1,0,1:0:0:0:
334,239,147293,1,4,3:3:0:0:
324,212,147377,1,0,3:0:0:0:
307,190,147460,1,0,3:0:0:0:
162,169,147627,5,0,3:0:0:0:
162,169,147710,1,0,3:0:0:0:
162,169,147793,2,0,L|173:220,1,47.9999985351563,0|0,3:0|0:0,0:0:0:0:
253,339,147960,5,0,1:0:0:0:
289,368,148043,1,0,1:0:0:0:
337,373,148127,1,0,1:0:0:0:
379,351,148210,1,0,1:0:0:0:
402,310,148293,6,0,B|424:257|402:191|402:191|424:213|452:219,1,167.999994873047,2|0,3:1|0:0,0:0:0:0:
465,222,148627,1,8,0:0:0:0:
307,190,148793,1,0,0:0:0:0:
473,88,148960,5,0,3:1:0:0:
473,88,149043,1,0,0:0:0:0:
473,88,149127,2,0,L|464:165,1,47.9999985351563,2|0,0:1|0:0,0:0:0:0:
402,310,149293,1,8,0:0:0:0:
257,117,149460,6,0,B|308:106|308:106|350:119,1,95.9999970703126,2|0,0:1|3:1,0:0:0:0:
296,277,149793,1,2,0:1:0:0:
269,30,149960,1,8,0:1:0:0:
307,190,150127,5,0,0:0:0:0:
307,190,150210,1,2,0:1:0:0:
307,190,150293,2,0,B|260:200,1,47.9999985351563,0|0,3:1|0:0,0:0:0:0:
122,101,150460,2,0,B|168:90,1,47.9999985351563,2|0,0:1|0:0,0:0:0:0:
269,30,150627,1,8,0:1:0:0:
156,231,150793,1,2,0:1:0:0:
156,231,150877,1,0,0:0:0:0:
156,231,150960,6,0,L|165:164,1,47.9999985351563,0|2,3:0|0:1,0:0:0:0:
131,18,151127,1,0,0:0:0:0:
307,190,151293,2,0,L|316:294,1,95.9999970703126,8|0,0:0|0:0,0:0:0:0:
470,229,151627,5,0,3:0:0:0:
470,229,151710,1,0,0:0:0:0:
470,229,151793,2,0,P|436:221|396:222,1,47.9999985351563,2|0,0:1|0:0,0:0:0:0:
277,354,151960,2,0,P|311:362|351:361,1,47.9999985351563,8|2,0:0|0:1,0:0:0:0:
434,302,152127,1,2,0:1:0:0:
218,195,152293,5,2,3:1:0:0:
418,116,152460,1,0,0:0:0:0:
264,266,152627,5,10,0:1:0:0:
243,52,152793,1,0,0:0:0:0:
399,195,152960,5,0,3:0:0:0:
399,195,153043,2,0,B|350:204|350:204|303:189,1,95.9999970703126,8|0,0:0|0:0,0:0:0:0:
218,195,153293,1,8,0:0:0:0:
434,302,153460,1,0,0:0:0:0:
264,266,153627,6,0,B|227:287|227:287|74:245,1,167.999994873047,2|0,3:1|0:0,0:0:0:0:
20,226,153960,2,0,L|30:303,1,55.9999982910157,8|0,0:0|0:0,0:0:0:0:
40,364,154127,1,0,0:0:0:0:
212,296,154293,6,0,L|153:314,1,55.9999982910157,0|2,3:0|0:1,0:0:0:0:
20,226,154460,2,0,L|79:244,1,55.9999982910157,2|0,0:1|0:0,0:0:0:0:
212,156,154627,2,0,L|153:174,1,55.9999982910157,8|0,0:0|0:0,0:0:0:0:
81,27,154793,1,2,0:1:0:0:
81,27,154877,1,2,0:1:0:0:
81,27,154960,5,2,3:1:0:0:
117,237,155127,1,0,0:0:0:0:
278,86,155293,2,0,B|346:71|346:71|410:85,1,111.999996582031,8|0,0:1|0:0,0:0:0:0:
387,80,155543,1,0,0:0:0:0:
387,80,155627,1,0,3:1:0:0:
226,231,155793,2,0,B|158:246|158:246|94:232,1,111.999996582031,2|8,0:1|0:1,0:0:0:0:
194,19,156127,1,2,0:1:0:0:
194,19,156210,1,0,0:0:0:0:
194,19,156293,6,0,L|200:81,1,55.9999982910157,0|2,3:0|0:1,0:0:0:0:
301,183,156460,1,0,0:0:0:0:
113,128,156627,2,0,B|23:114|23:114|50:140,1,111.999996582031,8|0,0:0|0:0,0:0:0:0:
182,305,156960,5,0,3:0:0:0:
216,276,157043,1,0,0:0:0:0:
226,231,157127,2,0,L|219:169,1,55.9999982910157,2|0,0:1|0:0,0:0:0:0:
315,39,157293,2,0,L|308:101,1,55.9999982910157,10|0,0:1|0:1,0:0:0:0:
412,270,157460,1,2,0:1:0:0:
412,270,157543,1,0,0:0:0:0:
412,270,157627,5,2,3:1:0:0:
227,106,157793,1,0,0:0:0:0:
400,185,157960,6,0,B|484:186|484:186|435:203,1,111.999996582031,10|0,0:1|1:0,0:0:0:0:
322,191,158210,1,0,1:0:0:0:
243,198,158293,6,0,B|159:197|159:197|208:180,1,111.999996582031,2|0,3:1|1:0,0:0:0:0:
322,191,158543,1,0,1:0:0:0:
315,113,158627,6,0,B|316:29|316:29|333:78,1,111.999996582031,10|0,0:1|1:0,0:0:0:0:
322,191,158877,1,0,1:0:0:0:
329,269,158960,6,0,B|313:387|313:387|282:309,1,167.999994873047,2|0,3:1|0:0,0:0:0:0:
245,279,159293,1,8,0:0:0:0:
417,362,159460,1,0,0:0:0:0:
245,279,159627,5,0,3:1:0:0:
245,279,159710,1,0,0:0:0:0:
245,279,159793,2,0,L|172:289,1,47.9999985351563,2|0,0:1|0:0,0:0:0:0:
91,296,159960,1,8,0:0:0:0:
223,104,160127,6,0,B|206:142|206:142|221:233,1,95.9999970703126,2|0,0:1|3:1,0:0:0:0:
319,334,160460,2,0,B|336:296|336:296|321:205,1,95.9999970703126,2|8,0:1|0:1,0:0:0:0:
446,105,160793,5,0,0:0:0:0:
446,105,160877,1,2,0:1:0:0:
446,105,160960,2,0,L|435:172,1,47.9999985351563,0|0,3:1|0:0,0:0:0:0:
416,263,161127,1,2,0:1:0:0:
318,95,161293,2,0,L|200:106,1,95.9999970703126,8|2,0:1|0:1,0:0:0:0:
148,123,161543,1,0,0:0:0:0:
148,123,161627,6,0,P|145:99|167:44,1,47.9999985351563,0|2,3:0|0:1,0:0:0:0:
219,25,161793,1,0,0:0:0:0:
324,223,161960,2,0,L|206:234,1,95.9999970703126,8|0,0:0|0:0,0:0:0:0:
154,251,162210,1,0,0:0:0:0:
154,251,162293,6,0,P|151:227|173:172,1,47.9999985351563,0|0,3:0|0:0,0:0:0:0:
225,153,162460,1,2,0:1:0:0:
339,304,162627,1,8,0:0:0:0:
160,379,162793,2,0,P|157:355|179:300,1,47.9999985351563,2|0,0:1|0:0,0:0:0:0:
228,231,162960,5,2,3:1:0:0:
60,352,163127,1,0,0:0:0:0:
234,258,163293,1,10,0:1:0:0:
85,159,163460,1,0,0:0:0:0:
186,335,163627,5,2,3:1:0:0:
329,181,163793,1,0,0:0:0:0:
329,181,163877,1,0,0:0:0:0:
329,181,163960,1,10,0:1:0:0:
438,357,164127,2,0,L|449:292,1,47.9999985351563,0|0,0:0|0:0,0:0:0:0:
484,97,164293,6,0,B|380:113|380:113|310:83,1,167.999994873047,2|0,3:1|0:0,0:0:0:0:
291,76,164627,1,8,0:0:0:0:
321,285,164793,1,0,0:0:0:0:
119,115,164960,6,0,L|205:123,1,55.9999982910157,0|2,3:0|0:1,0:0:0:0:
329,181,165127,2,0,L|243:189,1,55.9999982910157,2|0,0:1|0:0,0:0:0:0:
119,247,165293,2,0,L|205:255,1,55.9999982910157,8|0,0:0|0:0,0:0:0:0:
247,351,165460,1,2,0:1:0:0:
247,351,165543,1,2,0:1:0:0:
247,351,165627,5,2,3:1:0:0:
174,174,165793,1,0,0:0:0:0:
321,285,165960,2,0,P|373:294|455:256,1,111.999996582031,8|0,0:1|0:0,0:0:0:0:
465,210,166210,1,0,0:0:0:0:
465,210,166293,1,0,3:1:0:0:
234,256,166460,2,0,P|182:247|100:285,1,111.999996582031,2|8,0:1|0:1,0:0:0:0:
308,192,166793,1,2,0:1:0:0:
191,384,166960,6,0,L|185:320,1,55.9999982910157,0|2,3:0|0:1,0:0:0:0:
90,183,167127,1,0,0:0:0:0:
234,256,167293,1,8,0:0:0:0:
47,293,167460,1,0,0:0:0:0:
187,76,167627,5,0,3:0:0:0:
187,76,167710,1,0,0:0:0:0:
187,76,167793,2,0,B|191:110|191:110|181:171,1,55.9999982910157,2|0,0:1|0:0,0:0:0:0:
315,313,167960,2,0,B|311:279|311:279|321:218,1,55.9999982910157,10|0,0:1|0:0,0:0:0:0:
326,81,168127,1,0,0:0:0:0:
149,249,168293,5,10,3:1:0:0:
392,284,168460,1,0,0:0:0:0:
297,97,168627,6,0,L|308:157,1,55.9999982910157,10|0,3:1|0:0,0:0:0:0:
394,317,168793,1,0,0:0:0:0:
200,370,168960,6,0,L|211:310,1,55.9999982910157,10|0,3:1|0:0,0:0:0:0:
218,126,169127,2,0,L|229:186,1,55.9999982910157,0|0,0:0|0:0,0:0:0:0:
281,357,169293,5,10,3:1:0:0:
64,275,169460,1,0,0:0:0:0:
218,126,169627,5,4,0:0:0:0:
147,217,178960,6,0,L|142:139,1,64,8|0,1:3|0:0,0:0:0:0:
136,72,179293,1,8,0:3:0:0:
244,163,179460,6,0,L|239:241,1,64
233,308,179793,1,8,0:3:0:0:
341,217,179960,6,0,L|336:139,1,64
330,72,180293,6,0,B|387:66,1,40
330,72,180460,2,0,B|288:75,1,40
330,72,180627,6,2,B|444:60|444:60|414:96,1,143.999995605469,14|0,0:1|0:0,1:0:0:0:
380,147,180960,1,0,3:0:0:0:
181,137,181127,2,0,L|77:131,1,95.9999970703126,2|8,0:1|0:0,0:0:0:0:
243,301,181460,6,0,P|248:259|241:187,1,95.9999970703126,2|0,0:1|3:0,0:0:0:0:
269,25,181793,2,0,P|264:67|271:139,1,95.9999970703126,2|8,0:1|0:0,0:0:0:0:
340,285,182127,2,0,L|435:279,1,95.9999970703126,2|0,0:1|3:0,0:0:0:0:
166,252,182460,1,2,0:1:0:0:
305,197,182627,1,8,0:0:0:0:
306,362,182793,1,0,0:0:0:0:
445,306,182960,6,2,B|456:176|456:176|444:208|407:221,1,191.999994140625,2|8,3:1|0:0,1:0:0:0:
224,179,183460,1,0,0:0:0:0:
382,146,183627,1,0,3:0:0:0:
215,83,183793,2,0,L|224:179,1,95.9999970703126,2|8,0:1|0:0,0:0:0:0:
352,316,184127,2,0,L|416:323,2,47.9999985351563,2|0|2,0:1|0:0|3:1,0:0:0:0:
59,321,184460,6,0,L|173:305,1,95.9999970703126,2|8,0:1|0:0,0:0:0:0:
307,235,184793,1,2,0:1:0:0:
96,96,184960,1,0,3:0:0:0:
117,118,185043,2,0,B|139:144|139:144|130:212,1,95.9999970703126,8|0,0:0|0:0,0:0:0:0:
123,244,185293,1,8,0:0:0:0:
8,173,185460,2,2,L|56:174,1,47.9999985351563,2|0,0:1|0:0,1:0:0:0:
198,83,185627,5,2,3:1:0:0:
117,118,185793,1,0,0:0:0:0:
36,86,185960,1,8,0:0:0:0:
271,130,186127,2,0,P|320:119|399:128,1,95.9999970703126,2|0,0:1|3:0,0:0:0:0:
272,47,186460,5,2,0:1:0:0:
197,166,186627,1,8,0:0:0:0:
118,35,186793,1,2,0:1:0:0:
197,166,186960,5,2,3:1:0:0:
116,201,187126,1,0,0:0:0:0:
35,169,187293,1,8,0:0:0:0:
270,213,187460,2,0,P|319:202|398:211,1,95.9999970703126,2|0,0:1|3:0,0:0:0:0:
271,130,187793,5,2,0:1:0:0:
196,249,187960,1,8,0:0:0:0:
117,118,188126,1,2,0:1:0:0:
196,249,188293,5,2,3:1:0:0:
115,284,188459,1,0,0:0:0:0:
34,252,188626,1,8,0:0:0:0:
269,296,188793,2,0,P|318:285|397:294,1,95.9999970703126,2|0,0:1|3:0,0:0:0:0:
270,213,189126,5,2,0:1:0:0:
195,332,189293,1,8,0:0:0:0:
116,201,189459,1,2,0:1:0:0:
269,296,189627,5,10,0:1:0:0:
115,284,189793,1,2,0:1:0:0:
270,213,189960,5,10,0:1:0:0:
116,201,190126,1,2,0:1:0:0:
271,130,190293,6,0,L|275:77,1,47.9999985351563,10|0,0:0|1:0,0:0:0:0:
117,118,190460,2,0,L|115:58,1,47.9999985351563,0|2,1:0|1:2,0:0:0:0:
274,82,190627,5,0,1:0:0:0:
306,116,190710,1,0,1:0:0:0:
317,163,190793,1,2,1:2:0:0:
303,208,190877,1,0,1:0:0:0:
267,240,190960,6,2,B|200:200|113:226|113:226|154:249,1,191.999994140625,2|8,3:2|0:0,1:0:0:0:
219,330,191460,1,2,0:1:0:0:
52,277,191627,2,0,P|33:228|56:162,1,95.9999970703126,0|2,3:0|0:1,0:0:0:0:
172,87,191960,1,8,0:0:0:0:
230,239,192127,6,0,P|236:285|218:329,1,95.9999970703126,2|0,0:0|3:0,0:0:0:0:
376,136,192460,2,0,P|369:89|387:45,1,95.9999970703126,2|8,0:0|0:0,0:0:0:0:
222,233,192793,6,0,P|220:281|194:320,1,95.9999970703126,2|0,0:0|3:0,0:0:0:0:
383,157,193127,2,0,P|385:110|411:70,1,95.9999970703126,2|8,0:0|0:0,0:0:0:0:
145,254,193460,5,0,0:0:0:0:
253,147,193627,2,0,B|153:127|168:203|59:169,1,191.999994140625,2|8,3:2|0:0,0:0:0:0:
234,62,194127,1,2,0:2:0:0:
313,217,194293,5,0,3:0:0:0:
174,123,194460,1,2,0:2:0:0:
369,39,194627,1,8,0:0:0:0:
174,123,194793,2,0,L|65:115,1,95.9999970703126,2|0,0:2|3:0,0:0:0:0:
313,217,195127,2,0,L|408:224,1,95.9999970703126,2|8,0:2|0:0,0:0:0:0:
172,352,195460,6,0,B|163:307|163:307|179:240,1,95.9999970703126,2|0,0:2|3:0,0:0:0:0:
267,44,195793,2,0,B|276:89|276:89|260:156,1,95.9999970703126,2|8,0:2|0:0,0:0:0:0:
91,247,196127,1,0,0:0:0:0:
250,306,196293,5,0,3:0:0:0:
254,306,196377,1,0,0:0:0:0:
258,306,196460,1,0,0:0:0:0:
262,306,196543,1,0,0:0:0:0:
324,353,196627,5,8,0:0:0:0:
330,345,196710,1,0,0:0:0:0:
336,337,196793,1,0,0:0:0:0:
342,329,196877,1,0,0:0:0:0:
391,264,196960,5,0,3:0:0:0:
387,250,197043,1,0,0:0:0:0:
383,235,197127,1,0,0:0:0:0:
379,221,197210,1,0,0:0:0:0:
316,172,197293,5,8,0:0:0:0:
321,153,197377,1,0,0:0:0:0:
326,134,197460,1,0,0:0:0:0:
331,115,197543,1,0,0:0:0:0:
351,40,197627,5,0,3:0:0:0:
327,38,197710,1,0,0:0:0:0:
303,36,197793,1,0,0:0:0:0:
278,34,197877,1,0,0:0:0:0:
221,91,197960,5,8,0:0:0:0:
192,95,198043,1,0,0:0:0:0:
163,100,198127,1,0,0:0:0:0:
134,105,198210,1,0,0:0:0:0:
61,70,198293,5,0,3:0:0:0:
52,102,198376,1,0,0:0:0:0:
57,135,198459,1,0,0:0:0:0:
75,163,198543,1,0,0:0:0:0:
130,219,198627,5,8,0:0:0:0:
148,252,198710,1,0,0:0:0:0:
152,289,198793,1,0,0:0:0:0:
138,325,198877,1,0,0:0:0:0:
111,352,198960,6,0,B|48:355|70:297|112:349,1,95.9999970703126,2|8,3:2|0:0,0:0:0:0:
216,365,199460,2,0,B|277:379|265:318|215:362,1,95.9999970703126,2|0,0:2|3:0,0:0:0:0:
111,352,199793,5,2,0:2:0:0:
216,365,199960,1,10,0:0:0:0:
111,352,200127,1,2,0:0:0:0:
293,244,200293,5,8,0:0:0:0:
263,220,200376,1,0,0:0:0:0:
226,209,200459,1,2,0:2:0:0:
188,214,200543,1,0,0:0:0:0:
155,233,200627,1,8,0:0:0:0:
123,253,200710,1,0,0:0:0:0:
85,254,200793,1,2,0:2:0:0:
52,237,200877,1,0,0:0:0:0:
32,204,200960,1,8,0:0:0:0:
30,166,201043,1,0,0:0:0:0:
49,133,201127,1,2,0:2:0:0:
81,113,201210,1,0,0:0:0:0:
119,113,201293,6,0,P|127:72|127:46,1,60,0|0,3:0|2:0,0:0:0:0:
124,30,201627,1,4,0:0:0:0:
47,168,206960,6,0,L|52:221,1,40,0|0,0:0|2:0,0:0:0:0:
135,150,207293,2,0,L|157:198,1,40,0|0,0:0|2:0,0:0:0:0:
210,103,207627,2,0,L|247:140,1,40,0|0,0:0|2:0,0:0:0:0:
265,33,207960,2,0,L|313:56,1,40,0|0,0:0|2:0,0:0:0:0:
340,384,208293,6,0,L|383:353,1,40,0|0,0:0|2:0,0:0:0:0:
280,317,208626,2,0,L|310:273,1,40,0|0,0:0|2:0,0:0:0:0:
202,276,208960,2,0,L|216:225,1,40,0|0,0:0|2:0,0:0:0:0:
114,263,209293,2,0,L|109:210,1,40,0|0,0:0|2:0,0:0:0:0:
380,23,209627,6,0,L|332:0,1,40,0|0,0:0|2:0,0:0:0:0:
352,108,209960,2,0,L|299:103,1,40,0|0,0:0|2:0,0:0:0:0:
355,196,210294,2,0,L|304:210,1,40,0|0,0:0|2:0,0:0:0:0:
388,279,210627,2,0,L|344:309,1,40,0|0,0:0|2:0,0:0:0:0:
222,141,210960,6,0,B|228:103|201:69|201:69|249:109|248:164|248:164|232:192|235:224|235:224|229:258|229:258|239:303,1,320
247,310,212627,6,0,B|191:300|191:300|124:315,1,95.9999970703126,8|0,0:0|0:0,0:0:0:0:
142,174,212960,1,0,3:1:0:0:
142,174,213043,1,0,0:0:0:0:
142,174,213127,2,0,L|147:229,1,47.9999985351563,2|0,0:1|0:0,0:0:0:0:
194,384,213293,1,8,0:0:0:0:
317,249,213460,6,0,B|373:259|373:259|440:244,1,95.9999970703126,2|0,0:1|3:1,0:0:0:0:
233,215,213793,1,2,0:1:0:0:
332,349,213960,1,8,0:1:0:0:
378,173,214127,5,0,0:0:0:0:
378,173,214210,1,2,0:1:0:0:
378,173,214293,2,0,L|387:102,1,47.9999985351563,0|0,3:1|0:0,0:0:0:0:
233,215,214460,2,0,L|242:286,1,47.9999985351563,2|0,0:1|0:0,0:0:0:0:
404,288,214627,1,8,0:1:0:0:
257,111,214793,1,2,0:1:0:0:
257,111,214877,1,0,0:0:0:0:
257,111,214960,6,0,L|181:116,1,47.9999985351563,0|2,3:0|0:1,0:0:0:0:
50,259,215127,1,0,0:0:0:0:
112,41,215293,2,0,B|127:75|127:75|111:156,1,95.9999970703126,8|0,0:0|0:0,0:0:0:0:
151,361,215627,6,0,B|147:335|147:335|161:295,1,47.9999985351563,0|0,3:0|0:0,0:0:0:0:
233,215,215793,1,2,0:1:0:0:
233,215,215877,1,0,0:0:0:0:
233,215,215960,2,0,L|309:221,1,47.9999985351563,8|2,0:0|0:1,0:0:0:0:
390,230,216127,1,2,0:1:0:0:
329,306,216293,5,2,3:1:0:0:
351,124,216460,1,0,0:0:0:0:
167,165,216627,5,10,0:1:0:0:
361,141,216793,1,0,0:0:0:0:
215,304,216960,5,2,3:1:0:0:
237,122,217127,1,0,0:0:0:0:
53,163,217294,5,10,0:1:0:0:
247,139,217460,1,0,0:0:0:0:
54,298,217627,6,0,B|160:279|160:279|215:304,1,167.999994873047,2|0,3:1|0:0,0:0:0:0:
321,356,217960,2,0,L|232:376,1,55.9999982910157,8|0,0:0|0:0,0:0:0:0:
153,367,218127,1,0,0:0:0:0:
238,133,218293,6,0,L|218:203,1,55.9999982910157,0|2,3:0|0:1,0:0:0:0:
321,356,218460,2,0,L|301:286,1,55.9999982910157,2|0,0:1|0:0,0:0:0:0:
404,133,218627,2,0,L|384:203,1,55.9999982910157,8|0,0:0|0:0,0:0:0:0:
494,269,218793,1,2,0:1:0:0:
494,269,218877,1,2,0:1:0:0:
494,269,218960,5,2,3:1:0:0:
309,173,219127,1,0,0:0:0:0:
509,80,219293,1,8,0:1:0:0:
417,309,219460,2,0,L|338:296,1,55.9999982910157,0|0,0:0|0:0,0:0:0:0:
261,278,219627,1,0,3:1:0:0:
396,61,219793,2,0,B|378:128|378:128|396:173,1,111.999996582031,2|8,0:1|0:1,0:0:0:0:
178,357,220127,1,2,0:1:0:0:
178,357,220210,1,0,0:0:0:0:
178,357,220293,6,0,L|170:285,1,55.9999982910157,0|2,3:0|0:1,0:0:0:0:
211,164,220460,1,0,0:0:0:0:
289,357,220627,2,0,L|178:357,1,111.999996582031,8|0,0:0|0:0,0:0:0:0:
37,163,220960,5,0,3:0:0:0:
70,143,221043,1,0,0:0:0:0:
109,144,221127,2,0,P|122:166|114:227,1,55.9999982910157,2|0,0:1|0:0,0:0:0:0:
227,266,221293,2,0,P|231:240|203:186,1,55.9999982910157,10|0,0:1|0:1,0:0:0:0:
156,64,221460,1,2,0:1:0:0:
156,64,221543,1,0,0:0:0:0:
156,64,221627,1,2,3:1:0:0:
93,224,221793,5,0,0:0:0:0:
97,240,221877,1,0,0:0:0:0:
101,256,221960,1,10,0:1:0:0:
320,174,222127,2,0,P|313:147|271:108,1,55.9999982910157,0|0,1:0|1:0,0:0:0:0:
156,64,222293,1,2,3:1:0:0:
320,174,222460,5,0,1:0:0:0:
331,185,222544,1,0,1:0:0:0:
342,197,222627,1,10,0:1:0:0:
181,236,222793,2,0,P|173:209|190:154,1,55.9999982910157,0|0,1:0|1:0,0:0:0:0:
268,58,222960,6,2,B|396:46|396:46|378:55|356:82,1,167.999994873047,2|0,3:1|0:0,0:0:0:0:
431,115,223293,1,8,0:0:0:0:
248,206,223460,1,0,0:0:0:0:
396,289,223627,5,0,3:1:0:0:
396,289,223710,1,0,0:0:0:0:
396,289,223793,2,0,P|374:284|332:285,1,47.9999985351563,2|0,0:1|0:0,0:0:0:0:
285,368,223960,1,8,0:0:0:0:
408,196,224127,5,2,0:1:0:0:
370,369,224293,1,0,3:1:0:0:
248,206,224460,1,2,0:1:0:0:
479,256,224627,2,0,P|495:207|476:133,1,95.9999970703126,8|0,0:1|0:0,0:0:0:0:
436,100,224877,1,2,0:1:0:0:
436,100,224960,6,0,L|369:110,1,47.9999985351563,0|0,3:1|0:0,0:0:0:0:
360,204,225127,2,0,L|407:196,1,47.9999985351563,2|0,0:1|0:0,0:0:0:0:
512,86,225293,1,8,0:1:0:0:
302,84,225460,1,2,0:1:0:0:
302,84,225543,1,0,0:0:0:0:
302,84,225627,6,0,P|306:109|302:176,1,47.9999985351563,0|2,3:0|0:1,0:0:0:0:
400,287,225793,1,0,0:0:0:0:
402,17,225960,1,8,0:0:0:0:
230,128,226127,1,0,0:0:0:0:
453,175,226293,6,0,P|449:200|453:267,1,47.9999985351563,0|0,3:0|0:0,0:0:0:0:
310,332,226460,1,2,0:1:0:0:
310,332,226543,1,0,0:0:0:0:
310,332,226627,2,0,P|314:307|310:240,1,47.9999985351563,8|2,0:0|0:1,0:0:0:0:
306,169,226793,1,2,0:1:0:0:
445,369,226960,5,2,3:1:0:0:
234,302,227127,1,0,0:0:0:0:
377,116,227293,5,10,0:1:0:0:
400,287,227460,1,0,0:0:0:0:
185,163,227627,5,0,3:0:0:0:
212,171,227710,2,0,B|261:181|261:181|322:164,1,95.9999970703126,8|0,0:0|0:0,0:0:0:0:
377,116,227960,1,8,0:0:0:0:
212,254,228127,1,0,0:0:0:0:
254,94,228293,6,0,B|121:66|121:66|129:100,1,167.999994873047,2|0,3:1|0:0,0:0:0:0:
185,163,228627,2,0,L|110:183,1,55.9999982910157,8|0,0:0|0:0,0:0:0:0:
35,204,228793,1,0,0:0:0:0:
254,94,228960,6,0,L|256:38,1,55.9999982910157,0|0,3:0|0:1,0:0:0:0:
212,254,229127,2,0,L|214:309,1,55.9999982910157,2|0,0:1|0:0,0:0:0:0:
363,214,229293,2,0,L|438:234,1,55.9999982910157,8|0,0:0|0:0,0:0:0:0:
185,163,229460,1,2,0:1:0:0:
185,163,229543,1,0,0:1:0:0:
185,163,229627,5,2,3:1:0:0:
425,89,229793,1,0,0:0:0:0:
274,185,229960,2,0,L|261:314,1,111.999996582031,8|0,0:1|0:0,0:0:0:0:
251,373,230210,1,0,0:0:0:0:
251,373,230293,1,0,3:1:0:0:
458,309,230460,2,0,P|402:309|349:325,1,111.999996582031,2|8,0:1|0:1,0:0:0:0:
106,299,230793,1,2,0:1:0:0:
106,299,230877,1,0,0:0:0:0:
106,299,230960,6,0,P|130:303|200:298,1,55.9999982910157,0|2,3:0|0:1,0:0:0:0:
343,231,231127,1,0,0:0:0:0:
120,131,231293,2,0,P|147:131|175:135,1,55.9999982910157,8|0,0:0|0:0,0:0:0:0:
343,231,231460,2,0,P|315:230|287:226,1,55.9999982910157,0|0,0:0|0:0,0:0:0:0:
139,218,231627,1,0,3:0:0:0:
319,90,231793,6,0,L|326:159,1,55.9999982910157,2|0,0:1|0:0,0:0:0:0:
261,358,231960,2,0,L|268:289,1,55.9999982910157,10|0,0:1|0:1,0:0:0:0:
203,90,232127,2,0,L|210:159,1,55.9999982910157,2|0,0:1|0:0,0:0:0:0:
106,299,232293,5,10,0:1:0:0:
111,282,232377,1,0,0:0:0:0:
115,266,232460,1,0,0:0:0:0:
120,250,232543,1,0,0:0:0:0:
99,209,232627,5,10,0:1:0:0:
114,167,232710,1,0,1:0:0:0:
146,136,232793,1,0,1:0:0:0:
188,124,232877,1,0,1:0:0:0:
232,132,232960,1,10,0:1:0:0:
267,158,233043,1,0,0:0:0:0:
287,198,233127,1,0,1:0:0:0:
306,239,233210,1,0,1:0:0:0:
341,265,233293,1,10,0:1:0:0:
385,272,233377,1,0,1:0:0:0:
427,258,233460,1,0,1:0:0:0:
457,226,233543,1,0,1:0:0:0:
469,183,233627,6,2,B|381:105|381:105|394:127|392:168,1,167.999994873047,2|0,3:1|0:0,0:0:0:0:
380,183,233960,1,8,0:0:0:0:
465,28,234127,1,0,0:0:0:0:
310,143,234293,1,0,3:1:0:0:
310,143,234377,1,0,0:0:0:0:
310,143,234460,2,0,P|285:148|229:136,1,47.9999985351563,2|0,0:1|0:0,0:0:0:0:
127,78,234627,1,8,0:0:0:0:
325,50,234793,6,0,P|326:98|310:143,1,95.9999970703126,2|0,0:1|3:1,0:0:0:0:
141,296,235127,1,2,0:1:0:0:
236,84,235293,1,8,0:1:0:0:
287,268,235460,1,0,0:0:0:0:
287,268,235543,1,2,0:1:0:0:
287,268,235627,2,0,L|213:262,1,47.9999985351563,0|0,3:1|0:0,0:0:0:0:
59,244,235793,1,2,0:1:0:0:
144,26,235960,2,0,L|158:158,1,95.9999970703126,8|2,0:1|0:1,0:0:0:0:
146,204,236210,1,0,0:0:0:0:
146,204,236293,6,0,L|218:195,1,47.9999985351563,0|2,3:0|0:1,0:0:0:0:
301,181,236460,1,0,0:0:0:0:
70,157,236627,1,8,0:0:0:0:
185,339,236793,1,0,0:0:0:0:
226,105,236960,5,0,3:0:0:0:
226,105,237044,1,0,0:0:0:0:
226,105,237127,2,0,L|298:96,1,47.9999985351563,2|0,0:1|0:0,0:0:0:0:
407,230,237293,1,8,0:0:0:0:
137,104,237460,1,2,0:1:0:0:
394,70,237627,5,2,3:1:0:0:
257,282,237793,1,0,0:0:0:0:
188,23,237960,1,10,0:1:0:0:
442,151,238127,1,0,0:0:0:0:
188,23,238293,5,2,3:1:0:0:
308,209,238460,1,0,0:0:0:0:
308,209,238543,1,0,0:0:0:0:
308,209,238627,1,10,0:1:0:0:
488,65,238793,1,0,0:0:0:0:
242,105,238960,6,0,B|194:103|125:142|125:142|142:123|144:83,1,167.999994873047,2|0,3:1|0:0,0:0:0:0:
68,93,239293,2,0,B|35:141|49:186|49:186|61:162,1,111.999996582031,8|0,0:0|0:0,0:0:0:0:
202,223,239627,6,0,P|176:221|126:243,1,55.9999982910157,0|0,3:0|0:1,0:0:0:0:
4,181,239793,2,0,P|29:179|79:201,1,55.9999982910157,2|0,0:1|0:0,0:0:0:0:
243,158,239960,2,0,P|219:147|164:150,1,55.9999982910157,8|0,0:0|0:0,0:0:0:0:
24,256,240127,2,0,P|49:263|88:300,1,55.9999982910157,2|0,0:1|0:1,0:0:0:0:
186,300,240293,5,2,3:1:0:0:
122,73,240461,1,0,0:0:0:0:
325,198,240627,2,0,P|379:206|465:189,1,111.999996582031,8|0,0:1|0:0,0:0:0:0:
476,136,240877,1,0,0:0:0:0:
476,136,240960,1,0,3:1:0:0:
243,158,241127,2,0,P|189:150|103:167,1,111.999996582031,2|8,0:1|0:1,0:0:0:0:
319,105,241460,1,2,0:1:0:0:
257,297,241627,6,0,P|256:268|250:228,1,55.9999982910157,0|2,3:0|0:1,0:0:0:0:
239,68,241793,1,0,0:0:0:0:
392,269,241960,1,8,0:0:0:0:
174,216,242127,1,0,0:0:0:0:
404,122,242293,5,0,3:0:0:0:
404,122,242377,1,0,0:0:0:0:
404,122,242460,2,0,P|400:149|399:177,1,55.9999982910157,2|0,0:1|0:0,0:0:0:0:
257,297,242627,2,0,P|256:268|250:228,1,55.9999982910157,10|0,0:1|0:0,0:0:0:0:
126,119,242793,1,0,0:0:0:0:
208,364,242960,5,10,3:1:0:0:
249,379,243043,1,0,0:0:0:0:
292,370,243126,1,0,0:0:0:0:
325,340,243210,1,0,0:0:0:0:
338,298,243293,1,10,3:1:0:0:
326,255,243376,1,0,0:0:0:0:
302,218,243460,1,0,0:0:0:0:
299,174,243543,1,0,0:0:0:0:
316,133,243627,1,10,3:1:0:0:
351,106,243710,1,0,0:0:0:0:
395,98,243793,1,0,1:0:0:0:
437,112,243877,1,0,1:0:0:0:
467,144,243960,5,10,3:1:0:0:
422,271,244127,1,0,1:0:0:0:
422,271,244210,1,0,1:0:0:0:
422,271,244293,6,0,P|415:241|404:213,1,60,2|0,3:1|0:0,0:0:0:0:
389,188,244627,5,8,0:0:0:0:
423,359,244793,1,0,0:0:0:0:
257,297,244960,1,0,3:1:0:0:
472,203,245127,1,2,0:1:0:0:
472,203,245210,1,0,0:0:0:0:
472,203,245293,2,0,L|481:134,1,47.9999985351563,8|2,0:0|0:1,0:0:0:0:
330,88,245460,1,2,0:1:0:0:
422,271,245627,6,0,L|353:286,1,47.9999985351563,2|0,3:1|0:0,0:0:0:0:
209,215,245793,2,0,P|253:203|332:230,1,95.9999970703126,0|10,0:0|0:1,0:0:0:0:
422,84,246127,2,0,P|378:96|299:69,1,95.9999970703126,0|2,0:0|3:1,0:0:0:0:
153,45,246460,1,0,0:0:0:0:
153,45,246543,1,0,0:0:0:0:
153,45,246627,1,10,0:1:0:0:
209,215,246793,1,0,0:0:0:0:
26,120,246960,6,0,L|113:106,1,47.9999985351563,0|2,3:0|0:1,0:0:0:0:
231,98,247127,1,0,0:0:0:0:
137,267,247293,2,0,B|122:224|122:224|133:162,1,95.9999970703126,8|0,0:0|0:0,0:0:0:0:
322,139,247627,2,0,L|314:215,1,47.9999985351563,0|0,3:0|0:0,0:0:0:0:
301,341,247793,1,2,0:1:0:0:
301,341,247877,1,0,0:0:0:0:
301,341,247960,2,0,L|383:327,1,47.9999985351563,8|2,0:0|0:1,0:0:0:0:
449,300,248127,1,2,0:1:0:0:
313,261,248293,5,2,3:1:0:0:
457,381,248460,1,0,0:0:0:0:
291,258,248627,5,10,0:1:0:0:
469,185,248793,1,0,0:0:0:0:
270,263,248960,5,2,3:1:0:0:
322,54,249127,1,0,0:0:0:0:
252,275,249293,5,10,0:1:0:0:
128,67,249460,1,0,0:0:0:0:
301,341,249627,6,0,P|248:360|179:328,1,95.9999970703126,2|0,3:1|0:0,0:0:0:0:
0,215,249960,2,0,P|53:196|122:228,1,95.9999970703126,8|0,0:0|0:0,0:0:0:0:
252,275,250293,1,0,3:0:0:0:
58,343,250460,1,2,0:1:0:0:
58,343,250543,1,0,0:0:0:0:
58,343,250627,2,0,L|53:279,1,47.9999985351563,8|0,0:0|0:0,0:0:0:0:
123,117,250793,1,2,0:1:0:0:
252,275,250960,6,0,L|188:267,1,47.9999985351563,2|0,3:1|0:0,0:0:0:0:
119,209,251127,2,0,B|108:162|108:162|123:117,1,95.9999970703126,0|10,0:0|0:1,0:0:0:0:
332,229,251460,2,0,B|343:276|343:276|328:321,1,95.9999970703126,0|2,0:0|3:1,0:0:0:0:
172,362,251793,1,0,0:0:0:0:
199,162,251960,2,0,L|308:146,1,95.9999970703126,10|0,0:1|0:0,0:0:0:0:
380,148,252210,1,0,0:0:0:0:
380,148,252293,6,0,L|368:76,1,47.9999985351563,0|2,3:0|0:1,0:0:0:0:
295,61,252460,1,0,0:0:0:0:
418,220,252627,2,0,L|407:344,1,95.9999970703126,8|0,0:0|0:0,0:0:0:0:
224,362,252960,2,0,L|218:294,1,47.9999985351563,0|0,3:0|0:0,0:0:0:0:
209,213,253127,1,2,0:1:0:0:
209,213,253210,1,0,0:0:0:0:
209,213,253293,2,0,L|267:225,1,47.9999985351563,8|2,0:0|0:1,0:0:0:0:
371,249,253460,1,2,0:1:0:0:
137,263,253627,5,2,3:1:0:0:
240,86,253793,1,0,0:0:0:0:
153,275,253960,5,10,0:1:0:0:
130,57,254127,1,0,0:0:0:0:
95,338,254293,5,2,3:1:0:0:
301,209,254460,1,0,1:0:0:0:
116,162,254627,5,10,0:1:0:0:
293,378,254793,1,0,1:0:0:0:
494,147,255210,5,0,0:0:0:0:
494,147,255293,2,0,L|513:89,1,47.9999985351563,0|0,1:0|0:0,0:0:0:0:
401,155,255543,5,0,0:0:0:0:
404,136,255627,2,0,L|413:70,1,64
316,163,255877,5,0,0:0:0:0:
314,140,255960,2,0,L|311:59,1,80,0|0,1:0|0:0,0:0:0:0:
232,188,256210,5,0,0:0:0:0:
226,160,256293,2,0,L|206:65,1,95.9999970703126
157,224,256543,5,0,0:0:0:0:
142,194,256627,2,0,L|99:86,1,111.999996582031,0|0,1:0|0:0,0:0:0:0:
88,51,256877,5,0,0:0:0:0:
118,25,256960,1,0,0:0:0:0:
157,19,257043,1,0,0:0:0:0:
193,35,257127,1,0,0:0:0:0:
214,68,257210,1,0,0:0:0:0:
236,101,257293,1,0,1:0:0:0:
272,118,257376,1,0,0:0:0:0:
312,114,257460,1,0,0:0:0:0:
343,91,257543,1,0,0:0:0:0:
