osu file format v14

[General]
AudioFilename: Night of Knights.mp3
AudioLeadIn: 0
PreviewTime: 21750
Countdown: 0
SampleSet: Normal
StackLeniency: 0.7
Mode: 1
LetterboxInBreaks: 1
WidescreenStoryboard: 1

[Editor]
DistanceSpacing: 1.2
BeatDivisor: 4
GridSize: 4
TimelineZoom: 1.6

[Metadata]
Title:night of knights
TitleUnicode:night of knights
Artist:Hanataba
ArtistUnicode:Hanataba
Creator:dani
Version:Oni
Source:Touhou
Tags:
BeatmapID:672931
BeatmapSetID:299856

[Difficulty]
HPDrainRate:5
CircleSize:5
OverallDifficulty:5
ApproachRate:0
SliderMultiplier:1.4
SliderTickRate:0.5

[Events]
//Background and Video events
0,0,"TaikoESP2.png",0,0
//Break Periods
2,64616,73283
2,107283,115949
//Storyboard Layer 0 (Background)
//Storyboard Layer 1 (Fail)
//Storyboard Layer 2 (Pass)
//Storyboard Layer 3 (Foreground)
//Storyboard Sound Samples

[TimingPoints]
21750,333.333333333333,4,1,0,100,1,0
170916,-100,4,2,0,100,0,0

[Colours]
Combo1 : 0,0,255
Combo2 : 255,0,0

[HitObjects]
248,196,21750,5,0,0:0:0:0:
228,204,21917,1,8,0:0:0:0:
244,200,22083,1,0,0:0:0:0:
252,204,22250,1,8,0:0:0:0:
248,204,22333,1,8,0:0:0:0:
244,200,22416,1,0,0:0:0:0:
240,204,22583,1,8,0:0:0:0:
244,200,22750,1,0,0:0:0:0:
240,204,22916,1,8,0:0:0:0:
244,200,23083,1,0,0:0:0:0:
240,208,23250,1,8,0:0:0:0:
240,208,23333,1,8,0:0:0:0:
244,200,23416,1,0,0:0:0:0:
240,200,23583,1,8,0:0:0:0:
240,200,23666,1,8,0:0:0:0:
240,200,23750,1,0,0:0:0:0:
244,200,23916,1,0,0:0:0:0:
240,200,24083,1,8,0:0:0:0:
244,200,24250,1,8,0:0:0:0:
240,204,24416,1,0,0:0:0:0:
240,204,24583,1,8,0:0:0:0:
240,204,24750,1,0,0:0:0:0:
240,204,24916,1,8,0:0:0:0:
240,208,25000,1,8,0:0:0:0:
240,208,25083,1,0,0:0:0:0:
240,204,25250,1,8,0:0:0:0:
240,204,25416,1,0,0:0:0:0:
244,216,25583,1,8,0:0:0:0:
244,216,25666,1,8,0:0:0:0:
244,216,25750,1,0,0:0:0:0:
236,216,25916,1,8,0:0:0:0:
236,216,26083,1,0,0:0:0:0:
228,208,26250,1,8,0:0:0:0:
228,208,26416,1,0,0:0:0:0:
228,208,26583,1,0,0:0:0:0:
228,208,26750,1,8,0:0:0:0:
228,208,26916,1,8,0:0:0:0:
248,208,27083,1,0,0:0:0:0:
248,208,27250,1,8,0:0:0:0:
248,208,27333,1,8,0:0:0:0:
248,208,27416,1,8,0:0:0:0:
248,208,27583,1,0,0:0:0:0:
248,208,27750,1,8,0:0:0:0:
248,208,27833,1,8,0:0:0:0:
248,208,27916,1,8,0:0:0:0:
248,208,28083,1,8,0:0:0:0:
248,208,28166,1,8,0:0:0:0:
248,208,28250,1,8,0:0:0:0:
248,208,28416,1,0,0:0:0:0:
248,208,28583,1,8,0:0:0:0:
248,208,28666,1,8,0:0:0:0:
248,208,28750,1,8,0:0:0:0:
248,208,28916,1,0,0:0:0:0:
248,208,29083,1,8,0:0:0:0:
248,208,29166,1,8,0:0:0:0:
248,208,29250,1,8,0:0:0:0:
248,208,29416,1,0,0:0:0:0:
248,208,29500,1,0,0:0:0:0:
248,208,29583,1,0,0:0:0:0:
248,208,29750,1,0,0:0:0:0:
248,208,29916,1,8,0:0:0:0:
248,208,30000,1,8,0:0:0:0:
248,208,30083,1,8,0:0:0:0:
248,208,30250,1,0,0:0:0:0:
236,200,30416,1,0,0:0:0:0:
236,200,30583,1,8,0:0:0:0:
236,200,30666,1,8,0:0:0:0:
236,200,30750,1,8,0:0:0:0:
240,204,30916,1,0,0:0:0:0:
240,204,31083,1,0,0:0:0:0:
240,204,31250,1,8,0:0:0:0:
240,204,31333,1,8,0:0:0:0:
240,204,31416,1,8,0:0:0:0:
240,204,31583,1,8,0:0:0:0:
240,204,31750,1,8,0:0:0:0:
240,200,31916,1,12,0:0:0:0:
240,200,32083,1,12,0:0:0:0:
248,204,32416,1,0,0:0:0:0:
252,200,32583,1,8,0:0:0:0:
252,200,32750,1,0,0:0:0:0:
252,200,32833,1,8,0:0:0:0:
252,200,32916,1,0,0:0:0:0:
252,200,33000,1,0,0:0:0:0:
248,188,33083,1,8,0:0:0:0:
232,200,33250,1,8,0:0:0:0:
232,200,33416,1,0,0:0:0:0:
232,200,33500,1,8,0:0:0:0:
232,200,33583,1,0,0:0:0:0:
232,200,33666,1,0,0:0:0:0:
232,200,33750,1,0,0:0:0:0:
248,200,33916,1,8,0:0:0:0:
248,200,34083,1,8,0:0:0:0:
236,200,34166,1,8,0:0:0:0:
236,200,34250,1,0,0:0:0:0:
236,200,34333,1,0,0:0:0:0:
200,208,34416,1,8,0:0:0:0:
228,204,34583,1,0,0:0:0:0:
228,204,34750,1,0,0:0:0:0:
228,204,34916,1,0,0:0:0:0:
228,204,35083,1,4,0:0:0:0:
248,208,35250,1,8,0:0:0:0:
248,208,35416,1,0,0:0:0:0:
248,208,35500,1,0,0:0:0:0:
248,208,35583,1,8,0:0:0:0:
240,216,35750,1,8,0:0:0:0:
236,216,35916,1,8,0:0:0:0:
236,216,36083,1,0,0:0:0:0:
236,216,36167,1,8,0:0:0:0:
236,208,36250,1,8,0:0:0:0:
236,216,36333,1,8,0:0:0:0:
240,208,36416,1,0,0:0:0:0:
248,212,36583,1,8,0:0:0:0:
248,212,36666,1,8,0:0:0:0:
248,212,36750,1,0,0:0:0:0:
248,212,36916,1,8,0:0:0:0:
248,212,37083,1,8,0:0:0:0:
248,212,37250,1,0,0:0:0:0:
248,212,37416,1,0,0:0:0:0:
248,212,37583,1,8,0:0:0:0:
260,216,37750,1,4,0:0:0:0:
256,216,37916,1,8,0:0:0:0:
252,212,38083,1,0,0:0:0:0:
252,212,38166,1,8,0:0:0:0:
252,212,38250,1,8,0:0:0:0:
264,220,38416,1,8,0:0:0:0:
264,220,38583,1,8,0:0:0:0:
264,220,38749,1,0,0:0:0:0:
264,220,38833,1,8,0:0:0:0:
256,216,38916,1,0,0:0:0:0:
256,216,39000,1,0,0:0:0:0:
256,216,39083,1,8,0:0:0:0:
256,216,39250,1,8,0:0:0:0:
256,216,39333,1,8,0:0:0:0:
256,216,39416,1,0,0:0:0:0:
260,216,39583,1,8,0:0:0:0:
256,216,39666,1,8,0:0:0:0:
256,216,39750,1,8,0:0:0:0:
256,220,39916,1,0,0:0:0:0:
256,220,40000,1,0,0:0:0:0:
256,220,40083,1,8,0:0:0:0:
256,216,40250,1,0,0:0:0:0:
256,216,40416,1,4,0:0:0:0:
248,216,40583,1,8,0:0:0:0:
248,216,40750,1,0,0:0:0:0:
252,216,40916,1,8,0:0:0:0:
248,220,41083,1,4,0:0:0:0:
248,224,41250,1,8,0:0:0:0:
256,224,41416,1,0,0:0:0:0:
256,224,41583,1,8,0:0:0:0:
12,208,41750,2,8,L|440:204,1,420
252,200,43083,1,0,0:0:0:0:
248,192,43250,1,8,0:0:0:0:
252,192,43416,1,0,0:0:0:0:
252,192,43500,1,8,0:0:0:0:
252,192,43583,1,8,0:0:0:0:
252,192,43750,1,0,0:0:0:0:
252,192,43916,1,8,0:0:0:0:
252,192,44000,1,8,0:0:0:0:
252,192,44083,1,0,0:0:0:0:
248,200,44250,1,8,0:0:0:0:
248,200,44333,1,8,0:0:0:0:
248,200,44416,1,0,0:0:0:0:
240,208,44583,1,8,0:0:0:0:
240,204,44666,1,8,0:0:0:0:
240,204,44750,1,0,0:0:0:0:
248,200,44916,1,0,0:0:0:0:
248,200,45000,1,8,0:0:0:0:
248,200,45083,1,8,0:0:0:0:
248,200,45250,1,0,0:0:0:0:
248,200,45333,1,0,0:0:0:0:
248,200,45416,1,8,0:0:0:0:
248,200,45583,1,8,0:0:0:0:
248,200,45750,1,0,0:0:0:0:
256,204,45916,1,8,0:0:0:0:
244,212,46083,1,0,0:0:0:0:
244,212,46166,1,8,0:0:0:0:
244,212,46250,1,8,0:0:0:0:
264,200,46416,1,0,0:0:0:0:
256,204,46583,1,8,0:0:0:0:
264,200,46666,1,8,0:0:0:0:
264,200,46749,1,0,0:0:0:0:
248,220,46916,1,8,0:0:0:0:
256,200,47000,1,8,0:0:0:0:
256,200,47083,1,0,0:0:0:0:
268,200,47250,1,8,0:0:0:0:
268,200,47416,1,0,0:0:0:0:
268,200,47583,1,8,0:0:0:0:
268,200,47666,1,8,0:0:0:0:
268,200,47750,1,0,0:0:0:0:
264,200,47916,1,8,0:0:0:0:
264,200,48083,1,0,0:0:0:0:
264,200,48250,1,8,0:0:0:0:
264,204,48416,1,0,0:0:0:0:
276,204,48583,1,8,0:0:0:0:
276,204,48666,1,8,0:0:0:0:
276,204,48750,1,0,0:0:0:0:
276,204,48916,1,8,0:0:0:0:
276,204,49000,1,8,0:0:0:0:
276,204,49083,1,0,0:0:0:0:
268,196,49250,1,8,0:0:0:0:
272,196,49333,1,8,0:0:0:0:
272,196,49416,1,0,0:0:0:0:
268,200,49583,1,0,0:0:0:0:
268,204,49750,1,0,0:0:0:0:
264,200,49916,1,0,0:0:0:0:
264,200,50000,1,8,0:0:0:0:
264,200,50083,1,8,0:0:0:0:
280,196,50250,1,0,0:0:0:0:
280,196,50333,1,8,0:0:0:0:
280,196,50416,1,8,0:0:0:0:
272,192,50583,1,0,0:0:0:0:
272,192,50666,1,8,0:0:0:0:
272,192,50750,1,8,0:0:0:0:
272,192,50916,1,8,0:0:0:0:
280,204,51083,1,0,0:0:0:0:
280,204,51250,1,8,0:0:0:0:
280,204,51416,1,8,0:0:0:0:
280,204,51500,1,8,0:0:0:0:
280,204,51583,1,8,0:0:0:0:
280,204,51666,1,8,0:0:0:0:
280,204,51750,1,0,0:0:0:0:
276,196,51916,1,8,0:0:0:0:
280,196,52083,1,8,0:0:0:0:
280,196,52166,1,8,0:0:0:0:
280,196,52250,1,8,0:0:0:0:
276,196,52333,1,8,0:0:0:0:
276,196,52416,1,0,0:0:0:0:
256,188,52583,1,8,0:0:0:0:
256,188,52666,1,8,0:0:0:0:
284,196,52750,1,0,0:0:0:0:
272,200,52916,1,8,0:0:0:0:
272,200,53000,1,8,0:0:0:0:
284,196,53083,1,0,0:0:0:0:
272,200,53250,1,8,0:0:0:0:
272,200,53333,1,8,0:0:0:0:
276,192,53416,1,0,0:0:0:0:
276,192,53583,1,0,0:0:0:0:
276,196,53750,1,4,0:0:0:0:
280,196,53916,1,8,0:0:0:0:
280,196,54083,1,0,0:0:0:0:
276,196,54166,1,0,0:0:0:0:
276,196,54250,1,0,0:0:0:0:
284,204,54416,1,8,0:0:0:0:
284,200,54583,1,0,0:0:0:0:
288,192,54750,1,8,0:0:0:0:
284,196,54832,1,8,0:0:0:0:
284,192,54916,1,0,0:0:0:0:
276,188,55000,1,0,0:0:0:0:
288,192,55083,1,0,0:0:0:0:
284,192,55250,1,0,0:0:0:0:
284,192,55333,1,0,0:0:0:0:
288,192,55416,1,8,0:0:0:0:
280,192,55583,1,0,0:0:0:0:
280,196,55666,1,0,0:0:0:0:
288,192,55750,1,8,0:0:0:0:
280,196,55916,1,0,0:0:0:0:
280,192,56083,1,8,0:0:0:0:
280,192,56250,1,0,0:0:0:0:
284,200,56416,1,0,0:0:0:0:
288,192,56583,1,0,0:0:0:0:
272,188,56750,1,0,0:0:0:0:
272,188,56834,1,0,0:0:0:0:
272,188,56917,1,0,0:0:0:0:
276,192,57083,1,8,0:0:0:0:
276,188,57249,1,8,0:0:0:0:
272,184,57333,1,8,0:0:0:0:
276,188,57416,1,0,0:0:0:0:
276,188,57583,1,0,0:0:0:0:
276,188,57666,1,0,0:0:0:0:
276,188,57749,1,0,0:0:0:0:
272,184,57916,1,8,0:0:0:0:
272,184,57999,1,8,0:0:0:0:
272,184,58083,1,0,0:0:0:0:
272,184,58249,1,8,0:0:0:0:
272,184,58333,1,8,0:0:0:0:
272,184,58416,1,0,0:0:0:0:
276,180,58583,1,8,0:0:0:0:
276,180,58666,1,8,0:0:0:0:
276,180,58749,1,8,0:0:0:0:
276,180,58916,1,8,0:0:0:0:
276,180,59083,1,0,0:0:0:0:
268,180,59250,1,8,0:0:0:0:
268,180,59333,1,8,0:0:0:0:
268,180,59416,1,0,0:0:0:0:
272,168,59583,1,8,0:0:0:0:
272,172,59749,1,0,0:0:0:0:
260,180,59916,1,8,0:0:0:0:
264,180,60083,1,0,0:0:0:0:
264,180,60249,1,8,0:0:0:0:
276,180,60416,1,0,0:0:0:0:
276,180,60583,1,8,0:0:0:0:
264,164,60666,1,8,0:0:0:0:
268,180,60749,1,0,0:0:0:0:
276,180,60916,1,8,0:0:0:0:
264,176,60999,1,8,0:0:0:0:
268,180,61083,1,0,0:0:0:0:
268,180,61249,1,8,0:0:0:0:
272,180,61416,1,0,0:0:0:0:
272,180,61583,1,8,0:0:0:0:
272,180,61749,1,4,0:0:0:0:
268,168,61916,1,8,0:0:0:0:
280,176,62083,1,8,0:0:0:0:
280,176,62166,1,8,0:0:0:0:
280,176,62250,1,8,0:0:0:0:
268,176,62416,1,8,0:0:0:0:
276,172,62583,1,8,0:0:0:0:
272,176,62749,1,0,0:0:0:0:
272,176,62833,1,8,0:0:0:0:
272,176,62916,1,8,0:0:0:0:
280,176,62999,1,8,0:0:0:0:
280,176,63083,1,0,0:0:0:0:
260,176,63249,1,8,0:0:0:0:
260,176,63333,1,8,0:0:0:0:
260,176,63416,1,0,0:0:0:0:
260,176,63583,1,8,0:0:0:0:
260,176,63749,1,0,0:0:0:0:
260,176,63916,1,8,0:0:0:0:
260,176,64083,1,8,0:0:0:0:
256,176,64416,1,4,0:0:0:0:
256,236,75083,5,0,0:0:0:0:
264,232,75416,1,8,0:0:0:0:
256,228,75749,1,0,0:0:0:0:
256,228,76083,1,8,0:0:0:0:
256,228,76249,1,0,0:0:0:0:
256,224,76583,1,0,0:0:0:0:
256,220,76749,1,8,0:0:0:0:
252,228,77083,1,0,0:0:0:0:
252,228,77416,1,8,0:0:0:0:
252,228,77583,1,8,0:0:0:0:
256,228,77749,1,0,0:0:0:0:
252,228,78083,1,8,0:0:0:0:
252,228,78416,1,0,0:0:0:0:
252,228,78583,1,8,0:0:0:0:
252,228,78916,1,8,0:0:0:0:
252,228,79083,1,8,0:0:0:0:
252,228,79416,1,0,0:0:0:0:
252,228,79749,1,8,0:0:0:0:
252,228,80083,1,8,0:0:0:0:
252,228,80249,1,8,0:0:0:0:
252,228,80416,1,0,0:0:0:0:
240,224,80749,1,8,0:0:0:0:
240,224,81083,1,0,0:0:0:0:
240,224,81416,1,8,0:0:0:0:
240,224,81583,1,8,0:0:0:0:
240,224,81749,1,0,0:0:0:0:
244,216,82083,1,8,0:0:0:0:
244,216,82416,1,0,0:0:0:0:
244,216,82749,1,8,0:0:0:0:
244,216,82916,1,8,0:0:0:0:
244,216,83083,1,0,0:0:0:0:
244,216,83583,1,8,0:0:0:0:
244,216,83750,1,0,0:0:0:0:
240,220,84083,1,8,0:0:0:0:
240,216,84249,1,0,0:0:0:0:
236,216,84583,1,8,0:0:0:0:
236,216,84749,1,8,0:0:0:0:
244,220,84833,1,8,0:0:0:0:
244,216,84916,1,8,0:0:0:0:
244,216,85083,1,0,0:0:0:0:
244,216,85416,1,8,0:0:0:0:
248,216,85749,1,4,0:0:0:0:
264,212,85916,1,8,0:0:0:0:
264,212,85999,1,8,0:0:0:0:
264,212,86083,1,8,0:0:0:0:
264,212,86249,1,0,0:0:0:0:
264,212,86416,1,8,0:0:0:0:
264,212,86499,1,8,0:0:0:0:
264,212,86583,1,8,0:0:0:0:
264,212,86749,1,8,0:0:0:0:
264,212,86833,1,8,0:0:0:0:
264,212,86916,1,8,0:0:0:0:
256,204,87083,1,0,0:0:0:0:
256,204,87249,1,0,0:0:0:0:
256,204,87416,1,8,0:0:0:0:
256,204,87499,1,8,0:0:0:0:
256,204,87583,1,8,0:0:0:0:
272,212,87749,1,8,0:0:0:0:
272,212,87833,1,8,0:0:0:0:
272,212,87916,1,8,0:0:0:0:
272,216,88083,1,8,0:0:0:0:
272,216,88249,1,8,0:0:0:0:
272,216,88416,1,0,0:0:0:0:
272,212,88583,1,0,0:0:0:0:
272,212,88666,1,0,0:0:0:0:
272,212,88749,1,8,0:0:0:0:
268,224,88916,1,0,0:0:0:0:
268,224,89083,1,0,0:0:0:0:
268,224,89166,1,8,0:0:0:0:
268,224,89249,1,8,0:0:0:0:
264,224,89416,1,0,0:0:0:0:
264,224,89499,1,8,0:0:0:0:
264,224,89583,1,8,0:0:0:0:
272,232,89749,1,0,0:0:0:0:
272,232,89916,1,8,0:0:0:0:
272,232,89999,1,8,0:0:0:0:
272,232,90083,1,8,0:0:0:0:
272,232,90249,1,0,0:0:0:0:
272,232,90416,1,8,0:0:0:0:
272,232,90583,1,0,0:0:0:0:
268,224,90749,1,8,0:0:0:0:
268,224,90916,1,8,0:0:0:0:
256,220,91083,1,0,0:0:0:0:
256,220,91249,1,8,0:0:0:0:
256,220,91333,1,0,0:0:0:0:
256,220,91416,1,8,0:0:0:0:
248,232,91583,1,0,0:0:0:0:
256,220,91749,1,0,0:0:0:0:
256,220,91833,1,8,0:0:0:0:
256,220,91916,1,8,0:0:0:0:
256,232,92083,1,0,0:0:0:0:
256,232,92166,1,8,0:0:0:0:
256,232,92249,1,8,0:0:0:0:
240,224,92416,1,0,0:0:0:0:
240,224,92583,1,8,0:0:0:0:
240,224,92666,1,0,0:0:0:0:
240,224,92749,1,8,0:0:0:0:
240,224,92916,1,8,0:0:0:0:
240,224,92999,1,0,0:0:0:0:
240,224,93083,1,0,0:0:0:0:
248,224,93249,1,8,0:0:0:0:
248,224,93333,1,8,0:0:0:0:
248,224,93416,1,0,0:0:0:0:
248,224,93583,1,8,0:0:0:0:
248,224,93666,1,8,0:0:0:0:
248,224,93749,1,0,0:0:0:0:
256,212,93916,1,8,0:0:0:0:
256,212,94083,1,0,0:0:0:0:
248,232,94249,1,8,0:0:0:0:
248,232,94333,1,8,0:0:0:0:
248,232,94416,1,0,0:0:0:0:
248,232,94583,1,8,0:0:0:0:
248,232,94749,1,0,0:0:0:0:
252,228,94916,1,8,0:0:0:0:
248,224,94999,1,8,0:0:0:0:
248,224,95083,1,0,0:0:0:0:
248,224,95249,1,8,0:0:0:0:
248,224,95333,1,8,0:0:0:0:
248,224,95416,1,0,0:0:0:0:
248,224,95583,1,8,0:0:0:0:
252,228,95749,1,0,0:0:0:0:
252,228,95916,1,8,0:0:0:0:
252,228,96083,1,8,0:0:0:0:
248,224,96416,1,0,0:0:0:0:
248,232,96499,1,8,0:0:0:0:
248,232,96583,1,8,0:0:0:0:
248,224,96749,1,0,0:0:0:0:
256,224,96833,1,8,0:0:0:0:
256,224,96916,1,8,0:0:0:0:
256,224,97083,1,0,0:0:0:0:
248,224,97249,1,8,0:0:0:0:
248,224,97333,1,8,0:0:0:0:
248,224,97416,1,8,0:0:0:0:
252,228,97583,1,8,0:0:0:0:
252,228,97749,1,0,0:0:0:0:
252,228,97916,1,8,0:0:0:0:
248,224,97999,1,8,0:0:0:0:
248,224,98083,1,0,0:0:0:0:
248,224,98249,1,8,0:0:0:0:
248,224,98333,1,8,0:0:0:0:
248,224,98416,1,0,0:0:0:0:
248,200,98583,1,8,0:0:0:0:
248,200,98666,1,8,0:0:0:0:
248,200,98749,1,8,0:0:0:0:
248,200,98916,1,8,0:0:0:0:
256,220,99083,1,0,0:0:0:0:
256,220,99249,1,8,0:0:0:0:
256,220,99333,1,8,0:0:0:0:
256,220,99416,1,0,0:0:0:0:
256,220,99583,1,8,0:0:0:0:
256,220,99666,1,8,0:0:0:0:
256,220,99749,1,0,0:0:0:0:
256,220,99916,1,8,0:0:0:0:
256,220,99999,1,8,0:0:0:0:
256,220,100083,1,8,0:0:0:0:
256,220,100249,1,8,0:0:0:0:
256,220,100416,1,0,0:0:0:0:
244,220,100583,1,8,0:0:0:0:
244,220,100666,1,8,0:0:0:0:
244,220,100749,1,8,0:0:0:0:
244,220,100916,1,0,0:0:0:0:
244,220,100999,1,0,0:0:0:0:
244,220,101083,1,0,0:0:0:0:
244,220,101249,1,8,0:0:0:0:
244,220,101333,1,8,0:0:0:0:
244,220,101416,1,8,0:0:0:0:
244,220,101583,1,8,0:0:0:0:
228,224,101749,1,0,0:0:0:0:
228,224,101916,1,8,0:0:0:0:
228,224,102083,1,0,0:0:0:0:
228,224,102166,1,0,0:0:0:0:
228,224,102249,1,0,0:0:0:0:
224,228,102416,1,8,0:0:0:0:
224,228,102583,1,0,0:0:0:0:
224,228,102666,1,0,0:0:0:0:
224,228,102749,1,0,0:0:0:0:
224,228,102916,1,8,0:0:0:0:
224,228,103083,1,0,0:0:0:0:
232,228,103249,1,8,0:0:0:0:
232,228,103333,1,8,0:0:0:0:
232,228,103416,1,8,0:0:0:0:
232,228,103583,1,0,0:0:0:0:
232,228,103666,1,0,0:0:0:0:
232,228,103749,1,0,0:0:0:0:
212,204,103916,1,8,0:0:0:0:
236,220,103999,1,8,0:0:0:0:
228,216,104083,1,8,0:0:0:0:
228,216,104249,1,0,0:0:0:0:
228,224,104416,1,4,0:0:0:0:
232,216,104583,1,8,0:0:0:0:
232,216,104666,1,8,0:0:0:0:
232,216,104749,1,0,0:0:0:0:
232,216,104916,1,8,0:0:0:0:
232,216,104999,1,8,0:0:0:0:
232,216,105083,1,0,0:0:0:0:
232,216,105249,1,8,0:0:0:0:
232,216,105333,1,8,0:0:0:0:
232,216,105416,1,0,0:0:0:0:
224,220,105583,1,0,0:0:0:0:
224,220,105749,1,4,0:0:0:0:
232,220,106083,1,8,0:0:0:0:
232,220,106416,1,8,0:0:0:0:
232,220,106749,1,8,0:0:0:0:
228,224,107083,1,4,0:0:0:0:
240,220,117749,5,0,0:0:0:0:
