osu file format v5

[General]
AudioFilename: Night of Nights.mp3
AudioLeadIn: 1460
PreviewTime: -1
Countdown: 1
SampleSet: Normal
StackLeniency: 0.7
Mode: 0
LetterboxInBreaks: 1

[Metadata]
Title:Night of Nights - Touhou
Artist:Hanataba
Creator:cris_fox
Version:Normal
Source:Touhou
Tags:Night of Nights touhou sakuya scarlet devil mansion

[Difficulty]
HPDrainRate:5
CircleSize:5
OverallDifficulty:5
SliderMultiplier:1.4
SliderTickRate:1

[Events]
//Background and Video events
0,0,"BG01.jpg"
//Break Periods
2,42037,52637
2,59037,63303
2,75037,81970
//Storyboard Layer 0 (Background)
//Storyboard Layer 1 (Failing)
//Storyboard Layer 2 (Passing)
//Storyboard Layer 3 (Foreground)
//Storyboard Sound Samples
//Background Colour Transformations
3,100,0,0,0

[TimingPoints]
3170.53956337703,333.333333333333,4,1,0,100,1

[Colours]
Combo1 : 218,241,254
Combo2 : 45,48,162
Combo3 : 128,128,255
Combo4 : 66,138,53

[HitObjects]
256,192,511,1,4
256,32,3170,5,4
256,352,5837,5,4
256,192,7170,1,4
352,192,8503,5,4
160,192,9170,1,4
256,160,9837,1,4
256,224,10170,1,4
256,192,10503,5,10
256,192,10670,1,8
256,192,10837,1,12
256,192,11170,6,0,B|384:96,1,140
368,108,11837,2,0,B|384:256,1,140
383,247,12503,2,2,B|224:256,1,140
243,254,13170,2,0,B|128:160,1,140
134,165,13837,6,2,B|64:32,1,140
68,41,14503,2,0,B|32:192,1,140
35,177,15170,2,2,B|96:320,1,140
89,305,15837,2,0,B|256:288,1,140
228,290,16503,2,8,B|224:192|320:192,1,140
314,192,17170,2,0,B|416:192|416:96,1,140
405,98,17837,2,8,B|320:128|256:64,1,140
268,73,18503,2,0,B|128:96,1,140
256,192,19170,12,4,21164
96,288,21837,5,0
192,288,22170,2,0,B|192:192,2,70
288,288,22837,2,0,B|288:192,2,70
384,288,23503,1,0
480,288,23837,2,0,B|480:192,3,70
480,192,24503,5,0
352,192,24837,2,0,B|352:96,2,70
224,192,25503,2,0,B|224:96,2,70
96,192,26170,1,0
0,192,26503,2,0,B|0:96,3,70
0,96,27170,5,0
96,96,27503,2,0,B|96:0,2,70
192,96,28170,2,0,B|192:0,2,70
288,96,28837,1,0
384,96,29170,2,0,B|384:0,3,70
480,32,29837,1,0
480,256,30503,1,0
256,256,31170,1,0
128,256,31503,1,0
256,192,31837,12,0,32503
416,288,32837,5,8
416,288,33003,1,8
416,288,33170,1,8
416,160,33503,1,8
416,160,33670,1,8
416,160,33837,1,8
416,32,34170,1,12
320,32,34503,2,12,B|224:32,3,70
250,32,35170,5,2
256,128,35503,1,2
256,128,35670,1,2
256,128,35837,1,2
256,224,36170,1,2
256,224,36337,1,2
256,224,36503,1,2
256,320,36837,1,2
128,320,37170,2,4,B|128:224,3,70
128,250,37837,5,0
128,128,38170,1,0
128,128,38337,1,0
128,128,38503,1,0
224,128,38837,1,0
224,128,39003,1,0
224,128,39170,1,0
320,128,39503,1,0
416,128,39837,2,4,B|320:128,3,70
320,128,40503,5,4
256,288,41170,1,4
256,288,41503,1,4
256,288,41837,1,4
288,160,53170,5,0
384,96,53503,1,0
480,32,53837,2,4,B|480:96|480:160|480:224|480:320|480:352|448:352|384:352|320:352|256:352|192:352|32:352|32:320|32:256|32:192|32:128,1,840
32,64,56170,5,4
32,32,56503,2,4,B|32:96|32:160|32:224|32:288|32:352|64:352|128:352|192:352|256:352|384:352|448:352|480:352|480:288|480:128,1,840
480,64,58837,1,4
96,128,64503,6,0,B|256:128,3,140
236,128,65670,1,0
416,128,66170,2,4,B|416:224|320:224,2,140
416,224,67170,5,0
288,224,67503,2,0,B|128:224,2,140
288,224,68337,1,0
96,224,68837,1,4
96,96,69170,1,4
96,160,69503,1,4
96,160,69837,2,0,B|256:160,1,140
352,160,70503,2,0,B|192:160,1,140
212,160,71003,1,0
212,160,71503,2,4,B|224:256|320:256,2,140
256,192,72503,12,4,74503
256,192,74837,5,4
160,192,83170,5,0
352,192,83837,1,0
256,160,84503,1,0
256,224,84837,1,0
256,192,85170,1,0
256,192,85337,1,0
256,192,85503,1,0
96,96,85837,5,0
192,96,86170,2,0,B|192:192,2,70
288,96,86837,2,0,B|288:192,2,70
384,96,87503,1,0
480,96,87837,2,0,B|480:192,3,70
480,192,88503,5,0
352,192,88837,2,0,B|352:288,2,70
224,192,89503,2,0,B|224:288,2,70
96,192,90170,1,0
0,192,90503,2,0,B|0:288,3,70
0,288,91170,5,0
96,288,91503,2,0,B|96:384,2,70
192,288,92170,2,0,B|192:384,2,70
288,288,92837,1,0
384,288,93170,2,0,B|384:384,3,70
480,352,93837,1,0
480,128,94503,1,0
256,128,95170,1,0
128,128,95503,1,0
256,192,95837,12,0,96503
96,288,96837,5,8
96,288,97003,1,8
96,288,97170,1,8
96,160,97503,1,8
96,160,97670,1,8
96,160,97837,1,8
96,32,98170,1,12
192,32,98503,2,12,B|288:32,3,70
262,32,99170,5,2
256,128,99503,1,2
256,128,99670,1,2
256,128,99837,1,2
256,224,100170,1,2
256,224,100337,1,2
256,224,100503,1,2
256,320,100837,1,2
384,320,101170,2,4,B|384:224,3,70
384,250,101837,5,0
384,128,102170,1,0
384,128,102337,1,0
384,128,102503,1,0
288,128,102837,1,0
288,128,103003,1,0
288,128,103170,1,0
192,128,103503,1,0
96,128,103837,2,4,B|192:128,3,70
192,128,104503,5,4
256,288,105170,1,4
256,160,105503,1,4
256,32,105837,1,4
