osu file format v14

[General]
AudioFilename: short.mp3
AudioLeadIn: 1000
PreviewTime: 179
Countdown: 0
SampleSet: Soft
StackLeniency: 0.2
Mode: 0
LetterboxInBreaks: 0
WidescreenStoryboard: 1

[Editor]
Bookmarks: 15073,15707,16129
DistanceSpacing: 0.5
BeatDivisor: 4
GridSize: 32
TimelineZoom: 1.5

[Metadata]
Title:Harumachi Clover
TitleUnicode:春待ちクローバー
Artist:Hanasaka Yui(CV: M.A.O)
ArtistUnicode:花坂結衣(CV:M・A・O)
Creator:lit120
Version:Lasse's Insane
Source:OneRoom
Tags:tv size one_room カントク kantoku -hakurei- karia lasse sekai sekai-nyan sekaii
BeatmapID:1181061
BeatmapSetID:558217

[Difficulty]
HPDrainRate:7
CircleSize:5
OverallDifficulty:8
ApproachRate:8
SliderMultiplier:1.76
SliderTickRate:1

[Events]
//Background and Video events
0,0,"oneroom.png",0,0
//Break Periods
//Storyboard Layer 0 (Background)
//Storyboard Layer 1 (Fail)
//Storyboard Layer 2 (Pass)
//Storyboard Layer 3 (Foreground)
//Storyboard Sound Samples

[TimingPoints]
-349,422.535211267606,4,2,50,40,1,0
1341,-100,4,2,50,80,0,0
7045,-90.0900900900901,4,2,50,80,0,0
7679,-100,4,2,50,80,0,0
24791,-87.3362445414847,4,2,50,80,0,0
26481,-100,4,2,50,80,0,0
29651,-100,4,2,50,5,0,0

[Colours]
Combo1 : 215,130,102
Combo2 : 152,100,152
Combo3 : 211,196,77

[HitObjects]
79,191,284,5,0,0:0:0:0:
127,124,496,1,0,0:0:0:0:
205,148,707,1,0,0:0:0:0:
205,230,918,1,0,0:0:0:0:
127,254,1129,1,0,0:0:0:0:
205,148,1341,6,0,P|255:140|296:142,1,88,4|0,0:0|0:0,0:0:0:0:
127,254,1763,2,0,P|77:262|36:260,1,88,8|0,0:0|0:0,0:0:0:0:
257,319,2186,5,0,0:0:0:0:
205,230,2397,1,0,0:0:0:0:
240,52,2608,1,8,0:0:0:0:
292,141,2820,1,0,0:0:0:0:
257,319,3031,5,2,0:0:0:0:
205,230,3242,1,0,0:0:0:0:
360,320,3453,1,8,0:0:0:0:
412,231,3665,2,0,B|444:138|383:155|413:59,1,176,0|0,0:0|0:0,0:0:0:0:
476,36,4193,1,0,0:0:0:0:
493,33,4298,1,8,0:0:0:0:
340,14,4510,5,0,0:0:0:0:
494,114,4721,1,2,0:0:0:0:
502,212,4932,1,0,0:0:0:0:
332,112,5143,1,8,0:0:0:0:
340,14,5354,1,0,0:0:0:0:
324,210,5566,5,0,0:0:0:0:
332,112,5777,1,0,0:0:0:0:
316,308,5989,1,8,0:0:0:0:
324,210,6200,1,0,0:0:0:0:
510,310,6411,5,2,0:0:0:0:
502,212,6622,1,0,0:0:0:0:
486,16,6834,1,8,0:0:0:0:
494,115,7045,2,0,L|510:318,1,195.360004769531
494,115,7679,1,8,0:0:0:0:
324,210,7890,5,0,0:0:0:0:
309,220,7996,1,0,0:0:0:0:
290,222,8101,2,0,P|249:208|206:206,1,88,4|0,0:0|0:0,0:0:0:0:
0,278,8524,2,0,P|41:292|84:294,1,88,8|0,0:0|0:0,0:0:0:0:
290,222,8946,5,0,0:0:0:0:
226,135,9158,1,0,0:0:0:0:
30,179,9369,1,8,0:0:0:0:
7,284,9580,1,0,0:0:0:0:
7,284,9685,1,0,0:0:0:0:
7,284,9790,1,4,0:0:0:0:
171,331,10003,5,0,0:0:0:0:
128,157,10214,1,8,0:0:0:0:
106,73,10425,1,0,0:0:0:0:
150,244,10636,5,0,0:0:0:0:
215,135,10848,1,0,0:0:0:0:
414,57,11059,2,0,B|456:47|456:47|499:59,1,88,8|0,0:0|0:0,0:0:0:0:
494,131,11376,1,0,0:0:0:0:
495,148,11481,6,0,P|488:185|508:241,1,88,4|0,0:0|0:0,0:0:0:0:
301,197,11904,2,0,P|322:228|375:253,1,88,8|0,0:0|0:0,0:0:0:0:
198,368,12327,2,0,P|235:375|290:355,1,88,0|0,0:0|0:0,0:0:0:0:
389,166,12749,5,8,0:0:0:0:
365,251,12960,1,0,0:0:0:0:
198,368,13172,5,12,0:0:0:0:
166,254,13383,1,0,0:0:0:0:
102,26,13594,5,8,0:0:0:0:
134,140,13805,1,0,0:0:0:0:
198,368,14017,5,8,0:0:0:0:
302,256,14228,1,8,0:0:0:0:
285,249,14334,1,8,0:0:0:0:
312,192,14439,1,8,0:0:0:0:
294,196,14545,1,8,0:0:0:0:
287,134,14651,1,8,0:0:0:0:
274,145,14757,1,8,0:0:0:0:
228,100,14862,6,0,P|213:60|221:17,1,88,4|0,0:0|0:0,0:0:0:0:
355,136,15284,2,0,P|370:96|362:53,1,88,8|0,0:0|0:0,0:0:0:0:
212,199,15707,5,0,0:0:0:0:
228,100,15918,1,0,0:0:0:0:
302,256,16129,1,8,0:0:0:0:
286,355,16340,1,0,0:0:0:0:
477,311,16552,6,0,P|492:270|483:227,1,88,2|0,0:0|0:0,0:0:0:0:
361,52,16974,1,8,0:0:0:0:
228,100,17186,2,0,B|182:111|146:77|146:77|91:85|80:129,1,176,0|0,0:0|0:0,0:0:0:0:
57,192,17714,1,0,0:0:0:0:
54,208,17819,1,8,0:0:0:0:
193,311,18031,5,0,0:0:0:0:
196,295,18136,1,0,0:0:0:0:
199,279,18242,1,4,0:0:0:0:
213,189,18453,1,0,0:0:0:0:
241,9,18665,1,8,0:0:0:0:
227,99,18876,1,0,0:0:0:0:
199,279,19087,5,0,0:0:0:0:
213,189,19298,1,0,0:0:0:0:
241,9,19510,1,8,0:0:0:0:
227,99,19721,1,0,0:0:0:0:
199,279,19932,6,0,L|188:368,1,88,4|0,0:0|0:0,0:0:0:0:
213,189,20355,1,8,0:0:0:0:
227,99,20566,1,0,0:0:0:0:
230,96,20672,1,0,0:0:0:0:
233,93,20777,2,0,B|256:84|270:53|270:53|287:191,1,176,0|8,0:0|0:0,0:0:0:0:
142,212,21411,5,0,0:0:0:0:
196,25,21622,1,4,0:0:0:0:
169,118,21834,1,0,0:0:0:0:
115,305,22045,1,8,0:0:0:0:
260,269,22256,5,0,0:0:0:0:
260,269,22362,1,0,0:0:0:0:
260,269,22467,1,8,0:0:0:0:
287,176,22679,1,0,0:0:0:0:
233,362,22890,1,8,0:0:0:0:
260,269,23101,1,4,0:0:0:0:
260,269,23524,5,0,0:0:0:0:
314,83,23735,1,8,0:0:0:0:
403,32,23946,1,0,0:0:0:0:
490,184,24158,5,0,0:0:0:0:
491,83,24369,1,0,0:0:0:0:
402,233,24580,1,8,0:0:0:0:
403,32,24791,6,0,L|402:241,1,201.520004304932,4|0,0:0|0:0,0:0:0:0:
403,32,25425,1,8,0:0:0:0:
314,185,25636,1,0,0:0:0:0:
314,185,25742,1,0,0:0:0:0:
314,185,25848,1,0,0:0:0:0:
314,83,26059,1,0,0:0:0:0:
490,184,26270,1,8,0:0:0:0:
314,83,26481,6,0,L|211:75,1,88,4|0,0:0|0:0,0:0:0:0:
25,51,26904,1,0,0:0:0:0:
103,237,27115,1,8,0:0:0:0:
309,268,27327,5,8,0:0:0:0:
309,268,27432,1,8,0:0:0:0:
309,268,27538,1,8,0:0:0:0:
205,252,27749,1,0,0:0:0:0:
411,283,27960,5,8,0:0:0:0:
452,269,28066,1,8,0:0:0:0:
452,225,28171,1,8,0:0:0:0:
410,211,28277,1,8,0:0:0:0:
385,247,28383,1,4,0:0:0:0:
256,192,28489,12,0,30496,0:0:0:0:
