osu file format v14

[General]
AudioFilename: short.mp3
AudioLeadIn: 1000
PreviewTime: 179
Countdown: 0
SampleSet: Soft
StackLeniency: 0.5
Mode: 0
LetterboxInBreaks: 0
WidescreenStoryboard: 0

[Editor]
DistanceSpacing: 1
BeatDivisor: 4
GridSize: 32
TimelineZoom: 1.5

[Metadata]
Title:Harumachi Clover
TitleUnicode:春待ちクローバー
Artist:Hanasaka Yui(CV: M.A.O)
ArtistUnicode:花坂結衣(CV:M・A・O)
Creator:lit120
Version:Karia's Insane
Source:OneRoom
Tags:tv size one_room カントク kantoku -hakurei- karia lasse sekai sekai-nyan sekaii
BeatmapID:1180926
BeatmapSetID:558217

[Difficulty]
HPDrainRate:7
CircleSize:4
OverallDifficulty:8
ApproachRate:8
SliderMultiplier:1.7
SliderTickRate:1

[Events]
//Background and Video events
0,0,"oneroom.png",0,0
//Break Periods
//Storyboard Layer 0 (Background)
//Storyboard Layer 1 (Fail)
//Storyboard Layer 2 (Pass)
//Storyboard Layer 3 (Foreground)
//Storyboard Sound Samples

[TimingPoints]
-349,422.535211267606,4,2,50,40,1,0
1341,-100,4,2,50,80,0,0
29651,-100,4,2,50,5,0,0

[Colours]
Combo1 : 215,130,102
Combo2 : 152,100,152
Combo3 : 211,196,77

[HitObjects]
73,163,284,5,0,0:0:0:0:
55,79,496,2,0,P|65:121|73:163,1,85
54,245,918,2,0,P|62:204|73:162,1,85
229,98,1341,6,0,P|194:82|138:92,1,85,4|0,0:0|0:0,0:0:0:0:
280,188,1763,1,8,0:0:0:0:
322,47,1974,1,0,0:0:0:0:
187,180,2186,1,0,0:0:0:0:
357,127,2397,1,0,0:0:0:0:
187,180,2608,1,8,0:0:0:0:
363,240,2820,1,0,0:0:0:0:
363,240,2925,1,0,0:0:0:0:
363,240,3031,6,0,P|374:286|358:327,1,85
265,148,3453,2,0,P|272:189|277:231,1,85,8|0,0:0|0:0,0:0:0:0:
428,164,3876,2,0,P|384:145|341:153,1,85
189,227,4298,1,8,0:0:0:0:
222,43,4510,1,0,0:0:0:0:
173,221,4721,5,0,0:0:0:0:
119,69,4932,1,0,0:0:0:0:
173,221,5143,2,0,P|219:209|259:201,1,85,8|0,0:0|0:0,0:0:0:0:
67,186,5566,1,0,0:0:0:0:
210,291,5777,1,0,0:0:0:0:
58,328,5989,1,8,0:0:0:0:
169,169,6200,1,0,0:0:0:0:
277,342,6411,6,0,B|319:358|319:358|382:330,1,85
436,177,6834,2,0,B|394:161|394:161|331:189,1,85,8|0,0:0|0:0,0:0:0:0:
487,313,7256,2,0,P|497:260|503:228,1,85
327,272,7679,1,8,0:0:0:0:
393,84,7890,1,0,0:0:0:0:
393,84,7996,1,0,0:0:0:0:
393,84,8101,6,0,P|401:137|408:180,1,85,4|0,0:0|0:0,0:0:0:0:
511,16,8524,2,0,P|503:69|496:112,1,85,8|0,0:0|0:0,0:0:0:0:
328,180,8946,1,0,0:0:0:0:
285,29,9158,1,0,0:0:0:0:
336,184,9369,1,8,0:0:0:0:
390,16,9580,1,0,0:0:0:0:
216,99,9791,6,0,P|263:105|306:111,1,85,4|0,0:0|0:0,0:0:0:0:
155,231,10214,2,0,P|138:194|152:142,1,85,8|0,0:0|0:0,0:0:0:0:
275,285,10636,1,0,0:0:0:0:
336,116,10848,1,0,0:0:0:0:
263,290,11059,1,8,0:0:0:0:
439,208,11270,1,0,0:0:0:0:
439,208,11376,1,0,0:0:0:0:
439,208,11481,6,0,P|456:253|442:295,1,85,4|0,0:0|0:0,0:0:0:0:
278,205,11904,2,0,P|332:196|375:189,1,85,8|0,0:0|0:0,0:0:0:0:
426,48,12327,2,0,P|417:102|410:145,1,85
231,63,12749,1,8,0:0:0:0:
412,131,12960,1,0,0:0:0:0:
195,191,13172,5,12,0:0:0:0:
402,148,13383,1,0,0:0:0:0:
195,191,13594,5,8,0:0:0:0:
402,148,13805,1,0,0:0:0:0:
195,191,14017,5,8,0:0:0:0:
402,148,14228,2,0,L|395:200,1,42.5,8|8,0:0|0:0,0:0:0:0:
326,229,14439,2,0,L|333:281,1,42.5,8|8,0:0|0:0,0:0:0:0:
407,300,14651,2,0,L|400:352,1,42.5,8|8,0:0|0:0,0:0:0:0:
316,369,14862,6,0,P|274:363|221:357,1,85,4|0,0:0|0:0,0:0:0:0:
82,314,15284,2,0,P|124:308|177:302,1,85,8|0,0:0|0:0,0:0:0:0:
285,160,15707,1,0,0:0:0:0:
239,275,15918,1,0,0:0:0:0:
124,135,16129,1,8,0:0:0:0:
166,303,16341,1,0,0:0:0:0:
3,231,16552,6,0,P|45:224|94:217,1,85
243,110,16974,1,8,0:0:0:0:
178,259,17186,1,0,0:0:0:0:
130,71,17397,2,0,P|136:121|142:168,1,85
168,343,17820,2,0,L|173:301|178:259,1,85,8|0,0:0|0:0,0:0:0:0:
219,190,18136,1,0,0:0:0:0:
228,188,18242,6,0,P|281:182|331:177,1,85,4|0,0:0|0:0,0:0:0:0:
136,137,18665,2,0,P|93:132|51:127,1,85,8|0,0:0|0:0,0:0:0:0:
177,258,19087,1,0,0:0:0:0:
231,111,19298,1,0,0:0:0:0:
177,258,19510,1,8,0:0:0:0:
116,81,19721,1,0,0:0:0:0:
177,258,19932,6,0,P|221:251|269:244,1,85,4|0,0:0|0:0,0:0:0:0:
425,166,20355,1,8,0:0:0:0:
361,326,20566,1,0,0:0:0:0:
361,326,20672,1,0,0:0:0:0:
361,326,20777,1,0,0:0:0:0:
305,142,20989,1,0,0:0:0:0:
468,279,21200,1,8,0:0:0:0:
276,232,21411,1,0,0:0:0:0:
438,106,21622,6,0,P|430:160|422:208,1,85,4|0,0:0|0:0,0:0:0:0:
259,274,22045,1,8,0:0:0:0:
211,106,22256,1,0,0:0:0:0:
211,106,22362,1,0,0:0:0:0:
211,106,22467,1,8,0:0:0:0:
345,231,22679,1,0,0:0:0:0:
145,183,22890,1,8,0:0:0:0:
356,242,23101,6,0,P|303:247|179:259,1,170,4|0,0:0|0:0,0:0:0:0:
27,145,23735,1,8,0:0:0:0:
85,329,23946,1,0,0:0:0:0:
227,167,24158,1,0,0:0:0:0:
25,233,24369,1,0,0:0:0:0:
195,374,24580,1,8,0:0:0:0:
139,160,24791,6,0,B|106:189|106:189|116:327,1,170,4|0,0:0|0:0,0:0:0:0:
240,177,25425,1,8,0:0:0:0:
48,132,25636,1,0,0:0:0:0:
48,132,25742,1,0,0:0:0:0:
48,132,25848,1,0,0:0:0:0:
194,264,26059,1,0,0:0:0:0:
250,59,26270,1,8,0:0:0:0:
194,264,26481,6,0,B|160:179|160:179|191:96,1,170,4|0,0:0|0:0,0:0:0:0:
303,278,27115,1,8,0:0:0:0:
417,99,27327,1,8,0:0:0:0:
417,99,27432,1,8,0:0:0:0:
417,99,27538,1,8,0:0:0:0:
220,184,27749,1,0,0:0:0:0:
417,271,27960,5,8,0:0:0:0:
436,228,28066,1,8,0:0:0:0:
457,185,28172,1,8,0:0:0:0:
437,142,28277,1,8,0:0:0:0:
417,99,28383,1,4,0:0:0:0:
256,192,28489,12,0,30496,0:0:0:0:
