osu file format v14

[General]
AudioFilename: short.mp3
AudioLeadIn: 1000
PreviewTime: 179
Countdown: 0
SampleSet: Soft
StackLeniency: 0.4
Mode: 0
LetterboxInBreaks: 0
WidescreenStoryboard: 0

[Editor]
Bookmarks: 284,1341,8101,14862,21622,28383,30496
DistanceSpacing: 1.5
BeatDivisor: 4
GridSize: 16
TimelineZoom: 1.4

[Metadata]
Title:Harumachi Clover
TitleUnicode:春待ちクローバー
Artist:Hanasaka Yui(CV: M.A.O)
ArtistUnicode:花坂結衣(CV:M・A・O)
Creator:lit120
Version:Normal
Source:OneRoom
Tags:tv size one_room カントク kantoku -hakurei- karia lasse sekai sekai-nyan sekaii
BeatmapID:1180882
BeatmapSetID:558217

[Difficulty]
HPDrainRate:5
CircleSize:3
OverallDifficulty:5
ApproachRate:5
SliderMultiplier:1.1
SliderTickRate:1

[Events]
//Background and Video events
0,0,"oneroom.png",0,0
//Break Periods
//Storyboard Layer 0 (Background)
//Storyboard Layer 1 (Fail)
//Storyboard Layer 2 (Pass)
//Storyboard Layer 3 (Foreground)
//Storyboard Sound Samples

[TimingPoints]
-349,422.535211267606,4,2,1,40,1,0
707,-100,4,2,1,5,0,0
1341,-100,4,2,1,80,0,0
29651,-100,4,2,1,5,0,0

[Colours]
Combo1 : 215,130,102
Combo2 : 152,100,152
Combo3 : 211,196,77

[HitObjects]
185,168,284,6,0,P|296:188|221:273,1,275,0|6,0:0|0:0,0:0:0:0:
113,252,1763,5,8,0:0:0:0:
75,147,2186,2,0,P|30:176|4:224,1,110,2|8,0:0|0:0,0:0:0:0:
34,330,3031,1,2,0:0:0:0:
135,360,3453,1,8,0:0:0:0:
135,360,3665,2,0,L|247:356,1,110
299,353,4298,1,8,0:0:0:0:
408,341,4721,6,0,L|415:183,1,110,2|8,0:0|0:0,0:0:0:0:
469,135,5566,2,0,P|416:120|363:131,1,110,2|8,0:0|0:0,0:0:0:0:
303,224,6411,2,0,P|266:183|253:130,1,110,2|8,0:0|0:0,0:0:0:0:
278,81,7045,2,0,P|225:95|172:84,1,110
119,67,7679,1,8,0:0:0:0:
53,158,8101,6,0,P|58:212|39:263,1,110,6|8,0:0|0:0,0:0:0:0:
70,368,8946,2,0,P|114:335|167:327,1,110,2|8,0:0|0:0,0:0:0:0:
223,327,9580,1,0,0:0:0:0:
223,327,9791,6,0,P|276:335|320:367,1,110,6|8,0:0|0:0,0:0:0:0:
419,319,10636,2,0,L|420:181,1,110,2|8,0:0|0:0,0:0:0:0:
418,153,11270,1,0,0:0:0:0:
418,153,11481,6,0,P|364:163|310:152,1,110,6|8,0:0|0:0,0:0:0:0:
201,152,12327,2,0,P|147:163|94:153,1,110,2|8,0:0|0:0,0:0:0:0:
16,230,13172,5,12,0:0:0:0:
66,328,13594,1,12,0:0:0:0:
174,310,14017,1,8,0:0:0:0:
191,201,14439,1,8,0:0:0:0:
275,270,14862,6,0,P|297:219|294:165,1,110,6|8,0:0|0:0,0:0:0:0:
207,92,15707,2,0,P|252:59|306:52,1,110,2|8,0:0|0:0,0:0:0:0:
397,118,16552,1,2,0:0:0:0:
386,230,16974,1,8,0:0:0:0:
386,230,17186,2,0,L|349:337,1,110
311,373,17820,1,8,0:0:0:0:
214,322,18242,6,0,P|160:312|107:324,1,110,6|8,0:0|0:0,0:0:0:0:
52,230,19087,2,0,P|85:188|102:136,1,110,2|8,0:0|0:0,0:0:0:0:
213,136,19932,2,0,P|231:187|268:227,1,110,6|8,0:0|0:0,0:0:0:0:
322,218,20566,2,0,L|313:343,1,110,0|2,0:0|0:0,0:0:0:0:
310,381,21200,1,8,0:0:0:0:
409,334,21622,6,0,P|425:281|420:227,1,110,6|8,0:0|0:0,0:0:0:0:
337,154,22467,1,8,0:0:0:0:
252,225,22890,1,8,0:0:0:0:
252,225,23101,6,0,L|115:215,1,110,6|2,0:0|0:0,0:0:0:0:
88,206,23735,1,8,0:0:0:0:
68,97,24158,2,0,L|3:94,2,55,2|2|8,0:0|0:0|0:0,0:0:0:0:
107,58,24791,6,0,P|163:43|234:57,1,110,6|2,0:0|0:0,0:0:0:0:
265,71,25425,1,8,0:0:0:0:
337,154,25848,2,0,L|407:154,2,55,2|2|8,0:0|0:0|0:0,0:0:0:0:
313,203,26481,6,0,P|301:253|319:334,1,110,6|2,0:0|0:0,0:0:0:0:
318,364,27115,1,8,0:0:0:0:
318,364,27327,2,0,P|257:336|197:334,1,110,0|2,0:0|0:0,0:0:0:0:
160,334,27960,1,8,0:0:0:0:
90,248,28383,5,6,0:0:0:0:
256,192,28594,12,0,30496,0:0:0:0:
