osu file format v14

[General]
AudioFilename: short.mp3
AudioLeadIn: 1000
PreviewTime: 179
Countdown: 0
SampleSet: Soft
StackLeniency: 0.4
Mode: 0
LetterboxInBreaks: 0
WidescreenStoryboard: 0

[Editor]
Bookmarks: 284,1341,8101,14862,21622,28383,30496
DistanceSpacing: 1.5
BeatDivisor: 4
GridSize: 16
TimelineZoom: 1.5

[Metadata]
Title:Harumachi Clover
TitleUnicode:春待ちクローバー
Artist:Hanasaka Yui(CV: M.A.O)
ArtistUnicode:花坂結衣(CV:M・A・O)
Creator:lit120
Version:Hard
Source:OneRoom
Tags:tv size one_room カントク kantoku -hakurei- karia lasse sekai sekai-nyan sekaii
BeatmapID:1180881
BeatmapSetID:558217

[Difficulty]
HPDrainRate:6
CircleSize:3.5
OverallDifficulty:6.5
ApproachRate:7
SliderMultiplier:1.5
SliderTickRate:1

[Events]
//Background and Video events
0,0,"oneroom.png",0,0
//Break Periods
//Storyboard Layer 0 (Background)
//Storyboard Layer 1 (Fail)
//Storyboard Layer 2 (Pass)
//Storyboard Layer 3 (Foreground)
//Storyboard Sound Samples

[TimingPoints]
-349,422.535211267606,4,2,1,40,1,0
1341,-100,4,2,1,80,0,0
29651,-100,4,2,1,5,0,0

[Colours]
Combo1 : 215,130,102
Combo2 : 152,100,152
Combo3 : 211,196,77

[HitObjects]
83,163,284,5,0,0:0:0:0:
190,124,496,1,0,0:0:0:0:
102,51,708,1,0,0:0:0:0:
83,163,918,2,0,L|86:265,1,75
49,346,1341,6,0,P|86:351|122:344,1,75,6|0,0:0|0:0,0:0:0:0:
194,256,1763,2,0,P|230:249|267:254,1,75,8|0,0:0|0:0,0:0:0:0:
309,365,2186,2,0,P|272:372|236:367,1,75,2|0,0:0|0:0,0:0:0:0:
267,254,2608,1,8,0:0:0:0:
381,233,2820,1,0,0:0:0:0:
381,233,2925,1,0,0:0:0:0:
381,233,3031,6,0,P|403:202|416:167,2,75,2|0|8,0:0|0:0|0:0,0:0:0:0:
305,150,3665,2,0,P|231:151|174:198,1,150
171,311,4298,2,0,P|135:304|103:285,1,75,8|0,0:0|0:0,0:0:0:0:
63,180,4721,5,2,0:0:0:0:
134,92,4932,1,0,0:0:0:0:
174,198,5143,1,8,0:0:0:0:
245,110,5355,1,0,0:0:0:0:
286,216,5566,2,0,L|286:291,1,75,2|0,0:0|0:0,0:0:0:0:
174,273,5989,2,0,L|174:198,1,75,8|0,0:0|0:0,0:0:0:0:
245,110,6411,6,0,P|282:104|320:108,2,75,2|0|8,0:0|0:0|0:0,0:0:0:0:
286,216,7045,2,0,P|360:212|416:165,1,150
417,53,7679,1,8,0:0:0:0:
319,107,7890,1,0,0:0:0:0:
319,107,7996,1,0,0:0:0:0:
319,107,8101,6,0,P|282:113|245:109,1,75,6|0,0:0|0:0,0:0:0:0:
176,19,8524,2,0,P|138:14|101:20,1,75,8|0,0:0|0:0,0:0:0:0:
8,81,8946,2,0,P|3:119|9:156,1,75,2|0,0:0|0:0,0:0:0:0:
116,192,9369,1,8,0:0:0:0:
171,292,9580,1,0,0:0:0:0:
171,292,9686,1,0,0:0:0:0:
171,292,9791,6,0,P|220:236|226:163,1,150,6|8,0:0|0:0,0:0:0:0:
116,192,10425,1,0,0:0:0:0:
171,292,10636,2,0,P|207:300|244:297,2,75,2|0|8,0:0|0:0|0:0,0:0:0:0:
116,191,11270,1,0,0:0:0:0:
116,191,11376,1,0,0:0:0:0:
116,191,11481,6,0,P|67:246|62:320,1,150,6|8,0:0|0:0,0:0:0:0:
159,376,12115,1,0,0:0:0:0:
241,298,12327,2,0,P|278:291|316:292,1,75,2|0,0:0|0:0,0:0:0:0:
395,373,12749,2,0,P|414:342|426:306,1,75,8|0,0:0|0:0,0:0:0:0:
383,204,13172,5,12,0:0:0:0:
271,191,13383,1,2,0:0:0:0:
316,293,13594,1,12,0:0:0:0:
427,307,13805,1,2,0:0:0:0:
495,216,14017,2,0,P|491:179|478:144,1,75,8|8,0:0|0:0,0:0:0:0:
380,92,14439,2,8,L|390:55,3,37.5
321,83,14862,6,0,P|283:78|246:83,1,75,6|0,0:0|0:0,0:0:0:0:
134,105,15284,2,0,P|148:139|171:168,1,75,8|0,0:0|0:0,0:0:0:0:
248,257,15707,2,0,P|271:227|286:192,1,75,2|0,0:0|0:0,0:0:0:0:
247,83,16129,1,8,0:0:0:0:
172,169,16341,1,0,0:0:0:0:
286,193,16552,6,0,P|356:196|436:191,1,150,2|8,0:0|0:0,0:0:0:0:
396,78,17186,2,0,P|321:75|247:83,1,150
173,170,17820,1,8,0:0:0:0:
209,276,18031,1,0,0:0:0:0:
209,276,18136,1,0,0:0:0:0:
208,275,18242,6,0,P|172:281|135:276,1,75,6|0,0:0|0:0,0:0:0:0:
24,252,18665,2,0,P|37:217|59:188,1,75,8|0,0:0|0:0,0:0:0:0:
135,106,19087,2,0,P|158:135|173:170,1,75,2|0,0:0|0:0,0:0:0:0:
135,276,19510,1,8,0:0:0:0:
60,188,19721,1,0,0:0:0:0:
173,170,19932,6,0,P|248:164|323:171,1,150,6|8,0:0|0:0,0:0:0:0:
423,122,20566,1,0,0:0:0:0:
423,122,20672,1,8,0:0:0:0:
423,122,20777,2,0,P|433:157|432:195,1,75,2|0,0:0|0:0,0:0:0:0:
357,279,21200,1,8,0:0:0:0:
321,171,21411,1,0,0:0:0:0:
245,256,21622,6,0,P|245:293|254:329,2,75,6|0|8,0:0|0:0|0:0,0:0:0:0:
321,171,22256,1,0,0:0:0:0:
321,171,22362,1,8,0:0:0:0:
321,171,22467,2,0,P|321:133|312:97,2,75,8|2|8,0:0|0:0|0:0,0:0:0:0:
209,148,23101,6,0,P|150:194|132:265,1,150,6|2,0:0|0:0,0:0:0:0:
245,256,23735,1,8,0:0:0:0:
195,357,23946,1,2,0:0:0:0:
245,256,24158,2,0,P|282:256|318:265,2,75,2|2|8,0:0|0:0|0:0,0:0:0:0:
132,264,24791,6,0,P|66:231|35:164,1,150,6|2,0:0|0:0,0:0:0:0:
79,61,25425,1,8,0:0:0:0:
146,150,25636,1,0,0:0:0:0:
146,150,25742,1,0,0:0:0:0:
146,150,25848,2,0,P|183:159|220:156,2,75,2|2|8,0:0|0:0|0:0,0:0:0:0:
190,48,26481,6,0,P|264:53|318:103,1,150,6|2,0:0|0:0,0:0:0:0:
316,214,27115,1,8,0:0:0:0:
220,156,27327,1,0,0:0:0:0:
220,156,27432,1,8,0:0:0:0:
220,156,27538,1,2,0:0:0:0:
218,268,27749,1,2,0:0:0:0:
316,214,27960,2,8,L|336:256,3,37.5
343,284,28383,5,6,0:0:0:0:
256,192,28489,12,0,30496,0:0:0:0:
