osu file format v14

[General]
AudioFilename: for lolicon.mp3
AudioLeadIn: 0
PreviewTime: 179
Countdown: 0
SampleSet: Normal
StackLeniency: 0.7
Mode: 1
LetterboxInBreaks: 0
WidescreenStoryboard: 0

[Editor]
DistanceSpacing: 0.5
BeatDivisor: 4
GridSize: 32
TimelineZoom: 1.3

[Metadata]
Title:Harumachi Clover
TitleUnicode:春待ちクローバー
Artist:Hanasaka Yui(CV: M.A.O)
ArtistUnicode:花坂結衣(CV:M・A・O)
Creator:Xinely
Version:Oni
Source:OneRoom
Tags:TV Size One Room カントク Kantoku
BeatmapID:1200451
BeatmapSetID:566725

[Difficulty]
HPDrainRate:6
CircleSize:3
OverallDifficulty:6
ApproachRate:9
SliderMultiplier:1.4
SliderTickRate:1

[Events]
//Background and Video events
0,0,"lolinya.jpg",0,70
//Break Periods
//Storyboard Layer 0 (Background)
//Storyboard Layer 1 (Fail)
//Storyboard Layer 2 (Pass)
//Storyboard Layer 3 (Foreground)
//Storyboard Sound Samples

[TimingPoints]
-349,422.535211267606,4,1,0,100,1,0
28805,-100,4,1,0,80,0,0
29228,-100,4,1,0,70,0,0
29651,-100,4,1,0,50,0,0
30073,-100,4,1,0,30,0,0
30496,-100,4,1,0,10,0,0

[HitObjects]
160,192,284,5,0,0:0:0:0:
160,192,496,1,8,0:0:0:0:
160,192,707,1,8,0:0:0:0:
160,192,918,1,0,0:0:0:0:
160,192,1129,1,0,0:0:0:0:
160,192,1341,1,12,0:0:0:0:
160,192,1763,1,8,0:0:0:0:
160,192,1974,1,8,0:0:0:0:
160,192,2186,1,0,0:0:0:0:
160,192,2397,1,0,0:0:0:0:
160,192,2608,1,8,0:0:0:0:
160,192,2820,1,0,0:0:0:0:
160,192,2925,1,0,0:0:0:0:
160,192,3031,1,8,0:0:0:0:
160,192,3242,1,0,0:0:0:0:
160,192,3453,1,8,0:0:0:0:
160,192,3665,1,8,0:0:0:0:
160,192,4087,1,0,0:0:0:0:
160,192,4298,1,8,0:0:0:0:
160,192,4510,1,0,0:0:0:0:
160,192,4615,1,0,0:0:0:0:
160,192,4721,1,8,0:0:0:0:
160,192,4932,1,0,0:0:0:0:
160,192,5143,1,8,0:0:0:0:
160,192,5355,1,0,0:0:0:0:
160,192,5460,1,0,0:0:0:0:
160,192,5566,1,0,0:0:0:0:
160,192,5777,1,0,0:0:0:0:
160,192,5989,1,8,0:0:0:0:
160,192,6200,1,8,0:0:0:0:
160,192,6305,1,0,0:0:0:0:
160,192,6411,1,8,0:0:0:0:
160,192,6622,1,0,0:0:0:0:
160,192,6834,1,8,0:0:0:0:
160,192,7045,1,8,0:0:0:0:
160,192,7467,1,0,0:0:0:0:
160,192,7679,1,8,0:0:0:0:
160,192,7890,1,8,0:0:0:0:
160,192,7996,1,0,0:0:0:0:
160,192,8101,1,8,0:0:0:0:
160,192,8312,1,0,0:0:0:0:
160,192,8524,1,8,0:0:0:0:
160,192,8735,1,0,0:0:0:0:
160,192,8841,1,0,0:0:0:0:
160,192,8946,1,0,0:0:0:0:
160,192,9158,1,8,0:0:0:0:
160,192,9369,1,8,0:0:0:0:
160,192,9580,1,0,0:0:0:0:
160,192,9686,1,0,0:0:0:0:
160,192,9791,1,8,0:0:0:0:
160,192,10003,1,0,0:0:0:0:
160,192,10214,1,8,0:0:0:0:
160,192,10636,1,8,0:0:0:0:
160,192,10848,1,0,0:0:0:0:
160,192,11059,1,8,0:0:0:0:
160,192,11270,1,0,0:0:0:0:
160,192,11376,1,0,0:0:0:0:
160,192,11481,1,8,0:0:0:0:
160,192,11693,1,0,0:0:0:0:
160,192,11904,1,8,0:0:0:0:
160,192,12115,1,8,0:0:0:0:
160,192,12327,1,0,0:0:0:0:
160,192,12749,1,8,0:0:0:0:
160,192,12960,1,0,0:0:0:0:
160,192,13172,1,0,0:0:0:0:
160,192,13277,1,0,0:0:0:0:
160,192,13383,1,8,0:0:0:0:
160,192,13594,1,8,0:0:0:0:
160,192,13700,1,0,0:0:0:0:
160,192,13805,1,8,0:0:0:0:
160,192,14017,1,0,0:0:0:0:
160,192,14122,1,8,0:0:0:0:
160,192,14228,1,0,0:0:0:0:
160,192,14439,1,8,0:0:0:0:
160,192,14545,1,0,0:0:0:0:
160,192,14651,1,8,0:0:0:0:
160,192,14756,1,8,0:0:0:0:
160,192,14862,1,0,0:0:0:0:
160,192,15284,1,8,0:0:0:0:
160,192,15495,1,8,0:0:0:0:
160,192,15707,1,0,0:0:0:0:
160,192,15918,1,0,0:0:0:0:
160,192,16129,1,8,0:0:0:0:
160,192,16341,1,0,0:0:0:0:
160,192,16446,1,0,0:0:0:0:
160,192,16552,1,8,0:0:0:0:
160,192,16763,1,0,0:0:0:0:
160,192,16974,1,8,0:0:0:0:
160,192,17186,1,8,0:0:0:0:
160,192,17608,1,0,0:0:0:0:
160,192,17819,1,8,0:0:0:0:
160,192,18031,1,0,0:0:0:0:
160,192,18136,1,0,0:0:0:0:
160,192,18242,1,8,0:0:0:0:
160,192,18453,1,0,0:0:0:0:
160,192,18664,1,8,0:0:0:0:
160,192,18876,1,0,0:0:0:0:
160,192,18981,1,0,0:0:0:0:
160,192,19087,1,0,0:0:0:0:
160,192,19298,1,0,0:0:0:0:
160,192,19510,1,8,0:0:0:0:
160,192,19721,1,8,0:0:0:0:
160,192,19827,1,0,0:0:0:0:
160,192,19932,1,8,0:0:0:0:
160,192,20143,1,0,0:0:0:0:
160,192,20355,1,8,0:0:0:0:
160,192,20566,1,8,0:0:0:0:
160,192,20672,1,8,0:0:0:0:
160,192,20777,1,0,0:0:0:0:
160,192,20989,1,0,0:0:0:0:
160,192,21200,1,8,0:0:0:0:
160,192,21411,1,0,0:0:0:0:
160,192,21622,1,12,0:0:0:0:
160,192,22045,1,8,0:0:0:0:
160,192,22256,1,0,0:0:0:0:
160,192,22362,1,0,0:0:0:0:
160,192,22467,1,8,0:0:0:0:
160,192,22679,1,0,0:0:0:0:
160,192,22890,1,8,0:0:0:0:
160,192,23101,1,12,0:0:0:0:
160,192,23524,1,8,0:0:0:0:
160,192,23735,1,8,0:0:0:0:
160,192,23946,1,0,0:0:0:0:
160,192,24052,1,0,0:0:0:0:
160,192,24158,1,8,0:0:0:0:
160,192,24369,1,8,0:0:0:0:
160,192,24580,1,0,0:0:0:0:
160,192,24791,1,12,0:0:0:0:
160,192,25214,1,0,0:0:0:0:
160,192,25425,1,0,0:0:0:0:
160,192,25636,1,8,0:0:0:0:
160,192,25742,1,8,0:0:0:0:
160,192,25848,1,0,0:0:0:0:
160,192,26059,1,0,0:0:0:0:
160,192,26270,1,8,0:0:0:0:
160,192,26481,1,12,0:0:0:0:
160,192,26904,1,0,0:0:0:0:
160,192,27115,1,8,0:0:0:0:
160,192,27327,1,0,0:0:0:0:
160,192,27432,1,0,0:0:0:0:
160,192,27538,1,8,0:0:0:0:
160,192,27749,1,0,0:0:0:0:
160,192,27960,1,8,0:0:0:0:
160,192,28066,1,8,0:0:0:0:
160,192,28172,1,8,0:0:0:0:
160,192,28277,1,8,0:0:0:0:
160,192,28383,1,0,0:0:0:0:
256,192,28594,12,0,30496,0:0:0:0:
