osu file format v14

[General]
AudioFilename: Morning Glory.mp3
AudioLeadIn: 0
PreviewTime: 15587
Countdown: 0
SampleSet: Soft
StackLeniency: 0.7
Mode: 0
LetterboxInBreaks: 0
WidescreenStoryboard: 1

[Editor]
DistanceSpacing: 1
BeatDivisor: 4
GridSize: 4
TimelineZoom: 1

[Metadata]
Title:Aozora Morning Glory (TV Size)
TitleUnicode:青空モーニンググローリー (TV Size)
Artist:Hanasaka Yui (CV: M.A.O)
ArtistUnicode:花坂結衣(CV: M·A·O)
Creator:Lanturn
Version:Normal
Source:One Room セカンドシーズン
Tags:MAO Anime Opening Japanese OP Second Season OneRoom
BeatmapID:1898180
BeatmapSetID:909627

[Difficulty]
HPDrainRate:3
CircleSize:4
OverallDifficulty:4
ApproachRate:5
SliderMultiplier:1.4
SliderTickRate:1

[Events]
//Background and Video events
0,0,"No Idea.jpg",0,0
//Break Periods
//Storyboard Layer 0 (Background)
//Storyboard Layer 1 (Fail)
//Storyboard Layer 2 (Pass)
//Storyboard Layer 3 (Foreground)
//Storyboard Sound Samples

[TimingPoints]
43,434.782608695652,4,2,0,20,1,0
1783,434.782608695652,4,2,0,60,1,0
8739,-100,4,2,0,70,0,0
15696,-100,4,2,0,80,0,1
29609,-100,4,2,0,80,0,0
30913,-100,4,2,0,5,0,0

[Colours]
Combo1 : 128,128,255
Combo2 : 0,255,255
Combo3 : 128,128,192
Combo4 : 0,128,255

[HitObjects]
388,184,43,6,0,P|256:49|124:184,1,420,4|0,0:3|0:0,0:0:0:0:
188,308,1783,5,2,0:0:0:0:
324,308,2217,1,0,0:0:0:0:
324,308,2435,1,0,0:0:0:0:
404,192,2869,1,2,0:0:0:0:
324,76,3304,1,0,0:0:0:0:
256,196,3739,1,2,0:0:0:0:
188,76,4174,1,0,0:0:0:0:
108,192,4609,1,0,0:0:0:0:
256,196,5043,5,2,0:0:0:0:
346,291,5478,1,0,0:0:0:0:
304,332,5696,1,0,0:0:0:0:
256,304,5913,1,0,0:0:0:0:
208,332,6130,1,2,0:0:0:0:
166,291,6348,1,0,0:0:0:0:
196,156,6782,2,0,B|160:148|156:104|168:64|232:80|256:40|256:40|280:80|344:64|356:104|352:148|316:156,1,350,2|0,0:0|0:0,0:0:0:0:
408,304,8739,5,4,0:0:0:0:
404,192,9174,1,0,0:0:0:0:
404,192,9391,1,0,0:0:0:0:
316,120,9826,1,0,0:0:0:0:
316,120,10043,1,0,0:0:0:0:
316,120,10261,1,2,0:0:0:0:
196,120,10696,1,0,0:0:0:0:
196,120,10913,1,0,0:0:0:0:
196,120,11131,1,2,0:0:0:0:
108,192,11565,5,0,0:0:0:0:
108,192,11782,1,0,0:0:0:0:
108,192,12000,1,2,0:0:0:0:
196,264,12435,1,0,0:0:0:0:
196,264,12652,1,0,0:0:0:0:
196,264,12869,1,2,0:0:0:0:
316,264,13304,1,0,0:0:0:0:
316,264,13521,1,0,0:0:0:0:
316,264,13739,1,2,0:0:0:0:
404,192,14174,1,0,0:0:0:0:
404,192,14391,1,0,0:0:0:0:
404,192,14609,2,0,B|384:152|404:116|404:116|328:128|288:72,1,210,2|0,0:0|0:0,0:0:0:0:
152,44,15696,5,4,0:0:0:0:
53,142,16130,1,0,0:0:0:0:
53,142,16348,1,0,0:0:0:0:
56,280,16782,1,2,0:0:0:0:
176,204,17217,1,0,0:0:0:0:
176,344,17652,1,2,0:0:0:0:
300,280,18087,1,0,0:0:0:0:
300,140,18522,1,0,0:0:0:0:
424,204,18956,5,2,0:0:0:0:
424,64,19391,1,0,0:0:0:0:
372,40,19609,1,0,0:0:0:0:
316,28,19826,1,0,0:0:0:0:
260,40,20043,1,2,0:0:0:0:
208,64,20261,1,0,0:0:0:0:
68,80,20696,2,0,B|28:116|64:176|-1:192|-1:192|64:208|28:268|68:304,1,280,2|0,0:0|0:0,0:0:0:0:
200,352,22000,1,0,0:0:0:0:
244,316,22217,1,0,0:0:0:0:
284,276,22435,1,0,0:0:0:0:
328,240,22652,5,4,0:0:0:0:
324,100,23087,1,0,0:0:0:0:
324,100,23304,1,0,0:0:0:0:
188,100,23739,1,0,0:0:0:0:
188,100,23956,1,0,0:0:0:0:
188,100,24174,1,2,0:0:0:0:
188,240,24609,1,0,0:0:0:0:
188,240,24826,1,0,0:0:0:0:
188,240,25043,2,0,B|180:324|264:324|264:324|360:324,1,210,2|0,0:0|0:0,0:0:0:0:
468,264,26130,5,4,0:0:0:0:
468,120,26565,1,0,0:0:0:0:
360,32,27000,1,2,0:0:0:0:
256,124,27435,1,0,0:0:0:0:
152,32,27869,1,2,0:0:0:0:
44,120,28304,1,0,0:0:0:0:
44,264,28739,2,0,B|44:328|96:332|96:332|184:240,1,210,2|0,0:0|0:0,0:0:0:0:
256,192,29609,12,0,30913,0:0:0:0:
