osu file format v14

[General]
AudioFilename: Morning Glory.mp3
AudioLeadIn: 0
PreviewTime: 15587
Countdown: 0
SampleSet: Soft
StackLeniency: 0.7
Mode: 0
LetterboxInBreaks: 0
WidescreenStoryboard: 1

[Editor]
DistanceSpacing: 1
BeatDivisor: 4
GridSize: 4
TimelineZoom: 1

[Metadata]
Title:Aozora Morning Glory (TV Size)
TitleUnicode:青空モーニンググローリー (TV Size)
Artist:Hanasaka Yui (CV: M.A.O)
ArtistUnicode:花坂結衣(CV: M·A·O)
Creator:Lanturn
Version:Insane
Source:One Room セカンドシーズン
Tags:MAO Anime Opening Japanese OP Second Season OneRoom
BeatmapID:1898181
BeatmapSetID:909627

[Difficulty]
HPDrainRate:5.5
CircleSize:6
OverallDifficulty:7
ApproachRate:8
SliderMultiplier:2.6
SliderTickRate:1

[Events]
//Background and Video events
0,0,"No Idea.jpg",0,0
//Break Periods
//Storyboard Layer 0 (Background)
//Storyboard Layer 1 (Fail)
//Storyboard Layer 2 (Pass)
//Storyboard Layer 3 (Foreground)
//Storyboard Sound Samples

[TimingPoints]
43,434.782608695652,4,2,0,20,1,0
1783,434.782608695652,4,2,0,60,1,0
8739,-100,4,2,0,70,0,0
15696,-100,4,2,0,80,0,1
29609,-100,4,2,0,80,0,0
30913,-100,4,2,0,5,0,0

[Colours]
Combo1 : 128,128,255
Combo2 : 0,255,255
Combo3 : 128,128,192
Combo4 : 0,128,255

[HitObjects]
124,184,43,6,0,B|160:140|212:144|212:144|120:96|148:32|148:32|212:8|248:52|256:94|256:94|264:52|300:8|364:32|364:32|392:96|300:144|300:144|352:140|388:184,1,780,4|0,0:3|0:0,0:0:0:0:
112,320,1783,5,2,0:0:0:0:
400,320,2217,1,0,0:0:0:0:
112,320,2435,1,0,0:0:0:0:
112,320,2869,1,2,0:0:0:0:
400,320,3304,1,0,0:0:0:0:
256,64,3739,1,2,0:0:0:0:
400,320,4174,1,0,0:0:0:0:
112,320,4609,1,0,0:0:0:0:
256,64,5043,5,2,0:0:0:0:
255,305,5478,1,0,0:0:0:0:
189,100,5696,1,0,0:0:0:0:
363,227,5913,1,0,0:0:0:0:
148,227,6130,1,2,0:0:0:0:
322,100,6348,1,0,0:0:0:0:
192,172,6782,2,0,B|128:180|100:108|192:124|144:44|144:44|236:96|256:1|256:1|276:96|368:44|368:44|320:124|412:108|384:180|320:172,1,650,2|0,0:0|0:0,0:0:0:0:
256,340,8739,5,4,0:0:0:0:
256,44,9174,1,0,0:0:0:0:
256,340,9391,1,0,0:0:0:0:
396,112,9826,1,0,0:0:0:0:
256,192,10043,1,0,0:0:0:0:
116,112,10261,1,2,0:0:0:0:
396,272,10696,1,0,0:0:0:0:
256,192,10913,1,0,0:0:0:0:
116,272,11131,1,2,0:0:0:0:
96,28,11565,5,0,0:0:0:0:
256,88,11782,1,0,0:0:0:0:
416,148,12000,1,2,0:0:0:0:
96,356,12435,1,0,0:0:0:0:
256,296,12652,1,0,0:0:0:0:
416,236,12870,1,2,0:0:0:0:
96,28,13304,1,0,0:0:0:0:
256,88,13521,1,0,0:0:0:0:
416,148,13739,1,2,0:0:0:0:
96,356,14174,1,0,0:0:0:0:
256,296,14391,1,0,0:0:0:0:
416,236,14609,2,0,B|420:292|476:284|476:284|464:240|515:193|515:193|464:144|476:100|476:100|420:92|416:148,1,390,2|0,0:0|0:0,0:0:0:0:
256,324,15696,5,4,0:0:0:0:
256,60,16130,1,0,0:0:0:0:
256,324,16348,1,0,0:0:0:0:
256,324,16782,1,2,0:0:0:0:
400,68,17217,1,0,0:0:0:0:
256,324,17652,1,2,0:0:0:0:
112,68,18087,1,0,0:0:0:0:
400,68,18522,1,0,0:0:0:0:
256,324,18956,5,2,0:0:0:0:
256,48,19391,1,0,0:0:0:0:
424,192,19609,1,0,0:0:0:0:
256,336,19826,1,0,0:0:0:0:
88,192,20043,1,2,0:0:0:0:
256,48,20261,1,0,0:0:0:0:
192,124,20696,2,0,B|192:152|232:184|232:184|196:164|152:212|184:272|256:293|256:293|328:272|360:212|316:164|280:184|280:184|320:152|320:124,1,520,2|0,0:0|0:0,0:0:0:0:
168,304,22000,1,0,0:0:0:0:
256,128,22217,1,0,0:0:0:0:
344,304,22435,1,0,0:0:0:0:
256,48,22652,5,4,0:0:0:0:
256,336,23087,1,0,0:0:0:0:
256,48,23304,1,0,0:0:0:0:
132,192,23739,1,0,0:0:0:0:
256,336,23956,1,0,0:0:0:0:
380,192,24174,1,2,0:0:0:0:
380,192,24609,1,0,0:0:0:0:
256,336,24826,1,0,0:0:0:0:
132,192,25043,2,0,B|132:128|188:88|216:152|216:152|256:104|296:152|296:152|324:88|380:128|380:192,1,390,2|0,0:0|0:0,0:0:0:0:
100,328,26130,5,4,0:0:0:0:
440,240,26565,1,0,0:0:0:0:
100,328,27000,1,2,0:0:0:0:
199,8,27435,1,0,0:0:0:0:
440,240,27869,1,2,0:0:0:0:
199,8,28304,1,0,0:0:0:0:
124,272,28739,2,0,B|196:276|168:336|224:340|224:340|252:328|256:285|256:285|260:328|288:340|288:340|344:336|316:276|388:272,1,390,2|0,0:0|0:0,0:0:0:0:
256,192,29609,12,0,30913,0:0:0:0:
