osu file format v5

[General]
AudioFilename: Garnet.mp3
AudioLeadIn: 0
PreviewTime: -1
Countdown: 0
SampleSet: Soft
StackLeniency: 0.7
Mode: 0
LetterboxInBreaks: 1

[Metadata]
Title:Garnet
Artist:Hanako Oku
Creator:Magmabear
Version:Hard
Source:The Girl Who Leapt Through Time
Tags:

[Difficulty]
HPDrainRate:6
CircleSize:5
OverallDifficulty:6
SliderMultiplier:1
SliderTickRate:1

[Events]
//Background and Video events
0,0,"girl who leapt through time edited.jpg"
//Break Periods
//Storyboard Layer 0 (Background)
//Storyboard Layer 1 (Failing)
//Storyboard Layer 2 (Passing)
//Storyboard Layer 3 (Foreground)
//Storyboard Sound Samples
//Background Colour Transformations
3,100,163,162,255

[TimingPoints]
13166,409.668168783285,4,2,0,100,1
65705,409.668168783285,4,2,0,100,1

[HitObjects]
360,88,13165,5,0
320,88,13370,1,0
240,88,13780,2,0,B|152:112|184:216,1,150
288,192,14804,5,0
288,232,15009,1,0
288,312,15419,2,0,B|240:312|216:288|232:264|264:232|240:208|200:200,1,150
216,128,16443,5,0
216,88,16648,1,0
296,88,17057,1,0
376,88,17467,2,0,B|384:168|328:184,1,100
312,200,18082,2,0,B|264:192|240:184,1,50
224,184,18491,1,0
224,224,18696,1,0
64,48,19925,5,0
64,128,20335,2,0,B|64:184|64:200,1,50
184,184,21052,1,0
184,184,21256,1,0
264,184,21666,1,0
264,184,21871,2,0,B|248:144|208:144|192:88|224:88|232:96,1,100
136,112,22690,6,0,B|136:160|160:176,2,50
56,112,23510,1,0
56,112,23714,2,0,B|152:40|160:80,1,100
288,176,24534,1,0
288,176,24943,1,0
248,168,25148,2,0,B|200:136|128:208|128:272|144:312,1,200
176,296,26172,5,0
176,336,26377,2,0,B|240:352|264:328|264:288,1,100
264,272,26992,1,0
248,112,27811,2,0,B|272:144|272:168,1,50
224,216,28426,2,0,B|288:216,1,50
112,216,29347,5,0
112,216,29552,2,0,B|112:160|144:136|168:128|176:136,1,100
240,136,30372,2,0,B|336:120|312:192,1,100
352,168,30986,2,0,B|424:112|384:72,1,100
392,48,31601,1,0
88,192,32932,6,0,B|112:216|160:224|192:216,1,100
224,216,33546,1,0
368,216,34161,1,0
368,216,34366,2,0,B|320:224|296:224|280:216|264:208|256:184|256:144,1,150
296,176,35185,1,0
136,104,35800,5,0
136,144,36005,1,0
136,104,36209,1,0
200,152,36619,1,0
200,192,36824,1,0
280,192,37234,2,0,B|352:192,1,50
392,112,41535,5,0
392,112,41739,1,0
352,112,41944,2,0,B|312:112|280:128|272:144|264:176,1,100
272,200,42559,2,0,B|272:248|248:264|224:264|200:264|168:248|152:232,1,150
163,241,43276,5,0
163,241,43379,2,0,B|128:224|120:200|136:168|176:160,1,100
158,165,43891,1,0
158,165,43993,6,0,B|152:128|192:96|216:104,1,75
312,56,44812,5,0
352,56,45017,2,0,B|424:56,1,50
400,136,45632,1,0
360,136,45837,2,0,B|360:280,1,125
88,296,46861,5,0
400,296,47270,1,0
256,56,47680,1,0
224,192,48090,6,0,B|288:192,2,50
144,192,48909,1,0
144,192,49114,2,0,B|104:192|88:184|80:160|72:128|72:96,1,125
72,110,49728,1,0
72,110,49831,6,0,B|72:136|80:160|88:184|104:192|136:192,1,100
117,190,50343,1,0
117,190,50445,6,0,B|152:184|168:160|176:136|176:112,1,100
216,192,51265,5,0
216,192,51469,1,0
216,192,51674,2,0,B|224:232|240:248|264:256|296:248,1,100
283,250,52186,1,0
283,250,52289,6,0,B|280:128,1,100
176,160,53313,1,0
96,160,53620,6,0,B|96:224,2,50
96,256,54440,1,0
96,256,54644,2,0,B|104:296|128:312|152:312|168:304,1,100
208,304,55259,5,0
248,304,55464,2,0,B|320:304|352:304,1,100
384,304,56078,1,0
304,304,56488,1,0
256,232,56898,5,0
256,192,57102,1,0
216,192,57307,2,0,B|184:184|152:160|144:144|144:128,1,100
144,130,57819,1,0
144,130,57922,6,0,B|144:88|168:80|192:72|232:80,1,100
212,77,58434,1,0
212,77,58536,6,0,B|248:80|264:56|296:48|336:40|352:64|376:72|376:104|384:152|384:184|400:208|432:224|456:240|472:288|464:312|448:328|424:352|400:360|368:360|336:360|312:336|280:304|256:256|224:232|168:216|128:224|112:232|96:264|88:288|80:320|48:328|24:304|16:272|16:240|16:200|24:168|40:128|48:128,1,950
256,192,62531,12,0,64784
256,192,65705,5,4
256,72,66114,5,0
192,72,66319,1,0
192,128,66524,1,0
192,64,66729,1,0
128,72,66934,1,0
184,72,67138,1,0
