osu file format v12

[General]
AudioFilename: kamisama.mp3
AudioLeadIn: 0
PreviewTime: 50891
Countdown: 0
SampleSet: Soft
StackLeniency: 0.7
Mode: 0
LetterboxInBreaks: 0

[Editor]
DistanceSpacing: 1
BeatDivisor: 4
GridSize: 4

[Metadata]
Title:Kamisama Hajimemashita (TV Size)
TitleUnicode:神様はじめました (TV Size)
Artist:Hanae
ArtistUnicode:ハナエ
Creator:Raose
Version:Normal
Source:Kamisama Hajimemashita
Tags:viz nanami tomoe opening couple
BeatmapID:231180
BeatmapSetID:80659

[Difficulty]
HPDrainRate:4
CircleSize:3
OverallDifficulty:4
ApproachRate:5
SliderMultiplier:1.4
SliderTickRate:2

[Events]
//Background and Video events
0,0,"BG.jpg",0,0
Video,0,"blah.avi"
//Break Periods
//Storyboard Layer 0 (Background)
//Storyboard Layer 1 (Fail)
//Storyboard Layer 2 (Pass)
//Storyboard Layer 3 (Foreground)
//Storyboard Sound Samples
//Background Colour Transformations
3,100,163,162,255

[TimingPoints]
5686.12519844,410.958904109589,4,2,2,40,1,0
22124,-100,4,2,2,45,0,0
35275,-133.333333333333,4,2,0,50,0,0
35480,-100,4,2,1,50,0,0
36097,-100,4,2,1,50,0,0
36919,-133.333333333333,4,2,1,50,0,0
37946,-100,4,2,2,45,0,0
51713,-100,4,2,2,60,0,1
64864,-100,4,2,2,60,0,1
78014,-100,4,2,2,60,0,0
79247,-100,4,2,2,50,0,0
79864,-100,4,2,2,42,0,0
80480,-100,4,2,0,35,0,0
80891,-100,4,2,0,5,0,0
81302,-133.333333333333,4,2,0,30,0,0
84282,-100,4,2,0,30,0,0
84590,-133.333333333333,4,2,0,15,0,0
85103,-100,4,2,0,10,0,0
85617,-100,4,2,0,5,0,0

[Colours]
Combo1 : 140,215,255
Combo2 : 149,248,120
Combo3 : 255,187,119
Combo4 : 220,173,252

[HitObjects]
128,192,5686,6,0,P|152:132|240:112,1,140,4|2,0:0|0:0,0:0:0:0:
360,112,6508,1,0,0:0:0:0:
464,204,6919,1,2,0:0:0:0:
400,312,7329,2,0,P|368:332|312:340,1,70
268,328,7740,2,0,P|216:308|184:232,1,140,2|0,0:0|0:0,0:0:0:0:
44,232,8562,1,2,0:0:0:0:
116,116,8973,6,0,P|160:84|256:100,1,140,0|2,0:0|0:0,0:0:0:0:
288,144,9590,1,0,0:0:0:0:
308,212,9795,2,0,L|392:184,2,70,0|0|2,0:0|0:0|0:0,0:0:0:0:
172,244,10617,1,0,0:0:0:0:
116,116,11028,2,0,L|20:144,2,70,2|0|0,0:0|0:0|0:0,0:0:0:0:
172,244,11850,1,2,0:0:0:0:
308,212,12261,6,0,P|364:248|464:240,1,140,4|2,0:0|0:0,0:0:0:0:
476,116,13083,2,0,P|420:80|320:88,1,140,0|2,0:0|0:0,0:0:0:0:
216,68,13905,1,0,0:0:0:0:
88,124,14316,1,2,0:0:0:0:
132,256,14727,1,0,0:0:0:0:
260,200,15138,2,0,P|308:220|325:221,1,70,2|0,0:0|0:0,0:0:0:0:
340,288,15549,6,0,P|364:224|436:188,2,140,0|2|0,0:0|0:0|0:0,0:0:0:0:
212,344,16782,1,2,0:0:0:0:
124,240,17192,2,0,L|212:199,2,70,2|0|2,0:0|0:0|0:0,0:0:0:0:
108,101,18014,2,0,L|44:128,2,70,2|0|2,0:0|0:0|0:0,0:0:0:0:
174,84,18631,1,0,0:0:0:0:
236,116,18836,6,0,P|248:172|320:240,1,140,4|2,0:0|0:0,0:0:0:0:
164,228,19658,2,0,P|128:268|96:288,2,70,2|0|10,0:0|0:0|0:0,0:0:0:0:
248,340,20480,2,0,P|300:356|392:312,2,140,10|2|0,0:0|0:0|0:0,0:0:0:0:
300,208,21713,2,0,L|268:56,1,140,0|4,0:0|0:0,0:0:0:0:
136,36,22535,5,8,0:0:0:0:
176,168,22946,2,0,P|112:188|64:248,1,140,2|8,0:0|0:0,0:0:0:0:
200,288,23768,2,0,B|276:272|312:208|312:208|356:260|460:272,1,280,2|2,0:0|0:0,0:0:0:0:
436,128,25001,2,0,L|428:40,1,70,8|0,0:0|0:0,0:0:0:0:
360,56,25412,6,0,P|276:72|208:48,1,140,2|8,0:0|0:0,0:0:0:0:
156,44,26028,1,0,0:0:0:0:
88,64,26234,2,0,L|16:4,2,70,2|0|8,0:0|0:0|0:0,0:0:0:0:
136,196,27055,1,2,0:0:0:0:
244,104,27466,2,0,P|288:128|340:128,1,70,8|0,0:0|0:0,0:0:0:0:
360,84,27877,2,0,P|320:168|316:232,1,140,2|8,0:0|0:0,0:0:0:0:
296,280,28494,1,0,0:0:0:0:
232,304,28699,6,0,L|92:304,1,140,6|8,0:0|0:0,0:0:0:0:
92,164,29521,2,0,P|172:128|184:80,1,140,2|8,0:0|0:0,0:0:0:0:
240,40,30138,1,0,0:0:0:0:
304,68,30343,2,0,L|448:80,2,140,2|8|2,0:0|0:0|0:0,0:0:0:0:
344,204,31576,1,8,0:0:0:0:
344,204,31782,1,0,0:0:0:0:
304,260,31987,6,0,P|236:244|184:184,1,140,2|8,0:0|0:0,0:0:0:0:
132,152,32603,1,0,0:0:0:0:
64,160,32809,2,0,P|60:220|60:252,2,70,2|0|8,0:0|0:0|0:0,0:0:0:0:
160,56,33631,2,0,P|240:76|316:60,1,140,2|8,0:0|0:0,0:0:0:0:
420,128,34453,2,0,L|452:212,1,70,2|0,0:0|0:0,0:0:0:0:
376,196,34864,2,0,L|404:272,1,70,8|0,0:0|0:0,0:0:0:0:
352,304,35275,6,0,B|264:344|212:276|212:276|160:296,1,210.000008010865,4|12,0:0|0:0,0:0:0:0:
196,88,36713,1,0,0:0:0:0:
248,96,36919,2,0,B|332:68|384:132|384:132|464:108,1,210.000008010865,0|12,0:0|0:0,0:0:0:0:
384,244,38151,2,0,P|352:312|296:348,1,140,0|2,0:0|0:0,0:0:0:0:
260,212,38973,5,0,0:0:0:0:
132,152,39384,2,0,P|60:144|8:188,1,140,8|2,0:0|0:0,0:0:0:0:
104,288,40206,2,0,P|116:328|144:356,2,70,0|0|2,0:0|0:0|0:0,0:0:0:0:
240,248,41028,2,0,P|228:210|208:190,2,70,8|0|2,0:0|0:0|0:0,0:0:0:0:
260,108,41850,6,0,P|348:96|400:136,1,140,10|0,0:0|0:0,0:0:0:0:
432,176,42466,2,0,P|428:256|380:308,1,140,8|0,0:0|0:0,0:0:0:0:
180,312,43494,2,0,P|120:263|106:174,1,140,8|0,0:0|0:0,0:0:0:0:
32,208,44110,2,0,P|89:170|126:110,1,140,8|0,0:0|0:0,0:0:0:0:
136,40,44727,1,0,0:0:0:0:
220,152,45138,6,0,P|220:224|260:296,1,140,10|0,0:0|0:0,0:0:0:0:
312,312,45754,1,8,0:0:0:0:
368,272,45960,2,0,P|376:240|368:184,2,70
236,224,46782,1,10,0:0:0:0:
128,316,47192,1,0,0:0:0:0:
64,192,47603,2,0,B|40:124|104:112|56:48,2,140,0|0|10,0:0|0:0|0:0,0:0:0:0:
200,152,48836,5,0,0:0:0:0:
200,152,49042,1,8,0:0:0:0:
316,228,49453,2,0,L|316:328,2,70,0|8|0,0:0|0:0|0:0,0:0:0:0:
256,192,50069,12,4,51713,0:0:0:0:
296,116,52124,5,0,0:0:0:0:
172,52,52535,1,0,0:0:0:0:
76,156,52946,2,0,L|92:240,1,70,8|0,0:0|0:0,0:0:0:0:
108,292,53357,2,0,P|164:268|256:296,1,140,2|8,0:0|0:0,0:0:0:0:
292,236,53973,1,0,0:0:0:0:
344,188,54179,2,0,P|419:203|475:179,1,140,0|8,0:0|0:0,0:0:0:0:
396,64,55001,6,0,L|256:71,2,140,2|8|0,0:0|0:0|0:0,0:0:0:0:
465,186,56234,1,8,0:0:0:0:
333,234,56645,2,0,P|277:286|189:286,1,140,2|8,0:0|0:0,0:0:0:0:
163,164,57466,2,0,P|219:112|307:112,1,140,0|8,0:0|0:0,0:0:0:0:
333,234,58288,5,2,0:0:0:0:
466,184,58699,1,8,0:0:0:0:
466,184,59110,2,0,L|464:96,2,70,0|0|8,0:0|0:0|0:0,0:0:0:0:
352,100,59932,2,0,P|284:116|228:164,1,140,2|8,0:0|0:0,0:0:0:0:
204,224,60549,1,0,0:0:0:0:
168,284,60754,2,0,P|136:224|64:200,1,140,2|8,0:0|0:0,0:0:0:0:
160,92,61576,5,2,0:0:0:0:
288,152,61987,2,0,P|324:200|424:216,2,140,8|0|8,0:0|0:0|0:0,0:0:0:0:
412,84,63220,2,0,P|445:84|508:88,2,70,2|0|8,0:0|0:0|0:0,0:0:0:0:
344,68,63836,1,0,0:0:0:0:
280,92,64042,2,0,P|288:144|296:180,1,70,8|8,0:0|0:0,0:0:0:0:
224,184,64453,2,0,P|232:236|240:276,1,70,8|8,0:0|0:0,0:0:0:0:
184,304,64864,6,0,P|112:300|36:320,1,140,6|8,0:0|0:0,0:0:0:0:
56,176,65686,2,0,L|48:88,2,70,0|0|8,0:0|0:0|0:0,0:0:0:0:
192,148,66508,2,0,P|260:128|300:60,2,140,2|8|0,0:0|0:0|0:0,0:0:0:0:
172,8,67740,1,8,0:0:0:0:
192,148,68151,6,0,P|192:224|240:300,1,140,2|8,0:0|0:0,0:0:0:0:
328,192,68973,1,0,0:0:0:0:
440,280,69384,1,8,0:0:0:0:
460,140,69795,2,0,P|448:84|444:72,1,70,2|0,0:0|0:0,0:0:0:0:
424,4,70206,1,8,0:0:0:0:
312,88,70617,2,0,L|220:68,2,70,0|0|8,0:0|0:0|0:0,0:0:0:0:
184,144,71439,6,0,P|160:216|192:288,1,140,2|8,0:0|0:0,0:0:0:0:
232,324,72055,1,0,0:0:0:0:
300,328,72261,2,0,L|352:328|464:328,1,140,0|8,0:0|0:0,0:0:0:0:
452,188,73083,2,0,B|396:152|396:92|396:92|324:84|296:124,1,210,2|0,0:0|0:0,0:0:0:0:
272,48,73905,2,0,L|228:272,1,210,2|0,0:0|0:0,0:0:0:0:
200,316,74727,6,0,P|156:248|84:228,1,140,2|8,0:0|0:0,0:0:0:0:
140,92,75549,1,0,0:0:0:0:
140,92,75960,1,8,0:0:0:0:
272,48,76371,2,0,L|424:52,1,140,2|8,0:0|0:0,0:0:0:0:
428,120,76987,1,0,0:0:0:0:
420,188,77192,2,0,P|400:240|368:264,1,70,0|0,0:0|0:0,0:0:0:0:
332,288,77603,1,8,0:0:0:0:
280,160,78014,6,0,P|168:100|112:148,1,210,4|4,0:0|0:0,0:0:0:0:
256,192,79247,12,0,80891,0:0:0:0:
196,287,81302,6,0,P|276:243|309:134,1,210.000008010865
256,48,82535,1,0,0:0:0:0:
203,134,82946,2,0,P|236:243|316:287,1,210.000008010865
424,264,84179,1,0,0:0:0:0:
256,192,84590,12,0,86645,0:0:0:0:
