osu file format v13

[General]
AudioFilename: 06 Summer time music.mp3
AudioLeadIn: 2000
PreviewTime: 59939
Countdown: 0
SampleSet: Soft
StackLeniency: 0.7
Mode: 0
LetterboxInBreaks: 0
WidescreenStoryboard: 0

[Editor]
DistanceSpacing: 1.2
BeatDivisor: 4
GridSize: 8
TimelineZoom: 1.6

[Metadata]
Title:Summer time music
TitleUnicode:Summer time music
Artist:Hana(Usa) & X-Plorez
ArtistUnicode:はな(うさ)& X-Plorez
Creator:Frostmourne
Version:Hard
Source:
Tags:C78 pixelbee ピクセルビー lolcubes panoram a note 夏 natsu パノラマノート
BeatmapID:365513
BeatmapSetID:136862

[Difficulty]
HPDrainRate:5
CircleSize:4
OverallDifficulty:6
ApproachRate:7
SliderMultiplier:1.3
SliderTickRate:1

[Events]
//Background and Video events
0,0,"bg.jpg",0,0
//Break Periods
2,86685,95585
2,172503,174312
2,188503,191767
2,201393,209221
//Storyboard Layer 0 (Background)
//Storyboard Layer 1 (Fail)
//Storyboard Layer 2 (Pass)
//Storyboard Layer 3 (Foreground)
//Storyboard Sound Samples
//Background Colour Transformations
3,100,163,162,255

[TimingPoints]
667,363.636363636364,4,2,1,70,1,0
12303,-100,4,2,1,50,0,0
35576,-142.857142857143,4,2,1,30,0,0
47213,-100,4,2,1,70,0,0
60303,-100,4,2,1,90,0,1
83576,-100,4,2,1,80,0,1
86485,-100,4,2,1,70,0,0
98122,-100,4,2,1,50,0,0
103940,-100,4,2,1,70,0,0
121394,-142.857142857143,4,2,1,30,0,0
133031,-100,4,2,1,70,0,0
146122,-100,4,2,1,90,0,1
169394,-100,4,2,1,80,0,1
172303,-100,4,2,1,45,0,0
175213,-100,4,2,1,70,0,0
188303,-100,4,2,1,50,0,0
194122,-100,4,2,1,70,0,0
201394,-100,4,2,1,50,0,0
210122,-100,4,2,2,70,0,0
213031,-100,4,2,1,90,0,1
236303,-100,4,2,1,80,0,1
239213,-100,4,2,1,70,0,0

[Colours]
Combo1 : 255,255,119
Combo2 : 216,163,252
Combo3 : 160,221,106
Combo4 : 255,186,117

[HitObjects]
394,311,121,6,0,P|395:335|401:366,2,32.5,2|2|8,0:0|0:0|0:0,0:0:0:0:
432,128,667,6,0,P|373:108|296:112,1,130,6|8,0:0|0:0,0:0:0:0:
132,221,1394,2,0,P|153:189|163:146,1,65,8|0,0:0|0:0,0:0:0:0:
135,89,1757,2,0,L|51:83,2,65,8|0|8,0:0|0:0|0:0,0:0:0:0:
212,100,2303,1,0,0:0:0:0:
276,144,2485,2,0,P|322:154|361:150,2,65,8|0|8,0:0|0:0|0:0,0:0:0:0:
212,100,3030,1,0,0:0:0:0:
135,89,3212,2,0,P|63:95|8:136,1,130,8|8,0:0|0:0,0:0:0:0:
190,323,3939,6,0,L|320:309,2,130,8|8|8,0:0|0:0|0:0,0:0:0:0:
114,342,4848,2,0,P|104:309|97:263,1,65,0|8,0:0|0:0,0:0:0:0:
170,248,5212,2,0,P|180:215|187:169,1,65,0|8,0:0|0:0,0:0:0:0:
259,211,5576,2,0,P|269:178|276:132,2,65,0|8|0,0:0|0:0|0:0,0:0:0:0:
332,239,6121,2,0,P|345:302|343:368,1,130,8|6,0:0|0:0,0:0:0:0:
114,342,6848,6,0,P|101:311|95:277,1,65,8|0,0:0|0:0,0:0:0:0:
17,269,7212,2,0,L|41:125,1,130,8|8,0:0|0:0,0:0:0:0:
111,167,7757,2,0,P|116:116|111:92,1,65,0|8,0:0|0:0,0:0:0:0:
192,102,8121,2,0,P|182:51|171:29,1,65,0|8,0:0|0:0,0:0:0:0:
260,144,8485,2,0,P|288:100|296:77,1,65,0|8,0:0|0:0,0:0:0:0:
356,152,8848,1,0,0:0:0:0:
356,152,9030,2,0,P|377:80|358:26,1,130,8|8,0:0|0:0,0:0:0:0:
256,252,9757,6,0,P|290:221|324:216,1,65,8|0,0:0|0:0,0:0:0:0:
376,256,10121,2,0,P|342:287|308:292,1,65,8|0,0:0|0:0,0:0:0:0:
260,336,10485,1,8,0:0:0:0:
180,336,10667,2,0,L|84:336,1,65,0|8,0:0|0:0,0:0:0:0:
36,344,11030,2,0,L|8:268,1,65,0|8,0:0|0:0,0:0:0:0:
88,264,11394,2,0,L|100:192,2,65,8|0|8,0:0|0:0|0:0,0:0:0:0:
164,252,11939,2,0,P|224:232|300:240,1,130,8|6,0:0|0:0,0:0:0:0:
248,88,12667,5,8,0:0:0:0:
272,280,13030,2,0,P|296:216|288:136,1,130,2|8,0:0|0:0,0:0:0:0:
216,164,13576,2,0,L|64:164,1,130,2|2,0:0|0:0,0:0:0:0:
21,119,14121,1,8,0:0:0:0:
91,82,14303,1,0,0:0:0:0:
91,82,14485,2,0,P|136:80|169:66,1,65,2|2,0:0|0:0,0:0:0:0:
221,31,14848,1,8,0:0:0:0:
376,48,15212,6,0,B|385:115|385:115|368:184,1,130,2|8,0:0|0:0,0:0:0:0:
292,180,15757,2,0,B|283:247|283:247|300:316,1,130,2|2,0:0|0:0,0:0:0:0:
376,324,16303,1,8,0:0:0:0:
447,292,16485,2,0,P|452:334|439:368,1,65,0|2,0:0|0:0,0:0:0:0:
376,324,16848,5,2,0:0:0:0:
380,244,17030,1,8,0:0:0:0:
256,336,17394,2,0,L|208:336,2,32.5,2|8|2,0:0|0:0|0:0,0:0:0:0:
284,264,17757,1,8,0:0:0:0:
136,316,18121,5,2,0:0:0:0:
136,316,18303,1,2,0:0:0:0:
64,344,18485,2,0,P|48:288|48:216,1,130,8|2,0:0|0:0,0:0:0:0:
72,140,19030,1,2,0:0:0:0:
72,140,19212,1,8,0:0:0:0:
140,176,19394,2,0,P|176:160|208:124,1,65,0|2,0:0|0:0,0:0:0:0:
272,128,19757,5,2,0:0:0:0:
272,128,19939,2,0,L|280:212,1,65,8|0,0:0|0:0,0:0:0:0:
356,204,20303,2,0,L|368:48,1,130,2|8,0:0|0:0,0:0:0:0:
444,80,20848,2,0,L|432:236,1,130,2|2,0:0|0:0,0:0:0:0:
396,280,21394,2,0,P|328:301|264:280,1,130,8|2,0:0|0:0,0:0:0:0:
212,236,21939,1,2,0:0:0:0:
136,260,22121,2,0,L|120:181,1,65,8|0,0:0|0:0,0:0:0:0:
98,122,22485,5,12,0:0:0:0:
136,52,22667,1,12,0:0:0:0:
340,88,23030,2,0,P|276:96|200:84,1,130,8|8,0:0|0:0,0:0:0:0:
136,52,23576,2,0,P|104:42|60:50,1,65,12|8,0:0|0:0,0:0:0:0:
98,122,23939,1,6,0:0:0:0:
299,241,24303,6,0,L|446:229,2,130,8|2|8,0:0|0:0|0:0,0:0:0:0:
223,220,25212,2,0,P|217:269|220:305,1,65,0|2,0:0|0:0,0:0:0:0:
141,300,25576,2,0,P|164:343|188:370,1,65,2|8,0:0|0:0,0:0:0:0:
252,357,25939,1,0,0:0:0:0:
319,317,26121,2,0,P|384:309|461:334,1,130,2|8,0:0|0:0,0:0:0:0:
341,208,26848,6,0,P|336:143|365:80,1,130,2|8,0:0|0:0,0:0:0:0:
436,104,27394,2,0,L|436:176,1,65,0|2,0:0|0:0,0:0:0:0:
418,244,27757,2,0,L|418:316,1,65,2|8,0:0|0:0,0:0:0:0:
340,321,28121,2,0,P|309:315|268:321,1,65,0|2,0:0|0:0,0:0:0:0:
199,333,28485,1,2,0:0:0:0:
127,302,28667,1,8,0:0:0:0:
44,169,29030,6,0,P|46:145|52:113,2,32.5,2|8|2,0:0|0:0|0:0,0:0:0:0:
121,162,29394,2,0,P|124:199|108:241,2,65,8|0|6,0:0|0:0|0:0,0:0:0:0:
64,313,30121,5,8,0:0:0:0:
64,313,30303,2,0,P|95:303|139:303,1,65,0|2,0:0|0:0,0:0:0:0:
199,333,30667,1,2,0:0:0:0:
280,360,30848,1,8,0:0:0:0:
280,360,31030,2,0,P|308:288|288:224,1,130
217,240,31576,6,0,L|86:228,1,130,8|2,0:0|0:0,0:0:0:0:
27,177,32121,2,0,P|23:94|40:51,1,130,2|0,0:0|0:0,0:0:0:0:
116,66,32667,2,0,L|179:50,1,65,6|0,0:0|0:0,0:0:0:0:
220,117,33030,6,0,P|264:135|366:114,1,130,8|2,0:0|0:0,0:0:0:0:
399,181,33576,2,0,L|420:251,1,65,2|8,0:0|0:0,0:0:0:0:
211,334,34121,5,12,0:0:0:0:
211,334,34303,2,0,P|242:314|280:304,1,65,0|8,0:0|0:0,0:0:0:0:
283,219,34667,1,8,0:0:0:0:
283,219,34848,2,0,L|349:257,2,65,8|8|8,0:0|0:0|0:0,0:0:0:0:
205,229,35394,1,8,0:0:0:0:
132,200,35576,6,0,P|126:155|140:99,1,90.9999972229005,6|2,0:0|0:0,0:0:0:0:
205,229,36303,2,0,P|211:274|197:330,2,90.9999972229005,2|8|2,0:0|0:0|0:0,0:0:0:0:
297,116,37394,2,0,P|342:110|398:124,2,90.9999972229005,2|2|2,0:0|0:0|0:0,0:0:0:0:
156,159,38485,6,0,P|109:163|58:143,1,90.9999972229005,2|2,0:0|0:0,0:0:0:0:
62,76,39030,2,0,L|174:76,1,90.9999972229005
217,111,39576,1,8,0:0:0:0:
279,150,39757,2,0,P|287:125|289:97,1,45.4999986114502,0|2,0:0|0:0,0:0:0:0:
307,249,40303,6,0,P|343:272|400:275,1,90.9999972229005,2|2,0:0|0:0,0:0:0:0:
459,251,40848,1,8,0:0:0:0:
497,189,41030,1,2,0:0:0:0:
455,48,41394,6,0,P|331:28|182:95,1,272.999991668701,2|8,0:0|0:0,0:0:0:0:
55,116,42848,2,0,L|67:206,1,90.9999972229005,2|2,0:0|0:0,0:0:0:0:
209,175,43576,2,0,L|221:265,1,90.9999972229005,2|2,0:0|0:0,0:0:0:0:
361,225,44303,2,0,L|373:315,1,90.9999972229005,2|2,0:0|0:0,0:0:0:0:
300,323,44848,2,0,L|288:233,1,90.9999972229005,0|0,0:0|0:0,0:0:0:0:
314,164,45394,1,8,0:0:0:0:
216,288,45757,6,0,P|140:288|44:244,1,181.999994445801,2|8,0:0|0:0,0:0:0:0:
74,93,46848,2,0,L|91:188,1,90.9999972229005,8|6,0:0|0:0,0:0:0:0:
168,184,47394,6,0,L|160:144,2,32.5,0|0|2,0:0|0:0|0:0,0:0:0:0:
239,150,47757,2,0,L|231:110,2,32.5,0|0|2,0:0|0:0|0:0,0:0:0:0:
310,118,48121,2,0,L|302:78,2,32.5,0|0|8,0:0|0:0|0:0,0:0:0:0:
382,87,48485,2,0,L|374:47,2,32.5,0|0|2,0:0|0:0|0:0,0:0:0:0:
445,323,49030,6,0,P|454:291|448:231,1,65,2|0,0:0|0:0,0:0:0:0:
378,275,49394,2,0,P|346:266|286:272,1,65,2|8,0:0|0:0,0:0:0:0:
241,293,49757,1,2,0:0:0:0:
171,258,49939,1,8,0:0:0:0:
116,314,50121,6,0,P|79:309|27:289,1,65,2|0,0:0|0:0,0:0:0:0:
29,226,50485,2,0,P|33:189|54:137,1,65,2|0,0:0|0:0,0:0:0:0:
101,110,50848,2,0,P|137:114|190:135,1,65,2|0,0:0|0:0,0:0:0:0:
232,172,51212,1,8,0:0:0:0:
232,172,51394,2,0,L|309:142,1,65,0|2,0:0|0:0,0:0:0:0:
366,314,51939,6,0,P|316:351|245:345,1,130,2|2,0:0|0:0,0:0:0:0:
209,281,52485,1,8,0:0:0:0:
158,221,52667,2,0,P|133:261|158:342,1,130,2|6,0:0|0:0,0:0:0:0:
65,341,53212,5,0,0:0:0:0:
44,266,53394,1,8,0:0:0:0:
44,266,53576,2,0,P|36:195|51:115,1,130,6|2,0:0|0:0,0:0:0:0:
116,107,54121,1,8,0:0:0:0:
116,107,54303,2,0,P|124:178|109:258,1,130,6|2,0:0|0:0,0:0:0:0:
203,286,54848,1,8,0:0:0:0:
203,286,55030,2,0,P|195:215|210:135,1,130,6|2,0:0|0:0,0:0:0:0:
240,88,55576,2,0,P|276:81|311:89,2,65,8|8|6,0:0|0:0|0:0,0:0:0:0:
293,234,56303,6,0,P|357:235|413:192,1,130,8|2,0:0|0:0,0:0:0:0:
487,194,56848,1,2,0:0:0:0:
488,115,57030,1,8,0:0:0:0:
409,115,57212,1,6,0:0:0:0:
241,294,57576,6,0,L|152:305,2,65,8|8|8,0:0|0:0|0:0,0:0:0:0:
293,234,58121,2,0,B|315:139|315:139|285:42,1,195,8|12,0:0|0:0,0:0:0:0:
208,184,59030,2,0,B|144:184|144:184|88:144,1,130,8|8,0:0|0:0,0:0:0:0:
42,82,59576,2,0,P|14:140|40:208,1,130,8|8,0:0|0:0,0:0:0:0:
256,328,60303,6,0,B|256:288|256:288|272:248|272:248|272:184,1,130,6|8,0:0|0:0,0:0:0:0:
263,123,60848,1,0,0:0:0:0:
263,123,61030,1,2,0:0:0:0:
198,166,61212,2,0,P|151:168|117:162,1,65,2|8,0:0|0:0,0:0:0:0:
123,88,61576,1,0,0:0:0:0:
196,62,61757,6,0,P|238:41|334:57,1,130,2|8,0:0|0:0,0:0:0:0:
392,72,62303,2,0,L|368:208,1,130,2|2,0:0|0:0,0:0:0:0:
445,219,62848,2,0,L|461:139,1,65,8|0,0:0|0:0,0:0:0:0:
302,143,63212,6,0,P|290:205|320:282,1,130,2|8,0:0|0:0,0:0:0:0:
217,244,63757,2,0,P|237:303|302:355,1,130,2|2,0:0|0:0,0:0:0:0:
285,347,64303,1,8,0:0:0:0:
362,334,64485,1,6,0:0:0:0:
140,262,64848,6,0,P|139:227|151:199,1,65,2|8,0:0|0:0,0:0:0:0:
219,162,65212,2,0,P|283:178|367:186,1,130,6|8,0:0|0:0,0:0:0:0:
424,184,65757,1,8,0:0:0:0:
483,133,65939,2,0,P|453:110|412:109,1,65,0|6,0:0|0:0,0:0:0:0:
202,73,66485,5,8,0:0:0:0:
202,73,66667,2,0,L|57:89,2,130,2|2|0,0:0|0:0|0:0,0:0:0:0:
277,91,67576,1,2,0:0:0:0:
342,131,67757,2,0,P|353:97|348:55,1,65,2|8,0:0|0:0,0:0:0:0:
437,56,68121,2,0,P|426:114|437:197,1,130,6|2,0:0|0:0,0:0:0:0:
505,214,68667,1,8,0:0:0:0:
505,214,68848,1,2,0:0:0:0:
466,281,69030,6,0,P|403:301|331:293,1,130,6|8,0:0|0:0,0:0:0:0:
269,264,69576,2,0,L|241:130,1,130,2|2,0:0|0:0,0:0:0:0:
182,86,70121,2,0,P|163:129|166:152,1,65,8|2,0:0|0:0,0:0:0:0:
163,287,70485,2,0,P|182:244|179:221,1,65,8|2,0:0|0:0,0:0:0:0:
60,110,70848,6,0,P|119:82|192:89,1,130,8|8,0:0|0:0,0:0:0:0:
264,112,71394,1,2,0:0:0:0:
341,107,71576,1,8,0:0:0:0:
299,40,71757,1,8,0:0:0:0:
264,112,71939,6,0,P|256:169|283:252,1,130,6|8,0:0|0:0,0:0:0:0:
247,312,72485,2,0,L|159:312,1,65,0|2,0:0|0:0,0:0:0:0:
113,274,72848,1,2,0:0:0:0:
161,211,73030,1,8,0:0:0:0:
161,211,73212,1,0,0:0:0:0:
239,208,73394,6,0,P|249:167|244:126,1,65,2|0,0:0|0:0,0:0:0:0:
193,89,73757,1,8,0:0:0:0:
193,89,73939,2,0,P|130:72|64:87,1,130,2|2,0:0|0:0,0:0:0:0:
76,162,74485,2,0,P|81:203|71:231,2,65,8|0|2,0:0|0:0|0:0,0:0:0:0:
122,350,75212,5,8,0:0:0:0:
122,350,75394,2,0,P|174:308|252:303,1,130,2|2,0:0|0:0,0:0:0:0:
269,229,75939,1,8,0:0:0:0:
269,229,76121,2,0,L|116:203,1,130,6|2,0:0|0:0,0:0:0:0:
76,162,76667,1,8,0:0:0:0:
76,162,76848,2,0,P|56:223|68:295,1,130,6|8,0:0|0:0,0:0:0:0:
142,287,77394,2,0,L|225:300,1,65,8|0,0:0|0:0,0:0:0:0:
278,147,77757,6,0,L|125:121,1,130,6|8,0:0|0:0,0:0:0:0:
84,81,78303,2,0,P|110:56|150:45,1,65,2|0,0:0|0:0,0:0:0:0:
216,58,78667,2,0,L|296:71,1,65,2|8,0:0|0:0,0:0:0:0:
354,37,79030,2,0,P|360:69|351:100,1,65,0|2,0:0|0:0,0:0:0:0:
294,153,79394,1,2,0:0:0:0:
220,179,79576,1,8,0:0:0:0:
220,179,79757,2,0,P|192:232|200:304,1,130,6|2,0:0|0:0,0:0:0:0:
239,366,80303,2,0,L|316:370,1,65,8|2,0:0|0:0,0:0:0:0:
382,369,80667,6,0,P|449:337|496:273,1,130,6|8,0:0|0:0,0:0:0:0:
448,228,81212,2,0,L|468:84,1,130,2|2,0:0|0:0,0:0:0:0:
388,88,81757,1,8,0:0:0:0:
388,88,81939,1,2,0:0:0:0:
332,144,82121,6,0,L|324:235,1,65,8|2,0:0|0:0,0:0:0:0:
255,177,82485,2,0,L|247:268,1,65,8|2,0:0|0:0,0:0:0:0:
178,209,82848,1,8,0:0:0:0:
178,209,83030,2,0,L|170:300,1,65,2|8,0:0|0:0,0:0:0:0:
219,336,83394,1,8,0:0:0:0:
256,192,83576,12,8,84667,0:0:0:0:
256,192,85030,12,6,86485,0:0:0:0:
256,192,96485,12,6,98121,0:0:0:0:
128,284,98485,6,0,L|112:192,1,65
196,224,98848,2,0,L|180:132,1,65,0|0,0:0|0:0,0:0:0:0:
268,172,99212,1,0,0:0:0:0:
268,172,99394,2,0,P|288:106|272:36,2,130
272,252,100303,2,0,P|252:318|268:388,2,130
348,228,101212,5,0,0:0:0:0:
424,252,101394,1,0,0:0:0:0:
496,220,101576,2,0,P|508:156|496:88,2,130
424,252,102485,1,0,0:0:0:0:
348,228,102667,1,0,0:0:0:0:
112,288,103030,6,0,L|24:256,2,65
164,228,103576,2,0,L|252:196,2,65,0|0|6,0:0|0:0|0:0,0:0:0:0:
284,268,104303,6,0,P|308:196|288:136,2,130,2|2|2,0:0|0:0|0:0,0:0:0:0:
284,268,105212,1,0,0:0:0:0:
216,308,105394,2,0,L|144:308,1,65,2|0,0:0|0:0,0:0:0:0:
76,280,105757,2,0,L|4:280,2,65,8|8|8,0:0|0:0|0:0,0:0:0:0:
84,204,106303,2,0,L|12:204,2,65,8|8|2,0:0|0:0|0:0,0:0:0:0:
160,216,106848,6,0,P|172:182|168:139,1,65,8|0,0:0|0:0,0:0:0:0:
232,100,107212,2,0,P|202:79|159:72,1,65,8|0,0:0|0:0,0:0:0:0:
100,96,107576,2,0,P|70:116|27:123,1,65,8|0,0:0|0:0,0:0:0:0:
24,200,107939,2,0,P|44:229|51:272,1,65,8|2,0:0|0:0,0:0:0:0:
124,296,108303,5,6,0:0:0:0:
124,296,108485,2,0,P|155:245|153:173,2,130,6|8|2,0:0|0:0|0:0,0:0:0:0:
193,332,109394,2,0,L|245:288,1,65,8|8,0:0|0:0,0:0:0:0:
283,224,109757,6,0,P|342:236|402:275,2,130,6|8|2,0:0|0:0|0:0,0:0:0:0:
204,216,110667,1,2,0:0:0:0:
168,148,110848,2,0,P|160:76|188:8,1,130,8|2,0:0|0:0,0:0:0:0:
264,24,111394,1,2,0:0:0:0:
264,24,111576,2,0,P|272:96|244:164,1,130,8|2,0:0|0:0,0:0:0:0:
204,216,112121,1,2,0:0:0:0:
204,216,112303,2,0,L|216:304,1,65,8|0,0:0|0:0,0:0:0:0:
276,328,112667,6,0,P|305:266|292:192,1,130,2|8,0:0|0:0,0:0:0:0:
376,192,113212,2,0,L|388:264,1,65,0|2,0:0|0:0,0:0:0:0:
460,236,113576,2,0,L|472:308,1,65,2|8,0:0|0:0,0:0:0:0:
460,236,113939,2,0,L|480:152,1,65,0|2,0:0|0:0,0:0:0:0:
420,120,114303,5,2,0:0:0:0:
420,120,114485,2,0,P|360:92|288:92,1,130,8|2,0:0|0:0,0:0:0:0:
220,100,115030,1,2,0:0:0:0:
157,146,115212,1,8,0:0:0:0:
232,180,115394,1,0,0:0:0:0:
232,180,115576,2,0,L|204:324,1,130,6|8,0:0|0:0,0:0:0:0:
128,312,116121,6,0,L|141:245,1,65,0|2,0:0|0:0,0:0:0:0:
64,236,116485,1,2,0:0:0:0:
64,236,116667,1,8,0:0:0:0:
8,180,116848,2,0,P|38:160|92:164,1,65,0|2,0:0|0:0,0:0:0:0:
144,164,117212,5,2,0:0:0:0:
220,144,117394,2,0,L|360:144,1,130,8|2,0:0|0:0,0:0:0:0:
424,184,117939,1,2,0:0:0:0:
424,184,118121,2,0,P|432:248|412:324,2,130,8|6|8,0:0|0:0|0:0,0:0:0:0:
240,48,119212,6,0,L|164:48,2,65,2|2|8,0:0|0:0|0:0,0:0:0:0:
240,48,119757,1,0,0:0:0:0:
314,97,119939,1,12,0:0:0:0:
314,97,120121,2,0,L|282:249,1,130,8|8,0:0|0:0,0:0:0:0:
268,300,120667,2,0,L|196:300,2,65,8|8|8,0:0|0:0|0:0,0:0:0:0:
344,284,121212,1,8,0:0:0:0:
412,324,121394,6,0,P|441:289|460:234,1,90.9999972229005,6|2,0:0|0:0,0:0:0:0:
328,168,122121,2,0,P|322:123|336:67,2,90.9999972229005,2|8|2,0:0|0:0|0:0,0:0:0:0:
215,268,123212,2,0,P|170:274|114:260,2,90.9999972229005,2|2|2,0:0|0:0|0:0,0:0:0:0:
356,225,124303,6,0,P|403:221|454:241,1,90.9999972229005,2|2,0:0|0:0,0:0:0:0:
450,308,124848,2,0,L|338:308,1,90.9999972229005
295,273,125394,1,8,0:0:0:0:
233,234,125576,2,0,P|225:259|223:287,1,45.4999986114502,0|2,0:0|0:0,0:0:0:0:
205,135,126121,6,0,P|169:112|112:109,1,90.9999972229005,2|2,0:0|0:0,0:0:0:0:
53,133,126667,1,8,0:0:0:0:
15,195,126848,1,2,0:0:0:0:
57,336,127212,6,0,P|181:356|330:289,1,272.999991668701,2|8,0:0|0:0,0:0:0:0:
457,268,128667,2,0,L|445:178,1,90.9999972229005,2|2,0:0|0:0,0:0:0:0:
303,209,129394,2,0,L|291:119,1,90.9999972229005,2|2,0:0|0:0,0:0:0:0:
151,159,130121,2,0,L|139:69,1,90.9999972229005,2|2,0:0|0:0,0:0:0:0:
212,61,130667,2,0,L|224:151,1,90.9999972229005,0|0,0:0|0:0,0:0:0:0:
198,220,131212,1,8,0:0:0:0:
296,96,131576,6,0,P|372:96|468:140,1,181.999994445801,2|8,0:0|0:0,0:0:0:0:
438,291,132667,2,0,L|421:196,1,90.9999972229005,8|6,0:0|0:0,0:0:0:0:
344,200,133212,6,0,L|352:240,2,32.5,0|0|2,0:0|0:0|0:0,0:0:0:0:
273,234,133576,2,0,L|281:274,2,32.5,0|0|2,0:0|0:0|0:0,0:0:0:0:
202,266,133939,2,0,L|210:306,2,32.5,0|0|8,0:0|0:0|0:0,0:0:0:0:
130,297,134303,2,0,L|138:337,2,32.5,0|0|2,0:0|0:0|0:0,0:0:0:0:
67,61,134848,6,0,P|58:93|64:153,1,65,2|0,0:0|0:0,0:0:0:0:
134,109,135212,2,0,P|166:118|226:112,1,65,2|8,0:0|0:0,0:0:0:0:
271,91,135576,1,2,0:0:0:0:
341,126,135757,1,8,0:0:0:0:
396,70,135939,6,0,P|433:75|485:95,1,65,2|0,0:0|0:0,0:0:0:0:
483,158,136303,2,0,P|479:195|458:247,1,65,2|0,0:0|0:0,0:0:0:0:
411,274,136667,2,0,P|375:270|322:249,1,65,2|0,0:0|0:0,0:0:0:0:
280,212,137030,1,8,0:0:0:0:
280,212,137212,2,0,L|203:242,1,65,0|2,0:0|0:0,0:0:0:0:
146,70,137757,6,0,P|196:33|267:39,1,130,2|2,0:0|0:0,0:0:0:0:
303,103,138303,1,8,0:0:0:0:
354,163,138485,2,0,P|379:123|354:42,1,130,2|6,0:0|0:0,0:0:0:0:
447,39,139030,5,0,0:0:0:0:
468,118,139212,1,8,0:0:0:0:
468,118,139394,2,0,P|476:189|461:269,1,130,6|2,0:0|0:0,0:0:0:0:
396,277,139939,1,8,0:0:0:0:
396,277,140121,2,0,P|388:206|403:126,1,130,6|2,0:0|0:0,0:0:0:0:
309,98,140667,1,8,0:0:0:0:
309,98,140848,2,0,P|317:169|302:249,1,130,6|2,0:0|0:0,0:0:0:0:
272,296,141394,2,0,P|236:303|201:295,2,65,8|8|6,0:0|0:0|0:0,0:0:0:0:
219,150,142121,6,0,P|155:149|99:192,1,130,8|2,0:0|0:0,0:0:0:0:
25,190,142667,1,2,0:0:0:0:
24,269,142848,1,8,0:0:0:0:
103,269,143030,1,6,0:0:0:0:
271,90,143394,6,0,L|360:79,2,65,8|8|8,0:0|0:0|0:0,0:0:0:0:
219,150,143939,2,0,B|197:245|197:245|227:342,1,195,8|12,0:0|0:0,0:0:0:0:
304,200,144848,2,0,B|368:200|368:200|424:240,1,130,8|8,0:0|0:0,0:0:0:0:
470,302,145394,2,0,P|498:244|472:176,1,130,8|8,0:0|0:0,0:0:0:0:
340,116,146121,6,0,L|204:116,2,130,6|8|2,0:0|0:0|0:0,0:0:0:0:
390,187,147030,1,2,0:0:0:0:
390,187,147212,2,0,L|363:260,1,65,8|0,0:0|0:0,0:0:0:0:
296,216,147576,2,0,P|276:276|288:340,1,130,2|8,0:0|0:0,0:0:0:0:
364,360,148121,2,0,P|304:340|240:352,1,130,2|2,0:0|0:0,0:0:0:0:
164,364,148667,1,8,0:0:0:0:
164,284,148848,1,0,0:0:0:0:
92,312,149030,6,0,P|72:248|80:184,1,130,2|8,0:0|0:0,0:0:0:0:
156,204,149576,2,0,L|240:204,1,65,0|2,0:0|0:0,0:0:0:0:
296,228,149939,2,0,L|380:228,1,65,2|8,0:0|0:0,0:0:0:0:
440,216,150303,2,0,P|452:264|436:348,1,130,6|2,0:0|0:0,0:0:0:0:
364,316,150848,1,8,0:0:0:0:
295,354,151030,2,0,P|283:306|299:222,1,130,6|8,0:0|0:0,0:0:0:0:
364,188,151576,2,0,L|364:116,1,65,8|0,0:0|0:0,0:0:0:0:
320,56,151939,6,0,P|260:36|184:44,1,130,6|8,0:0|0:0,0:0:0:0:
123,73,152485,2,0,L|55:53,1,65,0|2,0:0|0:0,0:0:0:0:
3,107,152848,2,0,P|-5:135|1:176,1,65,2|8,0:0|0:0,0:0:0:0:
66,211,153212,2,0,L|128:229,1,65,0|2,0:0|0:0,0:0:0:0:
208,240,153576,2,0,L|288:240,1,65,2|8,0:0|0:0,0:0:0:0:
336,192,153939,6,0,P|352:128|336:64,1,130,6|2,0:0|0:0,0:0:0:0:
260,83,154485,2,0,P|228:88|178:90,1,65,8|2,0:0|0:0,0:0:0:0:
180,168,154848,2,0,P|176:200|176:240,1,65,6|0,0:0|0:0,0:0:0:0:
244,280,155212,5,8,0:0:0:0:
244,280,155394,2,0,P|248:312|248:352,1,65,0|2,0:0|0:0,0:0:0:0:
328,344,155757,2,0,P|324:312|324:272,2,65,2|8|0,0:0|0:0|0:0,0:0:0:0:
404,364,156303,6,0,P|408:300|384:220,1,130,8|8,0:0|0:0,0:0:0:0:
363,163,156848,1,2,0:0:0:0:
363,163,157030,1,8,0:0:0:0:
284,168,157212,2,0,P|252:169|200:160,1,65,2|8,0:0|0:0,0:0:0:0:
148,132,157576,5,8,0:0:0:0:
148,132,157757,2,0,P|124:72|136:4,2,130,6|8|2,0:0|0:0|0:0,0:0:0:0:
156,216,158667,1,2,0:0:0:0:
156,216,158848,2,0,L|152:304,1,65,8|0,0:0|0:0,0:0:0:0:
228,308,159212,6,0,L|236:168,1,130,2|8,0:0|0:0,0:0:0:0:
312,184,159757,2,0,L|304:313,1,130,2|2,0:0|0:0,0:0:0:0:
382,307,160303,2,0,P|377:343|358:379,1,65,8|0,0:0|0:0,0:0:0:0:
444,384,160667,6,0,P|457:338|447:240,1,130,2|8,0:0|0:0,0:0:0:0:
445,176,161212,2,0,L|453:104,2,65,0|2|2,0:0|0:0|0:0,0:0:0:0:
445,176,161757,1,8,0:0:0:0:
372,208,161939,2,0,P|307:220|224:208,1,130,6|2,0:0|0:0,0:0:0:0:
212,284,162485,5,8,0:0:0:0:
212,284,162667,2,0,L|56:280,1,130,6|8,0:0|0:0,0:0:0:0:
7,302,163212,2,0,P|6:265|18:235,1,65,8|0,0:0|0:0,0:0:0:0:
84,200,163576,6,0,P|144:180|220:188,1,130,6|8,0:0|0:0,0:0:0:0:
282,212,164121,2,0,L|297:144,1,65,0|2,0:0|0:0,0:0:0:0:
374,141,164485,2,0,P|365:107|334:71,1,65,2|8,0:0|0:0,0:0:0:0:
310,13,164849,2,0,L|230:13,1,65,0|2,0:0|0:0,0:0:0:0:
203,78,165212,1,2,0:0:0:0:
203,78,165394,1,8,0:0:0:0:
136,37,165576,6,0,P|70:33|10:61,1,130,6|2,0:0|0:0,0:0:0:0:
56,125,166122,2,0,P|61:157|63:207,1,65,8|0,0:0|0:0,0:0:0:0:
135,218,166485,6,0,P|149:279|128:348,2,130,6|8|8,0:0|0:0|0:0,0:0:0:0:
208,192,167394,1,2,0:0:0:0:
208,192,167576,1,8,0:0:0:0:
288,176,167757,1,2,0:0:0:0:
288,176,167939,2,0,B|328:176|328:176|368:196|368:196|424:196,1,130,8|8,0:0|0:0,0:0:0:0:
444,116,168485,6,0,L|368:116,1,65,2|8,0:0|0:0,0:0:0:0:
304,96,168848,2,0,L|305:24,2,65,2|8|8,0:0|0:0|0:0,0:0:0:0:
256,192,169394,12,8,170485,0:0:0:0:
256,192,170848,12,6,172303,0:0:0:0:
192,248,175212,6,0,P|123:255|59:243,1,130,6|8,0:0|0:0,0:0:0:0:
66,166,175757,2,0,P|135:159|199:171,1,130,2|2,0:0|0:0,0:0:0:0:
261,209,176303,1,8,0:0:0:0:
405,149,176667,2,0,P|423:216|390:293,1,130,2|8,0:0|0:0,0:0:0:0:
349,326,177212,2,0,L|203:303,1,130,2|2,0:0|0:0,0:0:0:0:
220,305,177757,1,8,0:0:0:0:
143,319,177939,5,0,0:0:0:0:
143,319,178030,1,0,0:0:0:0:
143,319,178121,2,0,P|133:268|137:212,2,97.5,2|0|0,0:0|0:0|0:0,0:0:0:0:
65,327,178848,2,0,P|55:276|59:220,2,97.5,2|0|6,0:0|0:0|0:0,0:0:0:0:
143,319,179576,6,0,P|204:297|286:306,1,130,0|8,0:0|0:0,0:0:0:0:
327,352,180121,1,6,0:0:0:0:
403,330,180303,2,0,P|415:295|419:256,1,65,2|8,0:0|0:0,0:0:0:0:
374,202,180667,1,8,0:0:0:0:
296,210,180848,1,8,0:0:0:0:
223,195,181030,6,0,P|220:140|250:67,1,130,6|8,0:0|0:0,0:0:0:0:
246,71,181576,2,0,L|377:91,1,130,2|2,0:0|0:0,0:0:0:0:
438,140,182121,1,8,0:0:0:0:
396,288,182485,2,0,L|316:288,1,65,2|0,0:0|0:0,0:0:0:0:
256,308,182848,2,0,L|168:308,1,65,8|6,0:0|0:0,0:0:0:0:
120,340,183212,2,0,P|96:288|104:212,1,130,0|8,0:0|0:0,0:0:0:0:
144,152,183757,1,0,0:0:0:0:
220,164,183939,6,0,L|308:164,1,65,6|0,0:0|0:0,0:0:0:0:
360,144,184303,2,0,P|384:96|384:12,1,130,8|2,0:0|0:0,0:0:0:0:
386,20,184848,1,2,0:0:0:0:
312,44,185030,2,0,L|228:44,1,65,8|0,0:0|0:0,0:0:0:0:
172,68,185394,6,0,L|120:68,2,32.5,2|8|0,0:0|0:0|0:0,0:0:0:0:
208,136,185757,2,0,P|188:176|184:264,1,130,8|8,0:0|0:0,0:0:0:0:
116,300,186303,2,0,L|164:360,1,65,2|8,0:0|0:0,0:0:0:0:
232,324,186667,1,2,0:0:0:0:
256,192,186848,12,0,188303,0:0:0:0:
60,112,192667,6,0,P|112:88|204:88,2,130
92,184,193576,2,0,P|116:236|116:328,1,130,8|8,0:0|0:0,0:0:0:0:
184,356,194121,6,0,L|312:356,2,97.5,6|0|0,0:0|0:0|0:0,0:0:0:0:
200,280,194848,2,0,L|328:280,2,97.5
220,204,195576,2,0,L|348:204,2,97.5
148,172,196303,1,2,0:0:0:0:
212,124,196485,1,2,0:0:0:0:
292,124,196667,1,8,0:0:0:0:
376,148,196848,1,8,0:0:0:0:
376,148,196939,1,8,0:0:0:0:
376,148,197030,2,0,L|404:4,1,130,6|8,0:0|0:0,0:0:0:0:
476,36,197576,6,0,L|451:163,1,130,2|2,0:0|0:0,0:0:0:0:
432,240,198121,1,8,0:0:0:0:
432,240,198303,2,0,L|364:240,1,65,0|6,0:0|0:0,0:0:0:0:
308,292,198667,6,0,P|291:259|292:216,1,65,8|8,0:0|0:0,0:0:0:0:
212,244,199030,2,0,P|195:211|196:168,1,65,8|8,0:0|0:0,0:0:0:0:
256,140,199394,1,8,0:0:0:0:
256,60,199576,1,2,0:0:0:0:
188,100,199757,6,0,L|36:100,1,130,12|8,0:0|0:0,0:0:0:0:
324,100,200485,2,0,L|412:100,1,65,8|8,0:0|0:0,0:0:0:0:
256,192,210121,12,8,211576,0:0:0:0:
176,76,211939,6,0,L|96:76,1,65,8|0,0:0|0:0,0:0:0:0:
64,140,212303,2,0,P|57:172|64:216,2,65,0|8|8,0:0|0:0|0:0,0:0:0:0:
256,56,213030,6,0,B|256:96|256:96|240:136|240:136|240:200,1,130,6|8,0:0|0:0,0:0:0:0:
251,266,213576,1,0,0:0:0:0:
251,266,213757,1,2,0:0:0:0:
314,218,213939,2,0,P|361:216|395:222,1,65,2|8,0:0|0:0,0:0:0:0:
389,296,214303,1,0,0:0:0:0:
316,322,214485,6,0,P|274:343|178:327,1,130,2|8,0:0|0:0,0:0:0:0:
120,312,215030,2,0,L|144:176,1,130,2|2,0:0|0:0,0:0:0:0:
67,165,215576,2,0,L|51:245,1,65,8|0,0:0|0:0,0:0:0:0:
210,241,215939,6,0,P|222:179|192:102,1,130,2|8,0:0|0:0,0:0:0:0:
295,140,216485,2,0,P|275:81|210:29,1,130,2|2,0:0|0:0,0:0:0:0:
226,36,217030,1,8,0:0:0:0:
150,50,217212,1,6,0:0:0:0:
372,122,217576,6,0,P|373:157|361:185,1,65,2|8,0:0|0:0,0:0:0:0:
293,222,217939,2,0,P|229:206|145:198,1,130,6|8,0:0|0:0,0:0:0:0:
88,200,218485,1,8,0:0:0:0:
29,251,218667,2,0,P|59:274|100:275,1,65,0|6,0:0|0:0,0:0:0:0:
310,311,219212,5,8,0:0:0:0:
310,311,219394,2,0,L|455:295,2,130,2|2|0,0:0|0:0|0:0,0:0:0:0:
235,293,220303,1,2,0:0:0:0:
176,244,220485,1,2,0:0:0:0:
100,268,220667,1,8,0:0:0:0:
100,268,220848,2,0,P|33:256|-29:215,1,130,6|2,0:0|0:0,0:0:0:0:
1,148,221394,2,0,P|11:115|9:71,1,65,8|2,0:0|0:0,0:0:0:0:
86,62,221757,6,0,P|149:42|221:50,1,130,6|8,0:0|0:0,0:0:0:0:
243,120,222303,2,0,L|271:254,1,130,2|2,0:0|0:0,0:0:0:0:
330,298,222848,2,0,P|349:255|346:232,1,65,8|2,0:0|0:0,0:0:0:0:
349,97,223212,2,0,P|330:140|333:163,1,65,8|2,0:0|0:0,0:0:0:0:
452,274,223576,6,0,P|393:302|320:295,1,130,8|8,0:0|0:0,0:0:0:0:
257,273,224121,1,2,0:0:0:0:
176,279,224303,1,8,0:0:0:0:
222,345,224485,1,8,0:0:0:0:
257,273,224667,6,0,P|265:216|238:133,1,130,6|8,0:0|0:0,0:0:0:0:
265,72,225212,2,0,L|353:72,1,65,0|2,0:0|0:0,0:0:0:0:
399,110,225576,1,2,0:0:0:0:
351,173,225757,1,8,0:0:0:0:
351,173,225939,1,0,0:0:0:0:
273,176,226121,6,0,P|263:217|268:258,1,65,2|0,0:0|0:0,0:0:0:0:
329,295,226485,1,8,0:0:0:0:
329,295,226667,2,0,P|392:312|458:297,1,130,2|2,0:0|0:0,0:0:0:0:
436,222,227212,2,0,P|431:181|441:153,2,65,8|0|2,0:0|0:0|0:0,0:0:0:0:
390,34,227939,5,8,0:0:0:0:
390,34,228121,2,0,P|338:76|260:81,1,130,2|2,0:0|0:0,0:0:0:0:
237,153,228667,1,8,0:0:0:0:
237,153,228848,2,0,L|390:179,1,130,6|2,0:0|0:0,0:0:0:0:
436,222,229394,1,8,0:0:0:0:
436,222,229576,2,0,P|456:161|444:89,1,130,6|8,0:0|0:0,0:0:0:0:
370,97,230121,2,0,L|287:84,1,65,8|0,0:0|0:0,0:0:0:0:
234,237,230485,6,0,L|387:263,1,130,6|8,0:0|0:0,0:0:0:0:
428,303,231030,2,0,P|402:328|362:339,1,65,2|0,0:0|0:0,0:0:0:0:
296,326,231394,2,0,L|216:313,1,65,2|8,0:0|0:0,0:0:0:0:
158,347,231757,2,0,P|152:315|161:284,1,65,0|2,0:0|0:0,0:0:0:0:
218,231,232121,1,2,0:0:0:0:
292,205,232303,1,8,0:0:0:0:
292,205,232484,2,0,P|320:152|312:80,1,130,6|2,0:0|0:0,0:0:0:0:
273,18,233030,2,0,L|196:14,1,65,8|2,0:0|0:0,0:0:0:0:
152,69,233394,6,0,P|81:91|3:75,1,130,6|8,0:0|0:0,0:0:0:0:
26,162,233939,2,0,L|46:302,1,130,2|2,0:0|0:0,0:0:0:0:
124,296,234485,1,8,0:0:0:0:
124,296,234667,1,2,0:0:0:0:
180,240,234848,6,0,L|188:149,1,65,8|2,0:0|0:0,0:0:0:0:
257,207,235212,2,0,L|265:116,1,65,8|2,0:0|0:0,0:0:0:0:
337,175,235576,1,8,0:0:0:0:
337,175,235757,2,0,L|345:84,1,65,2|8,0:0|0:0,0:0:0:0:
293,48,236121,1,8,0:0:0:0:
256,192,236303,12,8,237394,0:0:0:0:
256,192,237757,12,6,239212,0:0:0:0:
248,120,239576,6,0,L|330:118,1,65,8|0,0:0|0:0,0:0:0:0:
380,163,239939,2,0,P|359:195|349:238,1,65,8|0,0:0|0:0,0:0:0:0:
377,295,240303,2,0,L|461:301,2,65,8|0|8,0:0|0:0|0:0,0:0:0:0:
300,284,240848,1,0,0:0:0:0:
236,240,241030,2,0,P|190:230|151:234,2,65,8|0|8,0:0|0:0|0:0,0:0:0:0:
300,284,241576,1,0,0:0:0:0:
228,320,241757,2,0,L|96:312,1,130,8|8,0:0|0:0,0:0:0:0:
144,136,242485,6,0,L|14:150,2,130,8|8|8,0:0|0:0|0:0,0:0:0:0:
220,144,243394,2,0,P|230:177|237:223,1,65,0|8,0:0|0:0,0:0:0:0:
312,188,243757,2,0,P|302:155|295:109,1,65,0|8,0:0|0:0,0:0:0:0:
392,64,244121,2,0,P|382:97|375:143,2,65,0|8|0,0:0|0:0|0:0,0:0:0:0:
456,120,244667,2,0,P|443:183|445:249,1,130,8|6,0:0|0:0,0:0:0:0:
211,59,245394,6,0,P|224:90|230:124,1,65,8|0,0:0|0:0,0:0:0:0:
308,132,245757,2,0,L|284:276,1,130,8|8,0:0|0:0,0:0:0:0:
214,234,246303,2,0,P|209:285|214:309,1,65,0|8,0:0|0:0,0:0:0:0:
133,299,246667,2,0,P|143:350|154:372,1,65,0|8,0:0|0:0,0:0:0:0:
64,368,247030,2,0,P|54:317|43:295,1,65,0|8,0:0|0:0,0:0:0:0:
8,236,247394,1,0,0:0:0:0:
8,236,247576,2,0,L|37:90,1,130,8|8,0:0|0:0,0:0:0:0:
277,146,248303,6,0,P|243:177|209:182,1,65,8|0,0:0|0:0,0:0:0:0:
208,106,248667,2,0,P|242:75|276:70,1,65,8|0,0:0|0:0,0:0:0:0:
341,87,249030,1,8,0:0:0:0:
341,87,249212,2,0,L|427:97,1,65,0|8,0:0|0:0,0:0:0:0:
472,180,249576,2,0,L|407:172,1,65,0|8,0:0|0:0,0:0:0:0:
424,250,249939,2,0,L|336:258,1,65,8|0,0:0|0:0,0:0:0:0:
288,224,250303,2,0,L|284:148,2,65,8|8|8,0:0|0:0|0:0,0:0:0:0:
228,272,250848,6,0,P|179:270|118:259,2,97.5,6|2|2,0:0|0:0|0:0,0:0:0:0:
256,192,251667,12,8,253939,0:0:0:0:
