osu file format v10

[General]
AudioFilename: i.mp3
AudioLeadIn: 1500
PreviewTime: 56772
Countdown: 0
SampleSet: Normal
StackLeniency: 0.7
Mode: 1
LetterboxInBreaks: 0

[Editor]
Bookmarks: 7733,13887,20041,26195,32733,38503,44656,50810,56964,81580
DistanceSpacing: 0
BeatDivisor: 4
GridSize: 4

[Metadata]
Title:i wo Tokinasai
TitleUnicode:i wo Tokinasai
Artist:Hana
ArtistUnicode:Hana
Creator:Sun Rainbow
Version:Taiko Oni
Source:Ikinari Anata ni Koi Shiteiru
Tags:kosiga fumis No_Gu Opening
BeatmapID:156546
BeatmapSetID:50938

[Difficulty]
HPDrainRate:5
CircleSize:4
OverallDifficulty:5
ApproachRate:5
SliderMultiplier:1.4
SliderTickRate:2

[Events]
//Background and Video events
0,0,"BG_T.png"
//Break Periods
//Storyboard Layer 0 (Background)
//Storyboard Layer 1 (Fail)
//Storyboard Layer 2 (Pass)
//Storyboard Layer 3 (Foreground)
//Storyboard Sound Samples
//Background Colour Transformations
3,100,163,162,255

[TimingPoints]
1580,384.615384615385,4,1,0,100,1,0
56964,-100,4,1,1,100,0,1
81580,-100,4,1,0,100,0,0

[HitObjects]
256,192,1580,1,8,0:0:0
256,192,1964,1,8,0:0:0
256,192,2349,1,0,0:0:0
256,192,2733,1,8,0:0:0
256,192,2926,1,0,0:0:0
256,192,3310,1,8,0:0:0
256,192,3503,1,8,0:0:0
256,192,3695,1,0,0:0:0
256,192,4080,1,8,0:0:0
256,192,4272,1,0,0:0:0
256,192,4464,1,8,0:0:0
256,192,4656,1,0,0:0:0
256,192,4849,1,8,0:0:0
256,192,4945,1,8,0:0:0
256,192,5041,1,0,0:0:0
256,192,5426,1,8,0:0:0
256,192,5618,1,8,0:0:0
256,192,5714,1,8,0:0:0
256,192,5810,1,0,0:0:0
256,192,6003,1,0,0:0:0
256,192,6195,1,8,0:0:0
256,192,6387,1,8,0:0:0
256,192,6580,1,0,0:0:0
256,192,6772,1,0,0:0:0
256,192,6964,1,8,0:0:0
256,192,7156,1,8,0:0:0
256,192,7349,1,0,0:0:0
256,192,7733,1,8,0:0:0
256,192,7926,1,8,0:0:0
256,192,8022,1,8,0:0:0
256,192,8118,1,0,0:0:0
256,192,8310,1,8,0:0:0
256,192,8695,1,0,0:0:0
256,192,9080,1,8,0:0:0
256,192,9464,1,8,0:0:0
256,192,9849,1,0,0:0:0
256,192,10233,1,8,0:0:0
256,192,10330,1,8,0:0:0
256,192,10426,1,0,0:0:0
256,192,10618,1,0,0:0:0
256,192,10810,1,8,0:0:0
256,192,11003,1,8,0:0:0
256,192,11099,1,8,0:0:0
256,192,11195,1,0,0:0:0
256,192,11387,1,0,0:0:0
256,192,11772,1,0,0:0:0
256,192,12156,1,8,0:0:0
256,192,12349,1,0,0:0:0
256,192,12541,1,0,0:0:0
256,192,12926,1,8,0:0:0
256,192,13118,1,8,0:0:0
256,192,13310,1,0,0:0:0
256,192,13503,1,8,0:0:0
256,192,13695,1,8,0:0:0
256,192,13791,1,8,0:0:0
256,192,13887,1,0,0:0:0
256,192,14272,1,8,0:0:0
256,192,14656,1,0,0:0:0
256,192,15041,1,8,0:0:0
256,192,15233,1,0,0:0:0
256,192,15618,1,8,0:0:0
256,192,15810,1,8,0:0:0
256,192,16003,1,0,0:0:0
256,192,16387,1,8,0:0:0
256,192,16580,1,0,0:0:0
256,192,16772,1,8,0:0:0
256,192,16964,1,0,0:0:0
256,192,17156,1,8,0:0:0
256,192,17253,1,8,0:0:0
256,192,17349,1,0,0:0:0
256,192,17733,1,8,0:0:0
256,192,18118,1,8,0:0:0
256,192,18310,1,0,0:0:0
256,192,18695,1,8,0:0:0
256,192,19080,1,8,0:0:0
256,192,19176,1,8,0:0:0
256,192,19272,1,0,0:0:0
256,192,19368,1,8,0:0:0
256,192,19464,1,0,0:0:0
256,192,19656,1,0,0:0:0
256,192,19849,1,8,0:0:0
256,192,20041,1,0,0:0:0
256,192,20233,1,8,0:0:0
256,192,20330,1,0,0:0:0
256,192,20426,1,0,0:0:0
256,192,20618,1,8,0:0:0
256,192,21003,1,8,0:0:0
256,192,21195,1,0,0:0:0
256,192,21387,1,0,0:0:0
256,192,21772,1,8,0:0:0
256,192,22156,1,0,0:0:0
256,192,22541,1,8,0:0:0
256,192,22637,1,0,0:0:0
256,192,22733,1,0,0:0:0
256,192,22926,1,8,0:0:0
256,192,23118,1,0,0:0:0
256,192,23214,1,0,0:0:0
256,192,23310,1,8,0:0:0
256,192,23503,1,0,0:0:0
256,192,23695,1,8,0:0:0
256,192,24080,1,8,0:0:0
256,192,24464,1,4,0:0:0
256,192,24849,1,4,0:0:0
256,192,25233,1,12,0:0:0
256,192,25618,1,12,0:0:0
256,192,25810,1,4,0:0:0
256,192,26003,1,8,0:0:0
256,192,26099,1,8,0:0:0
256,192,26195,1,0,0:0:0
256,192,26387,1,0,0:0:0
256,192,26580,1,8,0:0:0
256,192,26772,1,0,0:0:0
256,192,27156,1,0,0:0:0
256,192,27349,1,8,0:0:0
256,192,27541,1,8,0:0:0
256,192,27637,1,8,0:0:0
256,192,27733,1,0,0:0:0
256,192,27926,1,8,0:0:0
256,192,28310,1,0,0:0:0
256,192,28695,1,8,0:0:0
256,192,28887,1,0,0:0:0
256,192,29080,1,8,0:0:0
256,192,29176,1,8,0:0:0
256,192,29272,1,0,0:0:0
256,192,29464,1,0,0:0:0
256,192,29656,1,8,0:0:0
256,192,29849,1,0,0:0:0
256,192,30233,1,0,0:0:0
256,192,30426,1,8,0:0:0
256,192,30618,1,0,0:0:0
256,192,31003,1,4,0:0:0
256,192,31387,1,4,0:0:0
256,192,31772,1,8,0:0:0
256,192,31964,1,0,0:0:0
256,192,32156,1,8,0:0:0
256,192,32253,1,8,0:0:0
256,192,32349,1,0,0:0:0
256,192,32733,1,8,0:0:0
256,192,32926,1,0,0:0:0
256,192,33118,1,8,0:0:0
256,192,33310,1,8,0:0:0
256,192,33406,1,8,0:0:0
256,192,33503,1,0,0:0:0
256,192,33695,1,8,0:0:0
256,192,34080,1,8,0:0:0
256,192,34272,1,8,0:0:0
256,192,34368,1,0,0:0:0
256,192,34464,1,0,0:0:0
256,192,34849,1,8,0:0:0
256,192,35426,1,8,0:0:0
256,192,35522,1,8,0:0:0
256,192,35618,1,0,0:0:0
256,192,35810,1,0,0:0:0
256,192,36003,1,8,0:0:0
256,192,36387,1,8,0:0:0
256,192,36580,1,8,0:0:0
256,192,36772,1,0,0:0:0
256,192,37156,1,8,0:0:0
256,192,37349,1,0,0:0:0
256,192,37541,1,8,0:0:0
256,192,37926,1,8,0:0:0
256,192,38118,1,0,0:0:0
256,192,38310,1,8,0:0:0
256,192,38406,1,8,0:0:0
256,192,38503,1,0,0:0:0
256,192,38887,1,8,0:0:0
256,192,39080,1,0,0:0:0
256,192,39464,1,8,0:0:0
256,192,39656,1,8,0:0:0
256,192,39849,1,0,0:0:0
256,192,40233,1,0,0:0:0
256,192,40618,1,8,0:0:0
256,192,40810,1,0,0:0:0
256,192,41003,1,8,0:0:0
256,192,41195,1,0,0:0:0
256,192,41387,1,8,0:0:0
256,192,41483,1,8,0:0:0
256,192,41580,1,0,0:0:0
256,192,41772,1,0,0:0:0
256,192,41964,1,8,0:0:0
256,192,42156,1,0,0:0:0
256,192,42541,1,0,0:0:0
256,192,42733,1,8,0:0:0
256,192,42926,1,0,0:0:0
256,192,43118,1,8,0:0:0
256,192,43310,1,0,0:0:0
256,192,43695,1,8,0:0:0
256,192,44080,1,8,0:0:0
256,192,44272,1,8,0:0:0
256,192,44464,1,0,0:0:0
256,192,44656,1,4,0:0:0
256,192,45041,1,8,0:0:0
256,192,45233,1,0,0:0:0
256,192,45426,1,8,0:0:0
256,192,45618,1,8,0:0:0
256,192,45714,1,8,0:0:0
256,192,45810,1,0,0:0:0
256,192,46003,1,0,0:0:0
256,192,46387,1,8,0:0:0
256,192,46580,1,8,0:0:0
256,192,46772,1,0,0:0:0
256,192,47156,1,8,0:0:0
256,192,47733,1,8,0:0:0
256,192,47926,1,0,0:0:0
256,192,48118,1,8,0:0:0
256,192,48214,1,8,0:0:0
256,192,48310,1,0,0:0:0
256,192,48503,1,8,0:0:0
256,192,48695,1,0,0:0:0
256,192,48887,1,8,0:0:0
256,192,49080,1,0,0:0:0
256,192,49272,1,8,0:0:0
256,192,49464,1,8,0:0:0
256,192,49656,1,8,0:0:0
256,192,49753,1,0,0:0:0
256,192,49849,1,0,0:0:0
256,192,50233,2,0,B|188:192,2,70
256,192,50810,1,8,0:0:0
256,192,50906,1,8,0:0:0
256,192,51003,1,0,0:0:0
256,192,51195,1,8,0:0:0
256,192,51387,1,0,0:0:0
256,192,51580,1,8,0:0:0
256,192,51676,1,8,0:0:0
256,192,51772,1,0,0:0:0
256,192,51964,1,8,0:0:0
256,192,52060,1,0,0:0:0
256,192,52156,1,0,0:0:0
256,192,52349,1,8,0:0:0
256,192,52541,1,8,0:0:0
256,192,52637,1,0,0:0:0
256,192,52733,1,0,0:0:0
256,192,52926,1,8,0:0:0
256,192,53022,1,0,0:0:0
256,192,53118,1,0,0:0:0
256,192,53310,1,8,0:0:0
256,192,53406,1,8,0:0:0
256,192,53503,1,0,0:0:0
256,192,53695,1,0,0:0:0
256,192,53887,1,8,0:0:0
256,192,54080,1,8,0:0:0
256,192,54176,1,8,0:0:0
256,192,54272,1,0,0:0:0
256,192,54464,1,0,0:0:0
256,192,54656,1,8,0:0:0
256,192,54753,1,8,0:0:0
256,192,54849,1,0,0:0:0
256,192,54945,1,8,0:0:0
256,192,55041,1,0,0:0:0
256,192,55233,1,8,0:0:0
256,192,55330,1,8,0:0:0
256,192,55426,12,0,56772,0:0:0
256,192,56964,5,8,0:0:0
256,192,57156,1,8,0:0:0
256,192,57253,1,8,0:0:0
256,192,57349,1,0,0:0:0
256,192,57541,1,0,0:0:0
256,192,57926,1,8,0:0:0
256,192,58118,1,8,0:0:0
256,192,58214,1,0,0:0:0
256,192,58310,1,0,0:0:0
256,192,58695,1,8,0:0:0
256,192,58887,1,8,0:0:0
256,192,58983,1,0,0:0:0
256,192,59080,1,0,0:0:0
256,192,59272,1,0,0:0:0
256,192,59464,1,8,0:0:0
256,192,60041,1,8,0:0:0
256,192,60233,1,8,0:0:0
256,192,60330,1,8,0:0:0
256,192,60426,1,0,0:0:0
256,192,60618,1,8,0:0:0
256,192,61003,1,8,0:0:0
256,192,61195,1,8,0:0:0
256,192,61291,1,8,0:0:0
256,192,61387,1,0,0:0:0
256,192,61580,1,8,0:0:0
256,192,61772,1,8,0:0:0
256,192,61964,1,8,0:0:0
256,192,62156,1,0,0:0:0
256,192,62541,1,8,0:0:0
256,192,62637,1,8,0:0:0
256,192,62733,1,0,0:0:0
256,192,63118,1,0,0:0:0
256,192,63310,1,8,0:0:0
256,192,63406,1,8,0:0:0
256,192,63503,1,0,0:0:0
256,192,63695,1,0,0:0:0
256,192,63887,1,8,0:0:0
256,192,64080,1,8,0:0:0
256,192,64272,1,8,0:0:0
256,192,64464,1,0,0:0:0
256,192,64656,1,8,0:0:0
256,192,64849,1,8,0:0:0
256,192,64945,1,8,0:0:0
256,192,65041,1,0,0:0:0
256,192,65233,1,0,0:0:0
256,192,65426,1,8,0:0:0
256,192,65618,1,0,0:0:0
256,192,65810,1,8,0:0:0
256,192,66195,1,8,0:0:0
256,192,66387,1,8,0:0:0
256,192,66483,1,8,0:0:0
256,192,66580,1,0,0:0:0
256,192,66772,1,0,0:0:0
256,192,67156,1,8,0:0:0
256,192,67349,1,8,0:0:0
256,192,67541,1,0,0:0:0
256,192,67733,1,8,0:0:0
256,192,67926,1,8,0:0:0
256,192,68022,1,8,0:0:0
256,192,68118,1,0,0:0:0
256,192,68310,1,8,0:0:0
256,192,68406,1,0,0:0:0
256,192,68695,1,8,0:0:0
256,192,68887,1,8,0:0:0
256,192,68983,1,8,0:0:0
256,192,69080,1,8,0:0:0
256,192,69176,1,8,0:0:0
256,192,69272,1,0,0:0:0
256,192,69464,1,8,0:0:0
256,192,69560,1,8,0:0:0
256,192,69656,1,0,0:0:0
256,192,69849,1,0,0:0:0
256,192,70041,1,8,0:0:0
256,192,70233,1,8,0:0:0
256,192,70426,1,8,0:0:0
256,192,70618,1,0,0:0:0
256,192,70810,1,8,0:0:0
256,192,71003,1,8,0:0:0
256,192,71099,1,8,0:0:0
256,192,71195,1,0,0:0:0
256,192,71387,1,0,0:0:0
256,192,71483,1,8,0:0:0
256,192,71676,1,8,0:0:0
256,192,71772,1,0,0:0:0
256,192,71964,1,8,0:0:0
256,192,72156,1,0,0:0:0
256,192,72349,1,8,0:0:0
256,192,72541,1,8,0:0:0
256,192,72637,1,8,0:0:0
256,192,72733,1,0,0:0:0
256,192,72926,1,0,0:0:0
256,192,73118,1,8,0:0:0
256,192,73310,1,8,0:0:0
256,192,73406,1,8,0:0:0
256,192,73503,1,0,0:0:0
256,192,73695,1,0,0:0:0
256,192,73887,1,0,0:0:0
256,192,74080,1,0,0:0:0
256,192,74272,1,0,0:0:0
256,192,74464,1,8,0:0:0
256,192,74849,1,8,0:0:0
256,192,75041,1,8,0:0:0
256,192,75137,1,8,0:0:0
256,192,75233,1,8,0:0:0
256,192,75330,1,8,0:0:0
256,192,75426,1,0,0:0:0
256,192,75618,1,8,0:0:0
256,192,75810,1,8,0:0:0
256,192,75906,1,8,0:0:0
256,192,76003,1,0,0:0:0
256,192,76195,1,8,0:0:0
256,192,76291,1,8,0:0:0
256,192,76387,1,8,0:0:0
256,192,76483,1,8,0:0:0
256,192,76580,1,0,0:0:0
256,192,76772,1,0,0:0:0
256,192,76964,1,8,0:0:0
256,192,77156,1,0,0:0:0
256,192,77349,1,8,0:0:0
256,192,77541,1,0,0:0:0
256,192,77830,1,8,0:0:0
256,192,77926,1,0,0:0:0
256,192,78118,1,8,0:0:0
256,192,78310,1,0,0:0:0
256,192,78503,1,8,0:0:0
256,192,78695,1,8,0:0:0
256,192,78791,1,8,0:0:0
256,192,78887,1,0,0:0:0
256,192,79080,1,0,0:0:0
256,192,79272,1,8,0:0:0
256,192,79368,1,0,0:0:0
256,192,79464,1,0,0:0:0
256,192,79656,1,8,0:0:0
256,192,79753,1,0,0:0:0
256,192,79849,1,0,0:0:0
256,192,80041,1,8,0:0:0
256,192,80233,1,0,0:0:0
256,192,80426,1,8,0:0:0
256,192,80618,1,0,0:0:0
256,192,81003,1,8,0:0:0
256,192,81195,1,8,0:0:0
256,192,81387,1,8,0:0:0
256,192,81483,1,0,0:0:0
256,192,81580,1,0,0:0:0
256,192,81772,1,8,0:0:0
256,192,81964,1,8,0:0:0
256,192,82060,1,0,0:0:0
256,192,82156,1,0,0:0:0
256,192,82541,1,8,0:0:0
256,192,82926,1,8,0:0:0
256,192,83118,1,0,0:0:0
256,192,83310,1,8,0:0:0
256,192,83406,1,0,0:0:0
256,192,83503,1,0,0:0:0
256,192,83695,1,8,0:0:0
256,192,84080,1,8,0:0:0
256,192,84272,1,8,0:0:0
256,192,84464,1,0,0:0:0
256,192,84656,1,12,0:0:0
256,192,84849,1,8,0:0:0
256,192,85041,1,8,0:0:0
256,192,85233,1,0,0:0:0
256,192,85618,1,8,0:0:0
256,192,86003,1,8,0:0:0
256,192,86195,1,8,0:0:0
256,192,86387,1,8,0:0:0
256,192,86483,1,8,0:0:0
256,192,86580,1,0,0:0:0
256,192,86772,1,0,0:0:0
256,192,87156,1,0,0:0:0
256,192,87349,1,0,0:0:0
256,192,87541,1,8,0:0:0
256,192,87733,1,0,0:0:0
256,192,87926,1,0,0:0:0
256,192,88118,1,8,0:0:0
256,192,88310,1,0,0:0:0
256,192,88695,1,8,0:0:0
256,192,88887,1,0,0:0:0
256,192,89080,1,8,0:0:0
256,192,89272,1,8,0:0:0
256,192,89368,1,8,0:0:0
256,192,89464,1,0,0:0:0
256,192,89656,1,0,0:0:0
256,192,89753,1,8,0:0:0
256,192,89849,1,0,0:0:0
256,192,90233,1,4,0:0:0
256,192,90426,1,12,0:0:0
256,192,90618,1,4,0:0:0
256,192,91003,1,8,0:0:0
256,192,91195,1,8,0:0:0
256,192,91387,1,8,0:0:0
256,192,91580,1,0,0:0:0
256,192,91772,1,8,0:0:0
256,192,91868,1,8,0:0:0
256,192,91964,1,0,0:0:0
256,192,92156,1,0,0:0:0
256,192,92541,1,8,0:0:0
256,192,92637,1,8,0:0:0
256,192,92733,1,0,0:0:0
256,192,92926,1,4,0:0:0
256,192,93310,1,12,0:0:0
