osu file format v14

[General]
AudioFilename: hana.mp3
AudioLeadIn: 0
PreviewTime: 63967
Countdown: 1
SampleSet: Soft
StackLeniency: 0.7
Mode: 0
LetterboxInBreaks: 0
WidescreenStoryboard: 0

[Editor]
DistanceSpacing: 1.5
BeatDivisor: 4
GridSize: 4
TimelineZoom: 2.4

[Metadata]
Title:Sakura no Uta
TitleUnicode:櫻ノ詩
Artist:Hana
ArtistUnicode:はな
Creator:kusano
Version:Insane
Source:サクラノ詩 -櫻の森の上を舞う-
Tags:Sakura no uta -Sakura no Mori no Ue o Mau- opening Eroge Metrowing Makura 枕
BeatmapID:671747
BeatmapSetID:299403

[Difficulty]
HPDrainRate:7
CircleSize:4
OverallDifficulty:7
ApproachRate:9
SliderMultiplier:1.8
SliderTickRate:1

[Events]
//Background and Video events
Video,0,"hana.avi"
0,0,"sakura.jpg",0,0
//Break Periods
//Storyboard Layer 0 (Background)
//Storyboard Layer 1 (Fail)
//Storyboard Layer 2 (Pass)
//Storyboard Layer 3 (Foreground)
//Storyboard Sound Samples

[TimingPoints]
1384,333.333333333333,4,2,1,55,1,0
10717,-100,4,2,0,70,0,0
10800,-100,4,2,1,70,0,0
11050,-100,4,2,0,70,0,0
11133,-100,4,2,1,70,0,0
11383,-100,4,2,0,70,0,0
11467,-100,4,2,1,70,0,0
12050,-100,4,2,0,65,0,0
12133,-100,4,2,1,60,0,0
17383,-100,4,2,0,65,0,0
17467,-100,4,2,1,60,0,0
21383,-100,4,2,0,70,0,0
21467,-100,4,2,1,60,0,0
23050,-133.333333333333,4,2,1,70,0,0
24050,-133.333333333333,4,2,0,60,0,0
24133,-133.333333333333,4,2,1,60,0,0
29050,-133.333333333333,4,2,1,45,0,0
29133,-133.333333333333,4,2,1,60,0,0
29383,-133.333333333333,4,2,0,50,0,0
29467,-133.333333333333,4,2,1,60,0,0
34217,-133.333333333333,4,2,1,45,0,0
34383,-133.333333333333,4,2,1,60,0,0
34717,-133.333333333333,4,2,0,50,0,0
34800,-133.333333333333,4,2,1,60,0,0
39217,-133.333333333333,4,2,1,45,0,0
39383,-133.333333333333,4,2,1,60,0,0
39883,-133.333333333333,4,2,1,45,0,0
40050,-133.333333333333,4,2,0,60,0,0
40133,-133.333333333333,4,2,1,60,0,0
41383,-133.333333333333,4,2,0,60,0,0
41467,-133.333333333333,4,2,1,60,0,0
42717,-100,4,2,0,70,0,0
42800,-100,4,2,1,70,0,0
43217,-100,4,2,0,70,0,0
43300,-100,4,2,1,70,0,0
44050,-100,4,2,0,70,0,0
44133,-100,4,2,1,70,0,0
44383,-100,4,2,0,60,0,0
44467,-100,4,2,1,50,0,0
44717,-100,4,2,0,50,0,0
44800,-100,4,2,1,50,0,0
45383,-100,4,2,0,70,0,0
45467,-100,4,2,1,70,0,0
46383,-100,4,2,0,70,0,0
46467,-100,4,2,1,70,0,0
47383,-100,4,2,0,70,0,0
47467,-100,4,2,1,70,0,0
48050,-100,4,2,0,70,0,0
48133,-100,4,2,1,70,0,0
50717,-100,4,2,0,70,0,0
50800,-100,4,2,1,70,0,0
53383,-100,4,2,0,70,0,0
53467,-100,4,2,1,70,0,0
54717,-100,4,2,0,70,0,0
54800,-100,4,2,1,70,0,0
56050,-100,4,2,0,70,0,0
56133,-100,4,2,1,70,0,0
58717,-100,4,2,0,70,0,0
58800,-100,4,2,1,70,0,0
60050,-100,4,2,0,70,0,0
60133,-100,4,2,1,70,0,0
61383,-100,4,2,0,70,0,0
61467,-100,4,2,1,70,0,0
62717,-100,4,2,0,70,0,0
62800,-100,4,2,1,70,0,0
64050,-100,4,2,0,70,0,0
64133,-100,4,2,1,70,0,0
64550,-100,4,2,0,75,0,0
64633,-100,4,2,1,75,0,0
65050,-100,4,2,0,80,0,0
65133,-100,4,2,1,80,0,0
65383,-86.9565217391304,4,2,0,85,0,0
65467,-86.9565217391304,4,2,1,85,0,0
65717,-86.9565217391304,4,2,0,85,0,0
65800,-86.9565217391304,4,2,1,85,0,0
66300,-86.9565217391304,4,2,1,65,0,0
66383,-86.9565217391304,4,2,1,45,0,0
66467,-86.9565217391304,4,2,1,25,0,0
66550,-86.9565217391304,4,2,1,15,0,0
66717,-90.9090909090909,4,2,0,90,0,1
66800,-90.9090909090909,4,2,1,90,0,1
68050,-90.9090909090909,4,2,0,90,0,1
68133,-90.9090909090909,4,2,1,90,0,1
69383,-90.9090909090909,4,2,0,90,0,1
69467,-90.9090909090909,4,2,1,90,0,1
70717,-90.9090909090909,4,2,0,90,0,1
70800,-90.9090909090909,4,2,1,90,0,1
72050,-90.9090909090909,4,2,0,90,0,1
72133,-90.9090909090909,4,2,1,90,0,1
73383,-90.9090909090909,4,2,0,90,0,1
73467,-90.9090909090909,4,2,1,90,0,1
74717,-90.9090909090909,4,2,0,90,0,1
74800,-90.9090909090909,4,2,1,90,0,1
76050,-90.9090909090909,4,2,0,90,0,1
76133,-90.9090909090909,4,2,1,90,0,1
77383,-90.9090909090909,4,2,0,90,0,1
77467,-90.9090909090909,4,2,1,90,0,1
78717,-90.9090909090909,4,2,0,90,0,1
78800,-90.9090909090909,4,2,1,90,0,1
80050,-90.9090909090909,4,2,0,90,0,1
80133,-90.9090909090909,4,2,1,90,0,1
82717,-90.9090909090909,4,2,0,90,0,1
82800,-90.9090909090909,4,2,1,90,0,1
85383,-90.9090909090909,4,2,0,90,0,1
85467,-90.9090909090909,4,2,1,90,0,1
86717,-90.9090909090909,4,2,0,90,0,1
86800,-90.9090909090909,4,2,1,90,0,1
88050,-90.9090909090909,4,2,0,90,0,1
88133,-90.9090909090909,4,2,1,90,0,1
89383,-90.9090909090909,4,2,0,90,0,1
89467,-90.9090909090909,4,2,1,90,0,1
90717,-90.9090909090909,4,2,0,90,0,1
90800,-90.9090909090909,4,2,1,90,0,1
92050,-90.9090909090909,4,2,0,90,0,1
92133,-90.9090909090909,4,2,1,90,0,1
93383,-90.9090909090909,4,2,0,90,0,1
93550,-90.9090909090909,4,2,1,70,0,1
93633,-90.9090909090909,4,2,1,90,0,1
93883,-90.9090909090909,4,2,0,90,0,1
94050,-90.9090909090909,4,2,1,70,0,1
94133,-90.9090909090909,4,2,1,90,0,1
94383,-90.9090909090909,4,2,0,90,0,1
94550,-90.9090909090909,4,2,1,70,0,1
94883,-90.9090909090909,4,2,0,90,0,1
95050,-90.9090909090909,4,2,1,70,0,1
95383,-90.9090909090909,4,2,0,90,0,1
95467,-90.9090909090909,4,2,1,70,0,1
95883,-90.9090909090909,4,2,0,90,0,1
95967,-90.9090909090909,4,2,1,90,0,1
98550,-90.9090909090909,4,2,0,80,0,0

[Colours]
Combo1 : 198,198,198
Combo2 : 255,142,199
Combo3 : 11,133,255

[HitObjects]
144,128,1384,6,0,P|104:152|60:156,1,90,2|0,0:0|0:0,0:0:0:0:
61,156,1883,1,0,0:0:0:0:
76,68,2050,1,2,0:0:0:0:
160,36,2217,1,0,0:0:0:0:
248,52,2383,6,0,P|264:128|200:228,2,180,2|0|2,0:0|0:0|0:0,0:0:0:0:
144,128,3383,1,2,0:0:0:0:
356,28,3717,1,2,0:0:0:0:
356,264,4050,5,2,0:0:0:0:
356,264,4383,1,0,0:0:0:0:
268,288,4550,2,0,P|184:268|104:312,1,180,2|0,0:0|0:0,0:0:0:0:
56,384,5050,1,2,0:0:0:0:
472,52,5717,5,2,0:0:0:0:
408,128,5883,1,0,0:0:0:0:
308,176,6050,1,2,0:0:0:0:
328,88,6217,1,0,0:0:0:0:
384,208,6383,1,2,0:0:0:0:
348,348,6550,1,0,0:0:0:0:
240,232,6717,6,0,P|284:264|324:264,1,90,2|0,0:0|0:0,0:0:0:0:
232,144,7050,1,2,0:0:0:0:
156,192,7217,1,0,0:0:0:0:
316,180,7383,1,2,0:0:0:0:
308,88,7550,1,0,0:0:0:0:
232,144,7717,1,2,0:0:0:0:
232,144,8217,5,0,0:0:0:0:
228,56,8383,1,2,0:0:0:0:
152,104,8550,1,0,0:0:0:0:
240,232,8717,1,2,0:0:0:0:
232,144,8883,1,0,0:0:0:0:
232,144,9050,2,0,L|140:204,1,90,2|0,0:0|0:0,0:0:0:0:
156,284,9383,6,0,P|180:316|232:332,1,90,2|0,0:0|0:0,0:0:0:0:
308,296,9717,1,0,0:0:0:0:
308,296,9883,2,0,P|352:292|392:272,1,90,2|0,0:0|0:0,0:0:0:0:
424,188,10217,1,0,0:0:0:0:
404,100,10383,1,2,0:0:0:0:
336,160,10550,5,4,0:0:0:0:
336,160,10633,1,0,0:0:0:0:
336,160,10717,1,4,0:0:0:0:
260,72,10883,1,0,0:0:0:0:
144,96,11050,2,0,L|44:96,1,90,4|0,0:0|0:0,0:0:0:0:
220,156,11383,1,4,0:0:0:0:
36,188,11550,1,8,0:0:0:0:
52,188,11633,1,8,0:0:0:0:
68,188,11717,1,0,0:0:0:0:
84,188,11800,1,0,0:0:0:0:
100,188,11883,1,0,0:0:0:0:
116,188,11967,1,0,0:0:0:0:
132,188,12050,6,0,P|156:224|160:284,1,90,6|0,0:0|0:0,0:0:0:0:
112,352,12383,2,0,P|156:344|200:360,1,90,8|0,0:0|0:0,0:0:0:0:
332,308,12717,1,10,0:0:0:0:
244,288,12883,1,0,0:0:0:0:
404,360,13050,2,0,P|444:340|472:296,1,90,10|0,0:0|0:0,0:0:0:0:
384,224,13383,6,0,P|340:208|284:220,1,90,8|0,0:0|0:0,0:0:0:0:
244,288,13717,2,0,P|200:272|144:284,1,90,10|0,0:0|0:0,0:0:0:0:
80,324,14050,1,10,0:0:0:0:
420,220,14383,1,10,0:0:0:0:
72,132,14717,5,10,0:0:0:0:
72,132,14883,1,0,0:0:0:0:
144,40,15050,1,8,0:0:0:0:
232,64,15217,2,0,L|336:64,1,90,2|8,0:0|0:0,0:0:0:0:
412,64,15550,1,0,0:0:0:0:
368,160,15717,2,0,L|264:160,1,90,10|0,0:0|0:0,0:0:0:0:
188,160,16050,5,8,0:0:0:0:
188,160,16383,1,10,0:0:0:0:
260,276,16550,1,0,0:0:0:0:
268,140,16717,1,10,0:0:0:0:
180,244,16883,1,0,0:0:0:0:
312,212,17050,1,10,0:0:0:0:
210,80,17217,1,0,0:0:0:0:
108,192,17383,5,6,0:0:0:0:
24,160,17550,1,2,0:0:0:0:
32,68,17717,1,10,0:0:0:0:
116,32,17883,1,0,0:0:0:0:
196,76,18050,1,10,0:0:0:0:
272,24,18217,1,2,0:0:0:0:
360,48,18383,6,0,L|464:48,1,90,10|0,0:0|0:0,0:0:0:0:
404,160,18717,2,0,L|300:160,1,90,8|0,0:0|0:0,0:0:0:0:
450,48,19050,1,10,0:0:0:0:
314,160,19217,1,0,0:0:0:0:
360,48,19383,1,10,0:0:0:0:
404,160,19550,1,0,0:0:0:0:
268,48,19717,2,0,P|224:44|168:68,1,90,10|0,0:0|0:0,0:0:0:0:
96,92,20050,6,0,P|128:168|100:264,1,180,10|8,0:0|0:0,0:0:0:0:
16,176,20550,2,0,L|120:176,1,90,2|8,0:0|0:0,0:0:0:0:
8,88,20883,1,0,0:0:0:0:
104,180,21050,2,0,L|194:180,1,90,10|0,0:0|0:0,0:0:0:0:
284,92,21383,6,0,L|194:92,1,90,4|0,0:0|0:0,0:0:0:0:
96,192,21717,2,0,L|186:192,1,90,8|0,0:0|0:0,0:0:0:0:
292,80,22050,1,8,0:0:0:0:
192,108,22217,1,8,0:0:0:0:
180,108,22300,1,8,0:0:0:0:
168,108,22383,1,0,0:0:0:0:
156,108,22467,1,0,0:0:0:0:
144,108,22550,1,0,0:0:0:0:
132,108,22633,1,0,0:0:0:0:
120,108,22717,5,2,0:0:0:0:
28,108,22883,1,2,0:0:0:0:
96,192,23050,2,0,L|92:280,1,67.5000025749208,2|0,0:0|0:0,0:0:0:0:
52,336,23383,2,0,P|88:344|124:340,1,67.5000025749208,2|0,0:0|0:0,0:0:0:0:
183,280,23717,2,0,P|215:272|249:274,1,67.5000025749208
332,304,24050,5,4,0:0:0:0:
332,304,24383,2,0,L|408:308,1,67.5000025749208,4|2,0:0|0:0,0:0:0:0:
484,284,24717,1,4,0:0:0:0:
452,204,24883,1,0,0:0:0:0:
364,212,25050,2,0,L|288:208,1,67.5000025749208,6|0,0:0|0:0,0:0:0:0:
243,140,25383,5,4,0:0:0:0:
216,224,25550,1,0,0:0:0:0:
332,128,25717,2,0,L|328:56,1,67.5000025749208,6|0,0:0|0:0,0:0:0:0:
152,156,26050,2,0,P|120:212|140:280,1,135.000005149842,4|4,0:0|0:0,0:0:0:0:
216,316,26550,1,0,0:0:0:0:
357,279,26717,6,0,L|364:212,1,67.5000025749208,6|0,0:0|0:0,0:0:0:0:
244,140,27050,2,0,L|237:72,1,67.5000025749208,4|2,0:0|0:0,0:0:0:0:
444,256,27383,2,0,L|450:188,1,67.5000025749208,4|0,0:0|0:0,0:0:0:0:
250,228,27717,2,0,L|256:296,1,67.5000025749208,6|0,0:0|0:0,0:0:0:0:
376,192,28050,5,4,0:0:0:0:
357,279,28217,1,0,0:0:0:0:
244,140,28383,1,6,0:0:0:0:
444,256,28550,1,0,0:0:0:0:
250,228,28717,1,6,0:0:0:0:
324,128,28883,1,4,0:0:0:0:
272,56,29050,2,0,P|234:55|192:60,1,67.5000025749208,8|0,0:0|0:0,0:0:0:0:
88,128,29383,6,0,P|126:129|168:124,1,67.5000025749208,4|0,0:0|0:0,0:0:0:0:
168,204,29717,2,0,P|156:240|152:284,1,67.5000025749208,4|2,0:0|0:0,0:0:0:0:
12,208,30050,2,0,P|50:207|92:212,1,67.5000025749208,4|0,0:0|0:0,0:0:0:0:
308,128,30383,6,0,P|240:136|176:116,2,135.000005149842,6|4|4,0:0|0:0|0:0,0:0:0:0:
376,72,31217,1,0,0:0:0:0:
456,104,31383,2,0,P|464:136|464:184,1,67.5000025749208,4|0,0:0|0:0,0:0:0:0:
372,212,31717,2,0,P|364:244|364:292,1,67.5000025749208,6|0,0:0|0:0,0:0:0:0:
412,352,32050,5,6,0:0:0:0:
460,264,32217,1,0,0:0:0:0:
372,212,32383,1,6,0:0:0:0:
276,248,32550,1,2,0:0:0:0:
184,208,32717,2,0,L|96:212,1,67.5000025749208,4|0,0:0|0:0,0:0:0:0:
260,164,33050,5,4,0:0:0:0:
200,292,33217,1,0,0:0:0:0:
276,248,33383,1,4,0:0:0:0:
340,136,33550,1,0,0:0:0:0:
384,60,33717,2,0,P|368:28|336:0,1,67.5000025749208,4|0,0:0|0:0,0:0:0:0:
428,136,34050,2,0,P|444:168|476:196,1,67.5000025749208,4|8,0:0|0:0,0:0:0:0:
288,64,34383,2,0,L|196:68,1,67.5000025749208,4|4,0:0|0:0,0:0:0:0:
148,116,34717,6,0,P|84:104|8:144,1,135.000005149842,4|4,0:0|0:0,0:0:0:0:
96,200,35217,2,0,L|92:276,1,67.5000025749208,2|4,0:0|0:0,0:0:0:0:
148,116,35550,1,0,0:0:0:0:
184,196,35717,6,0,L|324:216,2,135.000005149842,6|4|6,0:0|0:0|0:0,0:0:0:0:
60,116,36550,1,0,0:0:0:0:
232,108,36717,2,0,P|236:70|232:36,1,67.5000025749208,4|0,0:0|0:0,0:0:0:0:
96,200,37050,2,0,P|92:237|96:272,1,67.5000025749208,4|0,0:0|0:0,0:0:0:0:
148,116,37383,6,0,P|140:80|116:44,1,67.5000025749208,6|0,0:0|0:0,0:0:0:0:
180,236,37717,2,0,P|188:272|212:308,1,67.5000025749208,4|2,0:0|0:0,0:0:0:0:
332,264,38050,2,0,P|300:244|258:235,1,67.5000025749208,4|0,0:0|0:0,0:0:0:0:
232,108,38383,2,0,L|316:96,1,67.5000025749208,6|0,0:0|0:0,0:0:0:0:
388,84,38717,5,4,0:0:0:0:
464,128,38883,1,0,0:0:0:0:
396,184,39050,1,6,0:0:0:0:
464,240,39217,1,8,0:0:0:0:
320,140,39383,1,6,0:0:0:0:
332,264,39550,2,0,P|304:244|264:232,1,67.5000025749208,0|4,0:0|0:0,0:0:0:0:
44,268,39883,1,8,0:0:0:0:
160,336,40050,6,0,L|152:176,1,135.000005149842,4|4,0:0|0:0,0:0:0:0:
36,112,40550,2,0,L|40:204,1,67.5000025749208,2|4,0:0|0:0,0:0:0:0:
44,268,40883,1,0,0:0:0:0:
152,116,41050,2,0,L|148:40,1,67.5000025749208,4|0,0:0|0:0,0:0:0:0:
120,196,41383,6,0,L|124:276,1,67.5000025749208,6|0,0:0|0:0,0:0:0:0:
8,192,41717,1,4,0:0:0:0:
96,48,41883,2,0,P|160:29|220:60,1,135.000005149842,2|0,0:0|0:0,0:0:0:0:
280,120,42383,2,0,L|356:120,1,67.5000025749208,8|4,0:0|0:0,0:0:0:0:
232,212,42717,6,0,L|344:212,1,90,4|0,0:0|0:0,0:0:0:0:
412,212,43050,1,8,0:0:0:0:
280,120,43217,2,0,L|168:120,1,90,4|4,0:0|0:0,0:0:0:0:
364,120,43550,1,0,0:0:0:0:
276,300,43717,2,0,L|388:300,1,90,8|0,0:0|0:0,0:0:0:0:
188,128,44050,6,0,L|76:128,1,90,4|0,0:0|0:0,0:0:0:0:
0,212,44383,2,0,L|112:212,1,90,4|8,0:0|0:0,0:0:0:0:
180,304,44717,2,0,L|68:304,1,90,4|0,0:0|0:0,0:0:0:0:
0,212,45050,1,8,0:0:0:0:
44,212,45133,1,8,0:0:0:0:
88,212,45217,1,8,0:0:0:0:
132,212,45300,1,8,0:0:0:0:
176,212,45383,5,6,0:0:0:0:
256,256,45550,1,4,0:0:0:0:
336,300,45717,1,4,0:0:0:0:
444,216,45883,1,10,0:0:0:0:
188,24,46217,5,0,0:0:0:0:
180,116,46383,2,0,L|264:164,1,90,6|0,0:0|0:0,0:0:0:0:
336,208,46717,1,4,0:0:0:0:
448,116,46883,1,10,0:0:0:0:
100,64,47217,5,4,0:0:0:0:
24,112,47383,2,0,P|8:156|12:208,1,90,6|0,0:0|0:0,0:0:0:0:
252,164,47717,2,0,P|294:144|328:104,1,90,2|0,0:0|0:0,0:0:0:0:
172,200,48050,6,0,L|80:244,1,90,4|0,0:0|0:0,0:0:0:0:
12,280,48383,1,8,0:0:0:0:
252,164,48550,2,0,L|348:180,1,90,2|4,0:0|0:0,0:0:0:0:
280,60,48883,2,0,L|184:76,1,90,4|8,0:0|0:0,0:0:0:0:
244,252,49217,1,0,0:0:0:0:
400,240,49383,6,0,P|420:196|416:140,1,90,0|4,0:0|0:0,0:0:0:0:
325,134,49717,2,0,P|310:92|280:60,1,90,8|0,0:0|0:0,0:0:0:0:
188,88,50050,1,6,0:0:0:0:
88,52,50217,1,4,0:0:0:0:
88,52,50300,1,0,0:0:0:0:
88,52,50383,1,8,0:0:0:0:
36,136,50550,1,0,0:0:0:0:
128,172,50717,6,0,P|176:172|224:188,1,90,4|0,0:0|0:0,0:0:0:0:
288,236,51050,1,8,0:0:0:0:
216,288,51217,2,0,P|168:288|120:304,1,90
288,236,51550,2,0,P|336:236|384:220,1,90,4|8,0:0|0:0,0:0:0:0:
444,164,51883,1,0,0:0:0:0:
400,84,52050,5,2,0:0:0:0:
312,108,52217,1,0,0:0:0:0:
312,108,52300,1,0,0:0:0:0:
312,108,52383,2,0,L|212:108,1,90,8|2,0:0|0:0,0:0:0:0:
132,108,52717,1,4,0:0:0:0:
312,108,52883,1,4,0:0:0:0:
224,24,53050,2,0,L|124:24,1,90,10|0,0:0|0:0,0:0:0:0:
52,64,53383,6,0,P|20:96|8:148,1,90,4|0,0:0|0:0,0:0:0:0:
5,231,53717,1,8,0:0:0:0:
68,296,53883,1,0,0:0:0:0:
136,236,54050,2,0,P|168:204|228:188,1,90,2|4,0:0|0:0,0:0:0:0:
300,188,54383,1,8,0:0:0:0:
180,108,54550,5,0,0:0:0:0:
180,108,54633,1,0,0:0:0:0:
180,108,54717,2,0,P|220:84|264:80,1,90,6|0,0:0|0:0,0:0:0:0:
332,172,55050,2,0,P|372:196|416:200,1,90,8|0,0:0|0:0,0:0:0:0:
468,124,55383,1,8,0:0:0:0:
236,204,55550,1,8,0:0:0:0:
200,196,55633,1,8,0:0:0:0:
164,200,55717,1,8,0:0:0:0:
132,216,55800,1,8,0:0:0:0:
108,244,55883,1,8,0:0:0:0:
96,280,55966,1,0,0:0:0:0:
96,316,56050,5,6,0:0:0:0:
188,284,56217,1,0,0:0:0:0:
260,348,56383,1,8,0:0:0:0:
404,332,56550,1,2,0:0:0:0:
132,120,56883,5,4,0:0:0:0:
116,216,57050,1,10,0:0:0:0:
208,184,57217,1,0,0:0:0:0:
280,248,57383,1,0,0:0:0:0:
440,228,57550,1,6,0:0:0:0:
396,148,57717,6,0,L|296:156,1,90,8|0,0:0|0:0,0:0:0:0:
260,88,57967,1,0,0:0:0:0:
260,88,58050,2,0,L|160:80,1,90,6|4,0:0|0:0,0:0:0:0:
352,68,58383,2,0,L|452:60,1,90,10|0,0:0|0:0,0:0:0:0:
304,172,58717,6,0,P|228:176|168:88,1,180,6|8,0:0|0:0,0:0:0:0:
88,44,59217,2,0,P|80:92|56:128,1,90,0|4,0:0|0:0,0:0:0:0:
148,272,59550,2,0,P|124:234|117:189,1,90,4|10,0:0|0:0,0:0:0:0:
168,116,59883,1,0,0:0:0:0:
248,204,60050,6,0,P|268:244|268:300,1,90,4|0,0:0|0:0,0:0:0:0:
148,272,60383,1,14,0:0:0:0:
256,120,60550,1,0,0:0:0:0:
256,120,60633,1,0,0:0:0:0:
256,120,60717,2,0,L|376:120,1,90,6|4,0:0|0:0,0:0:0:0:
436,204,61050,2,0,L|316:204,1,90,8|0,0:0|0:0,0:0:0:0:
212,40,61383,6,0,P|136:28|52:96,1,180,4|8,0:0|0:0,0:0:0:0:
36,176,61883,1,2,0:0:0:0:
152,116,62050,2,0,L|148:220,1,90,4|4,0:0|0:0,0:0:0:0:
76,340,62383,2,0,L|80:236,1,90,8|0,0:0|0:0,0:0:0:0:
240,124,62717,6,0,P|332:140|404:96,1,180,4|8,0:0|0:0,0:0:0:0:
436,12,63217,1,2,0:0:0:0:
492,84,63383,1,4,0:0:0:0:
312,52,63550,1,8,0:0:0:0:
272,32,63633,1,0,0:0:0:0:
228,28,63717,1,10,0:0:0:0:
184,32,63800,1,0,0:0:0:0:
144,52,63883,1,0,0:0:0:0:
112,84,63967,1,0,0:0:0:0:
96,126,64050,6,0,L|100:232,1,90,4|0,0:0|0:0,0:0:0:0:
104,308,64383,1,4,0:0:0:0:
196,272,64550,2,0,L|200:166,1,90,4|0,0:0|0:0,0:0:0:0:
204,84,64883,1,4,0:0:0:0:
308,116,65050,2,0,L|312:222,1,90,4|0,0:0|0:0,0:0:0:0:
416,292,65383,6,0,L|420:184,1,103.500001974106,4|4,0:0|0:0,0:0:0:0:
96,92,65717,2,0,L|92:200,1,103.500001974106,4|0,0:0|0:0,0:0:0:0:
300,312,66050,5,8,0:0:0:0:
336,276,66133,1,8,0:0:0:0:
356,228,66217,1,8,0:0:0:0:
352,176,66300,1,8,0:0:0:0:
324,132,66383,1,8,0:0:0:0:
276,112,66467,1,8,0:0:0:0:
224,112,66550,1,8,0:0:0:0:
180,140,66633,1,0,0:0:0:0:
160,188,66717,6,0,L|140:288,1,99.0000030212403,6|0,0:0|0:0,0:0:0:0:
260,208,67050,1,8,0:0:0:0:
96,92,67217,2,0,P|56:120|36:168,1,99.0000030212403,2|4,0:0|0:0,0:0:0:0:
40,260,67550,1,4,0:0:0:0:
100,336,67717,2,0,P|148:348|196:336,1,99.0000030212403,10|0,0:0|0:0,0:0:0:0:
355,208,68050,6,0,P|307:196|260:208,1,99.0000030212403,4|0,0:0|0:0,0:0:0:0:
308,332,68383,2,0,P|356:344|404:332,1,99.0000030212403,8|0,0:0|0:0,0:0:0:0:
272,148,68717,1,4,0:0:0:0:
141,240,68883,1,4,0:0:0:0:
141,240,68967,1,0,0:0:0:0:
141,240,69050,2,0,L|240:240,1,99.0000030212403,8|0,0:0|0:0,0:0:0:0:
156,144,69383,6,0,P|132:100|136:48,1,99.0000030212403,4|0,0:0|0:0,0:0:0:0:
220,8,69717,1,8,0:0:0:0:
152,232,69883,2,0,P|76:192|84:88,1,198.000006042481,2|4,0:0|0:0,0:0:0:0:
156,60,70300,1,0,0:0:0:0:
156,60,70383,2,0,L|264:56,1,99.0000030212403,10|0,0:0|0:0,0:0:0:0:
440,92,70717,6,0,L|332:96,1,99.0000030212403,4|0,0:0|0:0,0:0:0:0:
257,145,71050,2,0,P|254:194|228:236,1,99.0000030212403,8|0,0:0|0:0,0:0:0:0:
292,312,71383,2,0,P|392:292|476:352,1,198.000006042481,6|8,0:0|0:0,0:0:0:0:
340,212,71883,1,0,0:0:0:0:
244,232,72050,6,0,L|136:232,1,99.0000030212403,4|0,0:0|0:0,0:0:0:0:
56,280,72383,1,8,0:0:0:0:
168,148,72550,2,0,P|160:96|132:60,1,99.0000030212403,2|4,0:0|0:0,0:0:0:0:
64,192,72883,1,4,0:0:0:0:
140,320,73050,2,0,L|248:320,1,99.0000030212403,8|0,0:0|0:0,0:0:0:0:
420,292,73383,6,0,L|312:292,1,99.0000030212403,6|0,0:0|0:0,0:0:0:0:
244,232,73717,1,8,0:0:0:0:
336,196,73883,2,0,P|308:156|252:136,1,99.0000030212403,0|6,0:0|0:0,0:0:0:0:
168,148,74217,1,4,0:0:0:0:
420,208,74383,1,8,0:0:0:0:
372,88,74550,1,0,0:0:0:0:
244,232,74717,6,0,L|220:340,1,99.0000030212403,4|0,0:0|0:0,0:0:0:0:
256,144,75050,1,8,0:0:0:0:
184,268,75217,2,0,L|300:296,1,99.0000030212403,0|4,0:0|0:0,0:0:0:0:
112,212,75550,1,4,0:0:0:0:
112,212,75633,1,0,0:0:0:0:
112,212,75717,2,0,L|-4:232,1,99.0000030212403,8|0,0:0|0:0,0:0:0:0:
76,56,76050,6,0,P|128:48|180:72,1,99.0000030212403,6|0,0:0|0:0,0:0:0:0:
256,144,76383,2,0,P|308:152|360:128,1,99.0000030212403,8|0,0:0|0:0,0:0:0:0:
412,60,76717,1,6,0:0:0:0:
500,104,76883,1,4,0:0:0:0:
500,104,76967,1,0,0:0:0:0:
500,104,77050,2,0,L|496:224,1,99.0000030212403,8|0,0:0|0:0,0:0:0:0:
488,300,77383,5,6,0:0:0:0:
412,236,77550,1,0,0:0:0:0:
344,308,77717,1,8,0:0:0:0:
256,352,77883,2,0,P|208:356|156:332,1,99.0000030212403,0|4,0:0|0:0,0:0:0:0:
96,260,78217,2,0,P|100:212|76:160,1,99.0000030212403,4|8,0:0|0:0,0:0:0:0:
12,96,78550,1,0,0:0:0:0:
180,188,78717,6,0,L|292:184,1,99.0000030212403,2|0,0:0|0:0,0:0:0:0:
380,96,79050,2,0,L|244:100,1,99.0000030212403,8|0,0:0|0:0,0:0:0:0:
176,100,79383,2,0,P|144:60|92:40,1,99.0000030212403,4|4,0:0|0:0,0:0:0:0:
180,188,79717,1,8,0:0:0:0:
261,28,79883,1,0,0:0:0:0:
352,184,80050,6,0,P|400:184|444:152,1,99.0000030212403,4|0,0:0|0:0,0:0:0:0:
272,124,80383,1,8,0:0:0:0:
176,100,80550,2,0,P|124:96|68:120,1,99.0000030212403,0|4,0:0|0:0,0:0:0:0:
12,180,80883,2,0,P|16:232|-8:288,1,99.0000030212403,4|8,0:0|0:0,0:0:0:0:
84,328,81217,1,0,0:0:0:0:
180,316,81383,6,0,P|212:280|224:228,1,99.0000030212403,2|0,0:0|0:0,0:0:0:0:
39,183,81717,2,0,P|76:216|124:228,1,99.0000030212403,8|0,0:0|0:0,0:0:0:0:
128,128,82050,2,0,P|139:80|172:43,1,99.0000030212403,6|4,0:0|0:0,0:0:0:0:
268,24,82383,1,8,0:0:0:0:
360,60,82550,5,0,0:0:0:0:
360,60,82633,1,0,0:0:0:0:
360,60,82717,2,0,L|480:60,1,99.0000030212403,6|0,0:0|0:0,0:0:0:0:
412,148,83050,1,8,0:0:0:0:
288,112,83217,2,0,L|168:112,1,99.0000030212403,2|4,0:0|0:0,0:0:0:0:
236,200,83550,1,4,0:0:0:0:
360,60,83717,1,8,0:0:0:0:
340,196,83883,6,0,P|308:284|208:308,1,198.000006042481
136,248,84383,2,0,P|92:240|36:252,1,99.0000030212403,8|0,0:0|0:0,0:0:0:0:
160,164,84717,2,0,P|188:124|196:72,1,99.0000030212403,6|4,0:0|0:0,0:0:0:0:
136,0,85050,1,10,0:0:0:0:
12,40,85217,5,0,0:0:0:0:
12,40,85300,1,0,0:0:0:0:
12,40,85383,2,0,L|16:148,1,99.0000030212403,4|0,0:0|0:0,0:0:0:0:
160,164,85717,1,8,0:0:0:0:
44,280,85883,2,0,L|4:320,2,49.5000015106202,0|0|4,0:0|0:0|0:0,0:0:0:0:
52,172,86217,1,4,0:0:0:0:
156,272,86383,1,10,0:0:0:0:
160,164,86550,1,0,0:0:0:0:
44,280,86717,5,4,0:0:0:0:
100,88,86884,1,0,0:0:0:0:
100,88,86967,1,0,0:0:0:0:
100,88,87051,2,0,P|148:72|204:88,1,99.0000030212403,8|0,0:0|0:0,0:0:0:0:
236,224,87383,2,0,P|284:240|340:224,1,99.0000030212403,6|4,0:0|0:0,0:0:0:0:
408,168,87717,1,8,0:0:0:0:
352,88,87883,5,0,0:0:0:0:
352,88,87967,1,0,0:0:0:0:
352,88,88050,2,0,L|244:92,1,99.0000030212403,4|0,0:0|0:0,0:0:0:0:
176,152,88383,1,8,0:0:0:0:
200,8,88550,2,0,L|308:4,1,99.0000030212403,0|4,0:0|0:0,0:0:0:0:
400,0,88883,1,4,0:0:0:0:
320,172,89050,1,8,0:0:0:0:
260,96,89217,1,0,0:0:0:0:
176,152,89383,5,6,0:0:0:0:
116,72,89550,1,4,0:0:0:0:
236,232,89717,1,2,0:0:0:0:
136,244,89883,1,0,0:0:0:0:
76,164,90050,1,2,0:0:0:0:
204,16,90217,1,4,0:0:0:0:
348,88,90383,2,0,P|396:80|452:100,1,99.0000030212403,8|0,0:0|0:0,0:0:0:0:
420,252,90717,6,0,P|372:244|316:264,1,99.0000030212403,6|0,0:0|0:0,0:0:0:0:
248,200,91050,1,8,0:0:0:0:
176,264,91217,2,0,P|128:272|72:252,1,99.0000030212403,2|4,0:0|0:0,0:0:0:0:
16,188,91550,1,4,0:0:0:0:
124,352,91717,1,8,0:0:0:0:
312,292,91883,5,2,0:0:0:0:
312,292,91967,1,0,0:0:0:0:
312,292,92050,2,0,P|348:256|360:200,1,99.0000030212403,4|4,0:0|0:0,0:0:0:0:
200,92,92383,2,0,P|164:128|152:184,1,99.0000030212403,8|0,0:0|0:0,0:0:0:0:
366,223,92717,2,0,P|366:172|335:124,1,99.0000030212403,8|4,0:0|0:0,0:0:0:0:
145,160,93050,2,0,P|145:211|176:259,1,99.0000030212403,8|0,0:0|0:0,0:0:0:0:
356,136,93383,5,6,0:0:0:0:
296,48,93550,1,4,0:0:0:0:
200,92,93717,1,2,0:0:0:0:
260,180,93883,5,6,0:0:0:0:
188,248,94050,1,4,0:0:0:0:
284,276,94217,1,2,0:0:0:0:
145,160,94383,5,6,0:0:0:0:
284,276,94550,1,4,0:0:0:0:
188,248,94717,1,6,0:0:0:0:
368,224,94883,5,6,0:0:0:0:
216,332,95050,1,4,0:0:0:0:
145,160,95217,1,6,0:0:0:0:
60,208,95383,2,0,P|44:256|60:308,1,99.0000030212403,4|4,0:0|0:0,0:0:0:0:
144,160,95717,1,6,0:0:0:0:
240,180,95883,6,0,L|339:180,1,99.0000030212403,4|0,0:0|0:0,0:0:0:0:
436,180,96217,1,2,0:0:0:0:
384,64,96383,2,0,L|285:64,1,99.0000030212403,2|0,0:0|0:0,0:0:0:0:
184,64,96717,1,2,0:0:0:0:
68,200,96883,2,0,L|68:336,1,99.0000030212403,2|0,0:0|0:0,0:0:0:0:
144,364,97217,1,2,0:0:0:0:
356,336,97383,6,0,P|380:292|384:240,1,99.0000030212403,2|0,0:0|0:0,0:0:0:0:
340,156,97717,2,0,P|292:160|244:144,1,99.0000030212403,2|0,0:0|0:0,0:0:0:0:
28,112,98050,2,0,P|76:108|124:124,1,99.0000030212403,2|0,0:0|0:0,0:0:0:0:
172,208,98383,1,2,0:0:0:0:
244,276,98550,1,6,0:0:0:0:
