osu file format v14

[General]
AudioFilename: hana.mp3
AudioLeadIn: 0
PreviewTime: 63967
Countdown: 1
SampleSet: Soft
StackLeniency: 0.7
Mode: 0
LetterboxInBreaks: 0
WidescreenStoryboard: 0

[Editor]
DistanceSpacing: 1.5
BeatDivisor: 4
GridSize: 4
TimelineZoom: 2.4

[Metadata]
Title:Sakura no Uta
TitleUnicode:櫻ノ詩
Artist:Hana
ArtistUnicode:はな
Creator:kusano
Version:Easy
Source:サクラノ詩 -櫻の森の上を舞う-
Tags:Sakura no uta -Sakura no Mori no Ue o Mau- opening Eroge Metrowing Makura 枕
BeatmapID:673567
BeatmapSetID:299403

[Difficulty]
HPDrainRate:2
CircleSize:2.5
OverallDifficulty:2
ApproachRate:3
SliderMultiplier:0.9
SliderTickRate:1

[Events]
//Background and Video events
Video,0,"hana.avi"
0,0,"sakura.jpg",0,0
//Break Periods
//Storyboard Layer 0 (Background)
//Storyboard Layer 1 (Fail)
//Storyboard Layer 2 (Pass)
//Storyboard Layer 3 (Foreground)
//Storyboard Sound Samples

[TimingPoints]
1384,333.333333333333,4,2,1,55,1,0
10717,-100,4,2,0,70,0,0
10800,-100,4,2,1,70,0,0
11383,-100,4,2,0,70,0,0
11467,-100,4,2,1,70,0,0
12050,-100,4,2,0,60,0,0
12133,-100,4,2,1,60,0,0
17383,-100,4,2,0,60,0,0
17467,-100,4,2,1,60,0,0
21383,-100,4,2,0,70,0,0
21467,-100,4,2,1,70,0,0
24050,-100,4,2,0,60,0,0
24133,-100,4,2,1,60,0,0
29050,-100,4,2,1,45,0,0
29383,-100,4,2,0,50,0,0
29467,-100,4,2,1,60,0,0
34717,-100,4,2,0,50,0,0
34800,-100,4,2,1,60,0,0
40050,-100,4,2,0,60,0,0
40133,-100,4,2,1,60,0,0
41383,-100,4,2,0,60,0,0
41467,-100,4,2,1,60,0,0
42717,-100,4,2,0,70,0,0
42800,-100,4,2,1,70,0,0
44050,-100,4,2,0,70,0,0
44133,-100,4,2,1,70,0,0
45383,-100,4,2,0,70,0,0
45467,-100,4,2,1,70,0,0
46383,-100,4,2,0,70,0,0
46467,-100,4,2,1,70,0,0
47383,-100,4,2,0,70,0,0
47467,-100,4,2,1,70,0,0
48050,-100,4,2,0,70,0,0
48133,-100,4,2,1,70,0,0
50717,-100,4,2,0,70,0,0
50800,-100,4,2,1,70,0,0
53383,-100,4,2,0,70,0,0
53467,-100,4,2,1,70,0,0
54717,-100,4,2,0,70,0,0
54800,-100,4,2,1,70,0,0
56050,-100,4,2,0,70,0,0
56133,-100,4,2,1,70,0,0
58717,-100,4,2,0,70,0,0
58800,-100,4,2,1,70,0,0
60050,-100,4,2,0,70,0,0
60133,-100,4,2,1,70,0,0
61383,-100,4,2,0,70,0,0
61467,-100,4,2,1,70,0,0
62717,-100,4,2,0,70,0,0
62800,-100,4,2,1,70,0,0
64050,-100,4,2,0,70,0,0
64133,-100,4,2,1,70,0,0
64550,-100,4,2,0,75,0,0
64633,-100,4,2,1,75,0,0
65050,-100,4,2,0,80,0,0
65383,-100,4,2,0,85,0,0
65467,-100,4,2,1,85,0,0
65717,-100,4,2,0,85,0,0
65800,-100,4,2,1,85,0,0
66717,-100,4,2,0,90,0,1
66800,-100,4,2,1,90,0,1
68050,-100,4,2,0,90,0,1
68133,-100,4,2,1,90,0,1
69383,-100,4,2,0,90,0,1
69467,-100,4,2,1,90,0,1
72050,-100,4,2,0,90,0,1
72133,-100,4,2,1,90,0,1
73383,-100,4,2,0,90,0,1
73467,-100,4,2,1,90,0,1
74717,-100,4,2,0,90,0,1
74800,-100,4,2,1,90,0,1
76050,-100,4,2,0,90,0,1
76133,-100,4,2,1,90,0,1
77383,-100,4,2,0,90,0,1
77467,-100,4,2,1,90,0,1
80050,-100,4,2,0,90,0,1
80133,-100,4,2,1,90,0,1
82717,-100,4,2,0,90,0,1
82800,-100,4,2,1,90,0,1
85383,-100,4,2,0,90,0,1
85467,-100,4,2,1,90,0,1
86717,-100,4,2,0,90,0,1
86800,-100,4,2,1,90,0,1
88050,-100,4,2,0,90,0,1
88133,-100,4,2,1,90,0,1
89383,-100,4,2,0,90,0,1
89467,-100,4,2,1,90,0,1
90717,-100,4,2,0,90,0,1
90800,-100,4,2,1,90,0,1
92050,-100,4,2,0,90,0,1
92133,-100,4,2,1,90,0,1
93383,-100,4,2,0,90,0,1
93467,-100,4,2,1,90,0,1
93883,-100,4,2,0,90,0,1
93967,-100,4,2,1,90,0,1
94383,-100,4,2,0,90,0,1
94967,-100,4,2,1,90,0,1
95383,-100,4,2,0,90,0,1
95467,-100,4,2,1,90,0,1
95883,-100,4,2,0,90,0,1
95967,-100,4,2,1,90,0,1
98550,-100,4,2,0,80,0,0

[Colours]
Combo1 : 198,198,198
Combo2 : 255,142,199
Combo3 : 11,133,255

[HitObjects]
224,96,1384,6,0,P|136:88|60:136,1,180,2|0,0:0|0:0,0:0:0:0:
44,224,2383,1,2,0:0:0:0:
224,224,3050,2,0,L|328:224,2,90,2|0|0,0:0|0:0|0:0,0:0:0:0:
136,224,4050,6,0,P|116:156|136:96,2,135,2|0|2,0:0|0:0|0:0,0:0:0:0:
264,96,5717,2,0,L|368:96,1,90,2|2,0:0|0:0,0:0:0:0:
444,96,6383,1,2,0:0:0:0:
400,176,6717,6,0,P|336:224|232:204,1,180,2|0,0:0|0:0,0:0:0:0:
176,148,7717,1,2,0:0:0:0:
248,316,8383,2,0,L|352:316,2,90,0|2|0,0:0|0:0|0:0,0:0:0:0:
168,272,9383,6,0,L|28:272,2,135,2|2|2,0:0|0:0|0:0,0:0:0:0:
244,224,10717,2,0,L|352:224,1,90,4|8,0:0|0:0,0:0:0:0:
424,224,11383,2,0,P|436:176|424:132,1,90,0|8,0:0|0:0,0:0:0:0:
336,136,12050,6,0,L|148:136,2,180,4|8|8,0:0|0:0|0:0,0:0:0:0:
426,137,13717,2,0,P|435:181|424:224,1,90,10|10,0:0|0:0,0:0:0:0:
360,288,14383,1,10,0:0:0:0:
288,232,14717,6,0,P|224:224|160:256,2,135,10|2|8,0:0|0:0|0:0,0:0:0:0:
412,100,16383,1,10,0:0:0:0:
328,68,16717,1,10,0:0:0:0:
244,100,17050,1,10,0:0:0:0:
160,68,17383,6,0,L|56:68,1,90,4|8,0:0|0:0,0:0:0:0:
68,160,18050,2,0,L|168:160,1,90,8|8,0:0|0:0,0:0:0:0:
160,252,18717,1,8,0:0:0:0:
252,252,19050,2,0,L|352:252,2,90,8|8|8,0:0|0:0|0:0,0:0:0:0:
160,252,20050,6,0,L|24:252,2,135,10|2|10,0:0|0:0|0:0,0:0:0:0:
252,252,21383,2,0,L|352:252,1,90,4|8,0:0|0:0,0:0:0:0:
432,252,22050,2,0,P|440:208|432:156,2,90,8|0|8,0:0|0:0|0:0,0:0:0:0:
104,100,24050,6,0,L|296:100,1,180,4|4,0:0|0:0,0:0:0:0:
376,100,25050,2,0,P|452:148|460:244,1,180,6|6,0:0|0:0,0:0:0:0:
400,296,26050,2,0,L|308:296,1,90,4|4,0:0|0:0,0:0:0:0:
244,236,26717,6,0,P|208:224|144:240,2,90,6|4|4,0:0|0:0|0:0,0:0:0:0:
324,192,27717,2,0,P|360:204|424:188,2,90,6|4|6,0:0|0:0|0:0,0:0:0:0:
252,136,28717,2,0,P|212:124|152:128,1,90,6|8,0:0|0:0,0:0:0:0:
76,148,29383,6,0,P|40:228|72:312,1,180,4|4,0:0|0:0,0:0:0:0:
160,316,30383,2,0,L|360:316,1,180,6|4,0:0|0:0,0:0:0:0:
432,316,31383,1,4,0:0:0:0:
432,224,31717,1,4,0:0:0:0:
340,224,32050,6,0,L|192:224,2,135,6|2|4,0:0|0:0|0:0,0:0:0:0:
388,56,33717,2,0,L|296:56,1,90,4|4,0:0|0:0,0:0:0:0:
208,56,34383,1,4,0:0:0:0:
116,56,34717,6,0,P|72:104|64:176,2,135,4|2|6,0:0|0:0|0:0,0:0:0:0:
204,216,36383,2,0,L|312:216,2,90,6|4|4,0:0|0:0|0:0,0:0:0:0:
144,148,37383,2,0,L|36:148,2,90,6|4|4,0:0|0:0|0:0,0:0:0:0:
208,84,38383,2,0,P|288:52|376:88,1,180,6|6,0:0|0:0,0:0:0:0:
372,176,39383,2,0,L|372:272,1,90,4|4,0:0|0:0,0:0:0:0:
280,268,40050,6,0,L|136:268,2,135,4|2|4,0:0|0:0|0:0,0:0:0:0:
372,268,41383,2,0,L|516:268,2,135,4|2|4,0:0|0:0|0:0,0:0:0:0:
332,184,42717,6,0,P|272:152|200:156,2,135,4|2|4,0:0|0:0|0:0,0:0:0:0:
372,268,44050,2,0,P|432:300|504:296,2,135,4|2|4,0:0|0:0|0:0,0:0:0:0:
372,176,45383,6,0,L|372:24,1,135,6|8,0:0|0:0,0:0:0:0:
236,44,46383,2,0,L|236:196,1,135,6|8,0:0|0:0,0:0:0:0:
100,180,47383,2,0,L|-4:180,2,90,4|2|4,0:0|0:0|0:0,0:0:0:0:
100,272,48383,6,0,P|180:308|264:276,1,180,8|8,0:0|0:0,0:0:0:0:
288,192,49383,1,0,0:0:0:0:
264,104,49717,2,0,P|184:68|100:100,1,180,8|8,0:0|0:0,0:0:0:0:
76,184,50717,5,4,0:0:0:0:
168,184,51050,2,0,P|180:228|168:276,2,90,8|0|8,0:0|0:0|0:0,0:0:0:0:
124,104,52050,1,2,0:0:0:0:
184,36,52383,2,0,P|272:16|352:52,1,180,8|8,0:0|0:0,0:0:0:0:
392,132,53383,6,0,L|392:236,1,90,4|8,0:0|0:0,0:0:0:0:
388,312,54050,2,0,P|340:320|292:308,1,90,4|8,0:0|0:0,0:0:0:0:
220,264,54717,2,0,P|176:260|120:276,1,90,4|8,0:0|0:0,0:0:0:0:
56,316,55383,1,8,0:0:0:0:
168,172,56050,6,0,L|168:32,1,135,4|8,0:0|0:0,0:0:0:0:
304,36,57050,2,0,L|304:176,1,135,8|8,0:0|0:0,0:0:0:0:
304,308,58050,2,0,L|200:308,2,90,6|8|6,0:0|0:0|0:0,0:0:0:0:
396,308,59050,6,0,P|452:236|456:144,1,180,8|8,0:0|0:0,0:0:0:0:
428,64,60050,1,4,0:0:0:0:
336,64,60383,2,0,L|236:64,1,90,8|2,0:0|0:0,0:0:0:0:
156,64,61050,1,8,0:0:0:0:
156,156,61383,6,8,L|156:296,2,135,4|2|8,0:0|0:0|0:0,0:0:0:0:
248,152,62717,2,0,L|388:152,2,135,4|2|8,0:0|0:0|0:0,0:0:0:0:
156,152,64050,6,0,P|92:136|20:156,2,135,4|4|4,0:0|0:0|0:0,0:0:0:0:
156,244,65383,2,0,L|256:244,1,90,4|4,0:0|0:0,0:0:0:0:
336,244,66050,2,0,P|416:216|456:132,1,180,8|4,0:0|0:0,0:0:0:0:
428,48,67050,6,0,L|324:48,1,90,8|0,0:0|0:0,0:0:0:0:
248,48,67717,2,0,P|200:40|156:48,1,90,10|4,0:0|0:0,0:0:0:0:
88,104,68383,1,8,0:0:0:0:
172,140,68717,2,0,P|180:188|168:232,1,90,2|8,0:0|0:0,0:0:0:0:
120,304,69383,6,0,P|184:316|248:272,2,135,4|2|10,0:0|0:0|0:0,0:0:0:0:
264,188,71050,2,0,P|352:168|436:212,1,180,8|8,0:0|0:0,0:0:0:0:
432,296,72050,6,0,L|336:296,1,90,4|8,0:0|0:0,0:0:0:0:
252,296,72717,2,0,P|204:300|152:280,1,90,0|8,0:0|0:0,0:0:0:0:
108,216,73383,1,6,0:0:0:0:
108,120,73717,2,0,L|108:16,2,90,8|0|8,0:0|0:0|0:0,0:0:0:0:
200,120,74717,6,0,L|352:120,2,135,4|0|8,0:0|0:0|0:0,0:0:0:0:
108,120,76050,2,0,L|8:120,2,90,6|8|2,0:0|0:0|0:0,0:0:0:0:
200,120,77050,1,8,0:0:0:0:
156,200,77383,6,0,P|140:288|188:364,1,180,4|0,0:0|0:0,0:0:0:0:
276,372,78383,1,8,0:0:0:0:
368,364,78717,2,0,P|392:328|400:280,1,90,2|8,0:0|0:0,0:0:0:0:
368,196,79383,2,0,P|332:172|284:164,1,90,2|8,0:0|0:0,0:0:0:0:
200,192,80050,6,0,P|176:152|172:100,1,90,4|8,0:0|0:0,0:0:0:0:
208,28,80717,2,0,L|304:28,1,90,0|8,0:0|0:0,0:0:0:0:
384,60,81383,2,0,P|428:56|476:64,2,90,2|8|2,0:0|0:0|0:0,0:0:0:0:
312,116,82383,1,8,0:0:0:0:
220,116,82717,6,0,L|112:116,2,90,4|8|0,0:0|0:0|0:0,0:0:0:0:
220,208,83717,1,8,0:0:0:0:
312,208,84050,2,8,L|420:208,2,90,0|8|0,0:0|0:0|0:0,0:0:0:0:
312,300,85050,1,8,0:0:0:0:
220,300,85383,5,4,0:0:0:0:
128,300,85717,2,8,P|56:252|64:160,1,180
124,100,86717,1,4,0:0:0:0:
216,100,87050,2,0,L|320:100,2,90,8|0|8,0:0|0:0|0:0,0:0:0:0:
216,192,88050,5,4,0:0:0:0:
124,192,88383,2,0,L|20:192,2,90,8|0|8,0:0|0:0|0:0,0:0:0:0:
216,192,89383,2,0,P|296:228|384:208,1,180,4|0,0:0|0:0,0:0:0:0:
444,140,90383,1,8,0:0:0:0:
396,64,90717,6,0,P|332:40|260:56,2,135,6|2|8,0:0|0:0|0:0,0:0:0:0:
444,140,92050,2,0,P|456:184|444:232,1,90,4|8,0:0|0:0,0:0:0:0:
356,228,92717,2,0,L|260:228,1,90,0|8,0:0|0:0,0:0:0:0:
176,228,93383,6,0,P|120:264|48:260,2,135,4|4|4,0:0|0:0|0:0,0:0:0:0:
272,128,94883,2,0,P|216:92|144:96,2,135,4|4|4,0:0|0:0|0:0,0:0:0:0:
364,228,96383,6,0,P|308:264|236:260,2,135,2|2|2,0:0|0:0|0:0,0:0:0:0:
368,136,97717,1,2,0:0:0:0:
308,68,98050,2,0,P|244:44|176:68,1,135,2|4,0:0|0:0,0:0:0:0:
