osu file format v14

[General]
AudioFilename: Sakura no Uta.mp3
AudioLeadIn: 0
PreviewTime: 63927
Countdown: 0
SampleSet: Soft
StackLeniency: 0.5
Mode: 0
LetterboxInBreaks: 0
WidescreenStoryboard: 0

[Editor]
Bookmarks: 12094,24094,42761,45427,66761
DistanceSpacing: 1
BeatDivisor: 4
GridSize: 4
TimelineZoom: 1

[Metadata]
Title:Sakura no Uta
TitleUnicode:櫻ノ詩
Artist:Hana
ArtistUnicode:はな
Creator:iMage--
Version:Easy
Source:サクラノ詩 -櫻の森の上を舞う-
Tags:Sakura no Uta - sakura no mori no ue o mau - Metrowing Makura 枕
BeatmapID:671027
BeatmapSetID:297507

[Difficulty]
HPDrainRate:3
CircleSize:3
OverallDifficulty:2
ApproachRate:3
SliderMultiplier:0.8
SliderTickRate:1

[Events]
//Background and Video events
0,0,"sakuranouta.jpg",0,0
Video,0,"Sakura no Uta.avi"
//Break Periods
//Storyboard Layer 0 (Background)
//Storyboard Layer 1 (Fail)
//Storyboard Layer 2 (Pass)
//Storyboard Layer 3 (Foreground)
//Storyboard Sound Samples

[TimingPoints]
1428,333.333333333333,4,2,2,40,1,0
10761,-100,4,2,2,50,0,0
12094,-100,4,2,1,60,0,0
24094,-100,4,2,2,50,0,0
32594,-100,4,2,1,50,0,0
32761,-100,4,2,2,50,0,0
43261,-100,4,2,1,50,0,0
43427,-100,4,2,2,50,0,0
45427,-100,4,2,2,60,0,0
48594,-100,4,2,1,60,0,0
48761,-100,4,2,2,60,0,0
59261,-100,4,2,1,60,0,0
59427,-100,4,2,2,60,0,0
61927,-100,4,2,1,60,0,0
62094,-100,4,2,2,60,0,0
64094,-100,4,2,2,70,0,0
66761,-100,4,2,1,80,0,1
98594,-100,4,2,1,80,0,0

[Colours]
Combo1 : 255,255,91
Combo2 : 206,0,103
Combo3 : 255,168,125
Combo4 : 255,179,255

[HitObjects]
372,41,10761,6,0,B|376:68|360:88|360:88|368:108|368:108|356:136|356:136|360:176|344:208|308:224|270:214,1,240,4|10,3:2|0:0,0:0:0:0:
208,168,12094,6,0,P|112:231|121:345,1,240,14|10,0:0|0:0,0:0:0:0:
280,316,13761,2,0,B|313:321|336:316|336:316|358:323,2,80,10|10|10,0:0|0:0|0:0,0:0:0:0:
263,236,14761,2,0,P|214:268|200:324,2,120,10|2|10,0:0|0:0|0:0,0:0:0:0:
416,192,16427,2,0,B|410:151|416:118|416:118|404:72|361:56,1,160,10|10,0:0|0:0,0:0:0:0:
281,63,17427,6,0,B|260:60|232:72|232:72|208:88|180:76|180:76|164:108|136:132|112:144|71:143,1,240,14|10,0:0|0:0,0:0:0:0:
72,24,18927,2,0,L|175:194,1,200,2|10,0:0|0:0,0:0:0:0:
168,276,20094,2,0,P|109:285|60:319,2,120,14|2|10,0:0|0:0|0:0,0:0:0:0:
228,328,21427,6,0,P|307:330|379:297,1,160,4|4,3:2|0:3,0:0:0:0:
472,168,22761,2,0,L|484:88,2,80,12|2|2,0:0|0:0|0:0,0:0:0:0:
323,223,24094,6,0,P|229:164|260:56,1,240,6|2,0:0|0:0,0:0:0:0:
408,120,25761,2,0,L|404:279,1,160,2|2,0:0|0:0,0:0:0:0:
328,312,26761,6,0,B|208:288|208:288|96:325,1,240,2|2,0:0|0:0,0:0:0:0:
40,176,28427,2,0,P|62:101|131:64,1,160,2|4,0:0|3:3,0:0:0:0:
208,88,29427,6,0,P|286:99|362:76,1,160,6|2,0:0|0:0,0:0:0:0:
430,40,30427,2,0,P|403:155|446:265,1,240,2|2,0:0|0:0,0:0:0:0:
290,228,32094,6,0,P|250:270|243:329,2,120,2|2|2,0:0|0:0|0:0,0:0:0:0:
300,68,33761,2,0,L|140:79,1,160,2|4,0:0|3:3,0:0:0:0:
76,128,34761,6,0,B|88:196|68:276|68:276|112:256|156:271,1,240,6|2,0:0|0:0,0:0:0:0:
292,351,36427,2,0,P|314:276|295:199,1,160,2|2,0:0|0:0,0:0:0:0:
252,132,37427,2,0,P|361:97|447:173,1,240,2|2,0:0|0:0,0:0:0:0:
444,332,39094,2,0,L|287:296,1,160,2|4,0:0|3:3,0:0:0:0:
243,232,40094,6,0,P|211:280|222:338,2,120,6|2|2,0:0|0:3|0:0,0:0:0:0:
312,188,41427,2,0,P|370:191|414:153,2,120,2|2|2,0:3|0:3|1:2,0:0:0:0:
239,151,42761,2,0,P|212:98|157:79,2,120,6|2|8,0:0|0:0|0:0,0:0:0:0:
240,232,44094,1,4,3:2:0:0:
219,308,44427,2,0,P|143:325|72:291,1,160,8|8,0:0|0:0,0:0:0:0:
32,223,45427,6,0,P|48:166|50:106,1,120,12|2,1:2|0:0,0:0:0:0:
156,52,46427,2,0,P|213:35|273:33,1,120,12|8,1:2|0:0,0:0:0:0:
392,60,47427,2,0,L|389:139,1,80,0|8,1:0|1:2,0:0:0:0:
324,188,48094,6,0,P|373:219|431:209,2,120,4|0|8,1:2|0:0|0:0,0:0:0:0:
244,172,49427,2,0,L|125:189,2,120,2|0|8,0:0|0:0|0:0,0:0:0:0:
276,244,50761,2,0,P|218:341|105:330,1,240,6|8,0:0|0:0,0:0:0:0:
60,264,52094,2,0,L|76:104,1,160,2|2,3:0|3:0,0:0:0:0:
136,52,53094,1,8,0:0:0:0:
212,76,53427,6,0,P|288:95|365:78,2,160,6|2|6,0:0|0:0|0:0,0:0:0:0:
64,136,55427,1,10,0:0:0:0:
68,296,56094,6,0,P|127:304|186:296,1,120,12|2,1:2|0:0,0:0:0:0:
248,192,57094,2,0,P|307:184|366:192,1,120,12|2,1:2|0:0,0:0:0:0:
411,304,58094,2,0,P|373:312|333:306,1,80,2|8,0:0|0:0,0:0:0:0:
256,288,58761,6,0,L|142:325,2,120,6|2|8,0:0|0:0|0:0,0:0:0:0:
312,231,60094,2,0,P|345:160|339:81,1,160,4|2,3:2|0:0,0:0:0:0:
264,48,61094,1,8,0:0:0:0:
184,56,61427,6,0,L|65:71,2,120,6|2|8,0:0|0:0|0:0,0:0:0:0:
224,124,62761,2,0,L|342:139,2,120,6|0|2,0:0|0:0|0:0,0:0:0:0:
142,132,64094,2,0,P|107:202|110:282,2,160,12|6|12,0:0|0:0|0:0,0:0:0:0:
268,236,66094,1,8,0:0:0:0:
396,332,66761,6,0,B|472:300|500:232|500:232|468:196|470:147,1,240,6|10,0:0|0:0,0:0:0:0:
460,68,68094,1,0,0:0:0:0:
379,55,68427,2,0,P|300:57|226:87,1,160,8|8,0:0|0:0,0:0:0:0:
208,164,69427,6,0,L|214:283,2,120,6|2|10,0:0|0:0|0:0,0:0:0:0:
136,124,70761,1,6,0:0:0:0:
75,72,71094,2,0,P|59:146|112:201,1,160,8|8,0:0|0:0,0:0:0:0:
192,184,72094,6,0,P|251:185|305:210,2,120,6|0|8,0:0|0:0|0:0,0:0:0:0:
112,201,73427,2,0,P|83:148|78:89,2,120,6|0|8,0:0|0:0|0:0,0:0:0:0:
166,261,74761,2,0,P|134:311|86:345,2,120,6|2|8,0:0|0:0|0:0,0:0:0:0:
188,184,76094,2,0,L|346:160,1,160,6|6,0:0|0:0,0:0:0:0:
412,116,77094,1,8,0:0:0:0:
420,196,77427,6,0,P|397:289|264:296,1,240,6|8,0:0|0:0,0:0:0:0:
188,295,78761,2,0,P|227:230|303:227,1,160,6|0,0:0|0:0,0:0:0:0:
352,164,79761,2,0,L|356:84,1,80,8|6,0:0|0:0,0:0:0:0:
200,52,80761,1,2,0:0:0:0:
52,108,81427,2,0,P|94:174|166:206,1,160,6|6,0:0|0:0,0:0:0:0:
324,224,82761,6,0,P|339:281|337:341,2,120,6|2|8,0:0|0:0|0:0,0:0:0:0:
244,215,84094,2,0,P|257:178|288:153,1,80,6|14,0:0|0:0,0:0:0:0:
368,155,84761,2,0,P|360:117|333:88,1,80,2|10,0:0|0:0,0:0:0:0:
268,44,85427,6,0,P|324:44|388:24,2,120,6|0|10,0:0|0:0|0:0,0:0:0:0:
188,36,86761,2,0,P|109:27|34:55,1,160,4|6,0:0|0:0,0:0:0:0:
12,132,87761,1,10,0:0:0:0:
48,204,88094,6,0,L|29:322,2,120,6|0|8,0:0|0:0|0:0,0:0:0:0:
96,140,89427,2,0,P|133:128|173:133,1,80,6|12,0:0|0:0,0:0:0:0:
240,180,90094,2,0,P|278:188|315:174,1,80,2|8,0:0|0:0,0:0:0:0:
388,144,90761,6,0,L|369:262,2,120,6|2|10,0:0|0:0|0:0,0:0:0:0:
344,75,92094,2,0,P|420:69|467:130,1,160,14|10,0:0|0:0,0:0:0:0:
388,144,93094,1,8,0:0:0:0:
440,204,93427,6,0,P|436:263|458:318,2,120,12|12|12,0:0|0:0|0:0,0:0:0:0:
492,96,94927,1,12,0:0:0:0:
372,88,95427,2,0,L|213:110,1,160,14|2,3:2|3:2,0:0:0:0:
140,143,96427,6,0,P|163:89|168:29,2,120,4|10|14,0:0|0:0|0:0,0:0:0:0:
96,212,97761,1,6,0:0:0:0:
36,268,98094,2,0,P|89:292|145:276,1,120,10|6,0:0|0:0,0:0:0:0:
