osu file format v14

[General]
AudioFilename: sakuranouta.mp3
AudioLeadIn: 0
PreviewTime: 62494
Countdown: 0
SampleSet: Soft
StackLeniency: 0.7
Mode: 0
LetterboxInBreaks: 0
WidescreenStoryboard: 1

[Editor]
DistanceSpacing: 1.4
BeatDivisor: 2
GridSize: 4
TimelineZoom: 2.699999

[Metadata]
Title:Sakura no Uta
TitleUnicode:Sakura no Uta
Artist:Hana
ArtistUnicode:Hana
Creator:Quilt
Version:Hard
Source:Sakura no Uta
Tags:
BeatmapID:746732
BeatmapSetID:336435

[Difficulty]
HPDrainRate:7
CircleSize:4
OverallDifficulty:7
ApproachRate:8
SliderMultiplier:1.6
SliderTickRate:2

[Events]
//Background and Video events
0,0,"image01.jpg",0,0
Video,0,"sakuranouta.avi"
//Break Periods
//Storyboard Layer 0 (Background)
//Storyboard Layer 1 (Fail)
//Storyboard Layer 2 (Pass)
//Storyboard Layer 3 (Foreground)
//Storyboard Sound Samples

[TimingPoints]
78,333.333333333333,4,2,0,40,1,0
78,-133.333333333333,4,2,2,40,0,0
1744,-125,4,2,2,40,0,0
9411,-111.111111111111,4,2,2,40,0,0
10744,-100,4,2,2,50,0,0
20911,-100,4,2,1,40,0,0
22744,-100,4,2,1,50,0,0
44077,-100,4,2,1,60,0,0
65411,-100,4,2,2,80,0,1
85744,-100,4,2,2,80,0,1
86744,-100,4,2,2,80,0,1
101411,-100,4,2,2,70,0,0

[HitObjects]
168,168,78,6,0,B|206:141|206:141|269:194|339:144,1,180.000006866455,2|2,0:0|0:0,0:0:0:0:
281,38,744,2,0,L|264:134,1,60.0000022888184,2|2,0:0|0:0,0:0:0:0:
238,239,1077,1,2,0:0:0:0:
238,239,1744,5,2,0:0:0:0:
238,239,2077,1,2,0:0:0:0:
238,239,2411,2,0,P|278:244|306:240,1,64,2|0,0:0|0:0,0:0:0:0:
366,131,2744,6,0,B|350:170|350:170|390:201|390:260,1,128,2|0,0:0|0:0,0:0:0:0:
472,268,3244,2,0,P|464:186|432:143,1,128,2|0,0:0|0:0,0:0:0:0:
301,241,3744,1,2,0:0:0:0:
301,241,4411,5,2,0:0:0:0:
213,174,4577,1,2,0:0:0:0:
190,294,4744,2,0,P|159:301|127:299,1,64,2|0,0:0|0:0,0:0:0:0:
150,179,5077,2,0,P|180:171|212:173,1,64,2|0,0:0|0:0,0:0:0:0:
301,241,5411,6,0,P|331:251|362:256,2,64,2|0|0,0:0|0:0|0:0,0:0:0:0:
345,167,5911,2,0,P|331:138|312:112,2,64,2|0|0,0:0|0:0|0:0,0:0:0:0:
358,325,6411,1,2,0:0:0:0:
358,325,6910,5,0,0:0:0:0:
395,247,7077,2,0,P|424:268|439:298,1,64,2|0,0:0|0:0,0:0:0:0:
308,256,7411,2,0,P|311:220|330:192,1,64,2|0,0:0|0:0,0:0:0:0:
363,124,7744,2,0,P|352:89|330:64,1,64,2|0,0:0|0:0,0:0:0:0:
251,134,8077,6,0,P|190:151|128:137,1,128,2|0,0:0|0:0,0:0:0:0:
106,32,8577,2,0,B|106:67|106:67|57:85|53:136,1,128,2|0,0:0|0:0,0:0:0:0:
48,273,9077,2,0,L|18:208,1,64,2|0,0:0|0:0,0:0:0:0:
136,150,9411,6,0,P|153:178|166:215,1,71.9999978027344,4|0,0:0|0:0,0:0:0:0:
347,148,9744,2,0,P|330:176|317:213,1,71.9999978027344,4|0,0:0|0:0,0:0:0:0:
243,164,10077,2,0,P|246:131|244:90,1,71.9999978027344,4|0,0:0|0:0,0:0:0:0:
243,262,10411,2,0,P|240:295|242:336,1,71.9999978027344,4|0,0:0|0:0,0:0:0:0:
160,300,10744,6,0,P|82:285|10:325,1,160,12|10,0:0|0:0,0:0:0:0:
71,204,11244,1,0,0:0:0:0:
149,163,11411,2,0,P|156:123|151:84,1,80,10|0,0:0|0:0,0:0:0:0:
81,123,11744,2,0,L|286:130,2,160,10|10|8,0:0|0:0|0:0,0:0:0:0:
340,257,12744,6,0,P|333:297|338:336,1,80,10|0,0:0|0:0,0:0:0:0:
367,176,13077,2,0,P|327:174|290:189,1,80,10|0,0:0|0:0,0:0:0:0:
198,244,13411,6,0,P|123:269|47:247,1,160,10|8,0:0|0:0,0:0:0:0:
116,182,13911,2,0,P|138:256|104:326,1,160,2|0,0:0|0:0,0:0:0:0:
47,247,14411,2,0,L|215:251,1,160,10|8,0:0|0:0,0:0:0:0:
264,160,14911,5,0,0:0:0:0:
298,261,15077,2,0,P|296:300|304:339,1,80,10|0,0:0|0:0,0:0:0:0:
264,160,15411,2,0,P|230:138|192:126,1,80,10|0,0:0|0:0,0:0:0:0:
368,182,15744,2,2,P|403:163|432:136,1,80,10|2,0:0|0:0,0:0:0:0:
451,55,16077,5,10,0:0:0:0:
361,93,16244,1,2,0:0:0:0:
508,133,16411,1,10,0:0:0:0:
361,93,16577,1,2,0:0:0:0:
461,216,16744,1,10,0:0:0:0:
451,55,16911,1,2,0:0:0:0:
367,182,17077,2,0,P|373:259|444:315,1,160,10|8,0:0|0:0,0:0:0:0:
435,132,17577,5,0,0:0:0:0:
292,243,17744,2,0,P|253:250|213:247,2,80,10|0|8,0:0|0:0|0:0,0:0:0:0:
248,140,18244,1,2,0:0:0:0:
213,247,18411,1,8,0:0:0:0:
373,200,18577,1,0,0:0:0:0:
311,58,18744,6,0,P|237:35|163:63,1,160,10|8,0:0|0:0,0:0:0:0:
21,163,19244,2,0,P|95:186|169:158,1,160,2|0,0:0|0:0,0:0:0:0:
311,58,19744,2,0,L|307:182,1,80,10|0,0:0|0:0,0:0:0:0:
300,281,20077,5,10,0:0:0:0:
370,213,20244,1,0,0:0:0:0:
239,206,20411,2,0,P|196:203|160:205,1,80,8|0,0:0|0:0,0:0:0:0:
26,215,20744,1,0,0:0:0:0:
104,107,20911,2,0,L|117:60,4,40,2|0|2|0|2,0:0|0:0|0:0|0:0|0:0,0:0:0:0:
104,194,21411,6,0,P|100:238|84:271,1,80,2|0,0:0|0:0,0:0:0:0:
151,367,21744,2,0,P|155:323|171:290,1,80,2|0,0:0|0:0,0:0:0:0:
225,225,22077,2,0,P|241:188|244:149,1,80,2|0,0:0|0:0,0:0:0:0:
248,38,22411,1,2,0:0:0:0:
150,90,22577,1,0,0:0:0:0:
244,149,22744,6,0,P|321:166|394:137,1,160,12|8,0:0|0:0,0:0:0:0:
467,43,23244,1,0,0:0:0:0:
476,129,23411,2,0,L|475:266,1,80,10|0,0:0|0:0,0:0:0:0:
474,318,23744,1,10,0:0:0:0:
395,264,23911,2,0,P|318:250|242:275,1,160
137,336,24411,6,0,P|123:301|125:258,1,80,10|0,0:0|0:0,0:0:0:0:
179,146,24744,2,0,P|192:180|190:223,1,80,10|0,0:0|0:0,0:0:0:0:
94,145,25077,2,0,P|80:110|82:67,1,80,10|0,0:0|0:0,0:0:0:0:
191,222,25411,6,0,P|269:238|339:204,1,160,10|10,0:0|0:0,0:0:0:0:
406,124,25911,1,0,0:0:0:0:
261,153,26077,2,0,L|261:344,1,160,10|8,0:0|0:0,0:0:0:0:
171,353,26577,1,0,0:0:0:0:
342,294,26744,6,0,L|344:208,1,80,10|0,0:0|0:0,0:0:0:0:
350,95,27077,2,0,P|387:82|426:86,1,80,10|0,0:0|0:0,0:0:0:0:
447,243,27411,2,0,P|422:213|410:175,1,80,10|8,0:0|0:0,0:0:0:0:
512,165,27744,1,10,0:0:0:0:
512,321,27911,1,0,0:0:0:0:
447,243,28077,6,0,P|370:223|289:240,1,160,10|8,0:0|0:0,0:0:0:0:
199,283,28577,1,0,0:0:0:0:
97,336,28744,2,0,P|87:297|89:257,1,80,10|0,0:0|0:0,0:0:0:0:
126,173,29077,2,0,P|146:96|123:21,1,160,10|8,0:0|0:0,0:0:0:0:
48,97,29577,5,0,0:0:0:0:
126,173,29744,2,0,P|165:179|205:174,1,80,10|0,0:0|0:0,0:0:0:0:
314,56,30077,2,0,P|288:87|273:123,1,80,10|0,2:0|2:0,2:0:0:0:
281,210,30411,2,0,P|312:233|350:248,1,80,10|0,2:0|2:0,2:0:0:0:
456,197,30744,6,0,P|464:278|422:343,1,160,10|8,0:0|0:0,0:0:0:0:
350,248,31244,2,0,P|342:167|384:102,1,160,2|0,0:0|0:0,0:0:0:0:
454,12,31744,2,0,B|425:33|425:33|362:7|310:59,1,160,10|8,0:0|0:0,0:0:0:0:
216,109,32244,5,0,0:0:0:0:
296,157,32411,2,0,P|308:194|302:234,1,80,10|0,0:0|0:0,0:0:0:0:
245,311,32744,2,0,P|169:333|91:310,1,160,10|0,0:0|0:0,0:0:0:0:
9,193,33244,1,8,0:0:0:0:
0,279,33411,6,0,P|-4:324|3:358,1,80,10|0,0:0|0:0,0:0:0:0:
172,250,33744,2,0,P|176:205|168:170,1,80,8|0,0:0|0:0,0:0:0:0:
96,102,34077,2,0,P|56:98|16:81,1,80,10|0,0:0|0:0,0:0:0:0:
191,67,34411,1,8,0:0:0:0:
84,206,34577,2,0,P|84:286|139:348,1,160,2|0,0:0|0:0,0:0:0:0:
238,303,35077,6,0,P|245:342|241:381,1,80,10|0,0:0|0:0,0:0:0:0:
172,250,35411,2,0,P|202:224|238:208,1,80,10|0,0:0|0:0,0:0:0:0:
305,134,35744,2,0,P|309:94|302:55,1,80,10|0,0:0|0:0,0:0:0:0:
330,231,36077,6,0,P|397:255|480:225,1,160,10|8,0:0|0:0,0:0:0:0:
399,140,36577,1,0,0:0:0:0:
255,186,36744,2,0,P|246:229|251:264,1,80,10|0,0:0|0:0,0:0:0:0:
223,346,37077,2,0,P|150:364|68:334,1,160,10|8,0:0|0:0,0:0:0:0:
54,210,37577,5,0,0:0:0:0:
21,285,37744,2,0,P|4:326|1:362,1,80,10|0,0:0|0:0,0:0:0:0:
53,209,38077,2,0,P|14:203|-23:216,1,80,10|0,0:0|0:0,0:0:0:0:
82,346,38411,2,0,P|121:352|158:339,1,80,10|0,0:0|0:0,0:0:0:0:
241,284,38744,6,0,P|317:264|393:291,1,160,10|8,0:0|0:0,0:0:0:0:
453,371,39244,2,0,P|485:300|461:225,1,160,2|0,0:0|0:0,0:0:0:0:
332,182,39744,2,0,P|325:242|338:277,1,80,10|0,0:0|0:0,0:0:0:0:
403,144,40077,6,0,P|337:102|262:131,1,160,10|8,0:0|0:0,0:0:0:0:
129,199,40577,2,0,P|167:205|208:205,1,80,2|8,0:0|0:0,0:0:0:0:
175,101,40911,1,0,0:0:0:0:
289,201,41077,2,0,P|291:283|253:356,1,160,10|12,0:0|0:0,0:0:0:0:
157,358,41577,5,0,0:0:0:0:
197,216,41744,1,10,0:0:0:0:
65,267,41911,2,0,P|23:200|29:121,1,160
49,24,42411,2,0,L|125:52,1,80,10|0,0:0|0:0,0:0:0:0:
206,181,42744,6,0,L|130:153,1,80,10|0,0:0|0:0,0:0:0:0:
93,11,43077,2,0,L|168:38,1,80,10|0,0:0|0:0,0:0:0:0:
273,90,43411,1,10,0:0:0:0:
273,90,43494,1,0,0:0:0:0:
273,90,43577,1,0,0:0:0:0:
206,181,43744,2,0,P|191:218|186:258,1,80,10|0,0:0|0:0,0:0:0:0:
170,361,44077,5,10,0:0:0:0:
280,245,44244,1,8,0:0:0:0:
272,355,44411,1,10,0:0:0:0:
206,181,44577,1,8,0:0:0:0:
206,181,45077,2,0,P|211:140|206:101,1,80,10|8,0:0|0:0,0:0:0:0:
104,144,45411,5,2,0:0:0:0:
312,148,45577,1,8,0:0:0:0:
110,259,46077,2,0,P|161:276|209:273,1,80,8|0,0:0|0:0,0:0:0:0:
282,198,46411,2,0,P|231:181|183:184,1,80,8|0,0:0|0:0,0:0:0:0:
272,288,46744,6,0,L|256:371,1,80,12|0,0:0|0:0,0:0:0:0:
350,247,47077,1,10,0:0:0:0:
404,318,47244,2,0,P|485:335|546:287,1,160
441,236,47744,1,10,0:0:0:0:
404,318,47911,1,0,0:0:0:0:
350,247,48077,6,0,P|343:207|347:167,1,80,10|0,0:0|0:0,0:0:0:0:
309,30,48411,2,0,L|289:107,1,80,10|0,0:0|0:0,0:0:0:0:
272,269,48744,2,0,P|260:230|239:196,1,80,10|0,0:0|0:0,0:0:0:0:
161,108,49077,1,10,0:0:0:0:
254,103,49244,1,0,0:0:0:0:
143,201,49411,6,0,P|104:208|65:205,1,80,10|0,0:0|0:0,0:0:0:0:
97,74,49744,1,8,0:0:0:0:
218,142,49911,2,0,P|230:220|189:290,1,160,2|0,0:0|0:0,0:0:0:0:
121,352,50411,1,10,0:0:0:0:
53,283,50577,1,0,0:0:0:0:
93,195,50744,6,0,P|94:155|84:116,1,80,10|0,0:0|0:0,0:0:0:0:
156,35,51077,2,0,P|154:74|164:113,1,80,10|0,0:0|0:0,0:0:0:0:
210,200,51411,2,0,P|286:228|361:199,2,160,10|10|10,0:0|0:0|0:0,0:0:0:0:
283,122,52244,5,0,0:0:0:0:
368,78,52411,2,0,P|378:39|372:0,1,80,10|0,0:0|0:0,0:0:0:0:
208,50,52744,2,0,P|184:125|209:199,1,160,10|8,0:0|0:0,0:0:0:0:
306,213,53244,1,0,0:0:0:0:
242,294,53411,6,0,B|192:311|147:278|147:278|83:305,1,160,10|8,0:0|0:0,0:0:0:0:
134,146,53911,1,0,0:0:0:0:
87,221,54077,2,0,L|13:252,1,80,10|0,0:0|0:0,0:0:0:0:
0,281,54327,1,0,0:0:0:0:
0,281,54411,1,10,0:0:0:0:
49,141,54577,1,0,0:0:0:0:
179,223,54744,6,0,L|253:254,1,80,10|0,0:0|0:0,0:0:0:0:
184,81,55077,1,2,0:0:0:0:
220,149,55244,2,0,L|399:220,1,160,8|0,0:0|0:0,0:0:0:0:
456,251,55744,2,0,P|463:290|460:329,1,80,10|0,0:0|0:0,0:0:0:0:
368,207,56077,5,8,0:0:0:0:
328,288,56244,2,0,P|250:304|173:285,1,160,2|0,0:0|0:0,0:0:0:0:
51,261,56744,2,0,P|48:300|60:338,1,80,10|0,0:0|0:0,0:0:0:0:
173,285,57077,2,0,P|193:250|199:211,1,80,10|0,0:0|0:0,0:0:0:0:
218,111,57411,5,10,0:0:0:0:
116,219,57577,1,0,0:0:0:0:
106,115,57744,1,0,0:0:0:0:
186,38,57911,2,0,P|224:32|261:45,1,80,10|8,0:0|0:0,0:0:0:0:
365,167,58244,2,0,P|326:172|289:159,1,80,10|0,0:0|0:0,0:0:0:0:
218,111,58577,1,0,0:0:0:0:
226,201,58744,6,0,P|220:240|196:271,1,80,10|0,0:0|0:0,0:0:0:0:
105,289,59077,2,0,P|80:320|74:359,1,80,8|0,0:0|0:0,0:0:0:0:
147,208,59411,2,0,B|151:145|196:128|196:128|164:58,1,160,10|10,0:0|0:0,0:0:0:0:
139,7,59911,1,0,0:0:0:0:
242,37,60077,6,0,L|278:110,1,80,10|0,0:0|0:0,0:0:0:0:
326,205,60411,1,8,0:0:0:0:
367,114,60577,2,0,P|419:184|407:253,1,160,2|0,0:0|0:0,0:0:0:0:
321,283,61077,2,0,P|316:243|326:205,1,80,10|0,0:0|0:0,0:0:0:0:
407,251,61411,5,10,0:0:0:0:
367,357,61577,1,0,0:0:0:0:
265,346,61744,1,8,0:0:0:0:
227,256,61911,2,0,P|218:177|247:103,1,160,2|0,0:0|0:0,0:0:0:0:
332,236,62411,2,0,P|335:277|321:320,1,80,10|0,0:0|0:0,0:0:0:0:
176,250,62744,6,0,P|167:171|196:97,1,160,4|0,0:0|0:0,0:0:0:0:
248,25,63244,1,0,0:0:0:0:
285,108,63411,2,0,P|357:140|427:108,1,160,4|0,0:0|0:0,0:0:0:0:
481,25,63911,1,0,0:0:0:0:
497,112,64077,6,0,P|496:151|501:191,1,80,4|0,0:0|0:0,0:0:0:0:
451,339,64411,2,0,P|451:299|446:259,1,80,4|0,0:0|0:0,0:0:0:0:
380,174,64744,2,0,L|346:145,7,40
393,217,65411,6,0,P|312:236|236:215,1,160,4|10,0:0|0:0,0:0:0:0:
156,164,65911,1,0,0:0:0:0:
164,261,66077,2,0,P|160:304|142:348,1,80
4,273,66411,1,10,0:0:0:0:
81,215,66577,2,0,P|97:137|86:58,1,160
188,134,67077,6,0,P|181:174|189:212,1,80,10|0,0:0|0:0,0:0:0:0:
159,302,67411,2,0,P|129:328|91:341,1,80,2|0,0:0|0:0,0:0:0:0:
247,281,67744,2,0,P|284:293|315:319,1,80,10|0,0:0|0:0,0:0:0:0:
417,287,68077,6,0,P|379:274|348:248,1,80,2|0,0:0|0:0,0:0:0:0:
274,186,68411,1,8,0:0:0:0:
368,171,68577,2,0,P|437:132|462:55,1,160,2|0,0:0|0:0,0:0:0:0:
313,40,69077,2,0,P|274:50|247:78,1,80,10|0,0:0|0:0,0:0:0:0:
161,160,69411,6,0,P|143:128|134:84,1,80
264,161,69744,2,0,P|253:238|198:295,2,160,10|0|8,0:0|0:0|0:0,0:0:0:0:
264,47,70577,1,0,0:0:0:0:
345,177,70744,6,0,P|396:183|461:168,1,80,2|0,0:0|0:0,0:0:0:0:
463,82,71077,1,8,0:0:0:0:
376,112,71244,2,0,B|319:79|277:153|221:108,1,160,2|0,0:0|0:0,0:0:0:0:
109,106,71744,2,0,P|116:66|139:31,1,80,10|0,0:0|0:0,0:0:0:0:
217,188,72077,6,0,P|180:196|138:187,1,80,2|0,0:0|0:0,0:0:0:0:
44,171,72411,1,10,0:0:0:0:
86,258,72577,2,0,B|103:306|77:364|77:364|147:371,1,160,2|0,0:0|0:0,0:0:0:0:
250,327,73077,2,0,P|251:287|244:246,1,80,10|0,0:0|0:0,0:0:0:0:
164,60,73411,6,0,P|147:137|169:213,1,160,2|8,0:0|0:0,0:0:0:0:
268,252,73911,2,0,P|302:271|324:308,1,80,2|0,0:0|0:0,0:0:0:0:
160,309,74244,1,0,0:0:0:0:
332,208,74411,2,0,P|346:245|338:286,1,80,10|0,0:0|0:0,0:0:0:0:
182,177,74744,6,0,P|155:105|184:30,2,160,2|8|0,0:0|0:0|0:0,0:0:0:0:
287,306,75744,2,0,P|204:299|127:307,1,160,10|4,0:0|0:0,0:0:0:0:
42,325,76244,5,0,0:0:0:0:
119,149,76411,1,8,0:0:0:0:
167,218,76577,2,0,P|250:225|326:216,1,160,2|0,0:0|0:0,0:0:0:0:
386,123,77077,1,8,0:0:0:0:
432,223,77244,2,0,B|434:269|395:298|395:298|377:337|449:326,1,160,2|0,0:0|0:0,0:0:0:0:
357,234,77744,6,0,P|325:264|320:300,1,80,10|0,0:0|0:0,0:0:0:0:
386,159,78077,2,0,P|347:156|296:176,1,80,2|0,0:0|0:0,0:0:0:0:
211,237,78411,2,0,P|133:254|58:230,1,160,10|0,0:0|0:0,0:0:0:0:
51,127,78911,6,0,P|56:87|77:54,1,80,2|8,0:0|0:0,0:0:0:0:
190,25,79244,1,0,0:0:0:0:
4,25,79411,1,2,0:0:0:0:
132,112,79577,1,0,0:0:0:0:
190,24,79744,2,0,P|229:21|269:27,1,80,8|0,0:0|0:0,0:0:0:0:
381,61,80077,6,0,P|397:138|376:214,1,160,2|8,0:0|0:0,0:0:0:0:
330,298,80577,1,0,0:0:0:0:
262,229,80744,2,0,P|185:207|111:229,1,160,2|8,0:0|0:0,0:0:0:0:
16,283,81244,1,0,0:0:0:0:
69,167,81411,6,0,P|101:148|141:136,1,80,6|0,0:0|0:0,0:0:0:0:
261,25,81744,1,10,0:0:0:0:
261,25,81911,2,0,P|229:44|189:56,1,80
86,64,82244,1,0,0:0:0:0:
248,138,82411,1,10,0:0:0:0:
141,162,82577,2,0,P|120:242|146:318,1,160
242,358,83077,6,0,P|252:319|245:281,1,80,10|0,0:0|0:0,0:0:0:0:
304,142,83411,2,0,P|294:180|301:219,1,80
343,307,83744,2,0,P|410:348|490:347,1,160,10|4,0:0|0:0,0:0:0:0:
438,244,84244,6,0,P|444:282|472:313,1,80,2|8,0:0|0:0,0:0:0:0:
503,194,84577,1,0,0:0:0:0:
426,160,84744,1,2,0:0:0:0:
356,212,84911,2,0,P|317:216|277:209,1,80,0|8,0:0|0:0,0:0:0:0:
179,184,85244,1,0,0:0:0:0:
123,94,85411,6,0,P|84:162|96:240,1,160,2|8,0:0|0:0,0:0:0:0:
16,262,85911,1,0,0:0:0:0:
179,183,86077,2,0,P|209:158|227:122,1,80,2|0,0:0|0:0,0:0:0:0:
204,264,86411,2,0,P|173:289|155:325,1,80,10|0,0:0|0:0,0:0:0:0:
290,260,86744,6,0,P|320:234|338:198,1,80,6|0,0:0|0:0,0:0:0:0:
367,73,87077,1,8,0:0:0:0:
259,188,87244,2,0,P|182:200|118:155,1,160
210,84,87744,2,0,P|244:74|288:89,1,80,10|0,0:0|0:0,0:0:0:0:
373,116,88077,5,2,0:0:0:0:
323,252,88244,1,0,0:0:0:0:
286,87,88411,1,8,0:0:0:0:
400,211,88577,1,0,0:0:0:0:
285,86,88744,2,0,P|276:48|284:9,1,80,2|0,0:0|0:0,0:0:0:0:
321,174,89077,2,0,P|330:212|322:251,1,80,8|0,0:0|0:0,0:0:0:0:
260,348,89411,5,6,0:0:0:0:
127,254,89577,1,0,0:0:0:0:
161,350,89744,1,8,0:0:0:0:
220,256,89911,2,0,P|234:178|218:100,1,160,2|0,0:0|0:0,0:0:0:0:
361,25,90411,1,8,0:0:0:0:
326,99,90577,2,0,P|312:177|328:255,1,160,2|0,0:0|0:0,0:0:0:0:
235,230,91077,6,0,P|197:224|155:229,1,80,10|0,0:0|0:0,0:0:0:0:
291,344,91411,2,0,P|329:350|370:344,1,80,2|0,0:0|0:0,0:0:0:0:
483,323,91744,1,8,0:0:0:0:
483,323,92077,5,4,0:0:0:0:
465,212,92244,1,0,0:0:0:0:
374,278,92411,1,10,0:0:0:0:
322,178,92577,2,0,P|314:138|318:99,1,80,4|0,0:0|0:0,0:0:0:0:
329,12,92911,1,10,0:0:0:0:
234,146,93077,6,0,P|194:153|155:149,1,80,4|0,0:0|0:0,0:0:0:0:
68,139,93411,1,10,0:0:0:0:
242,66,93577,2,0,L|233:151,1,80,4|0,0:0|0:0,0:0:0:0:
215,248,93911,1,10,0:0:0:0:
297,316,94077,6,0,P|336:324|375:323,2,80,4|0|10,0:0|0:0|0:0,0:0:0:0:
130,197,94577,2,0,P|90:188|51:189,2,80,4|0|10,0:0|0:0|0:0,0:0:0:0:
306,221,95077,6,0,L|336:123,1,80,4|0,0:0|0:0,0:0:0:0:
387,68,95411,1,10,0:0:0:0:
246,145,95577,2,0,L|216:243,1,80,4|0,0:0|0:0,0:0:0:0:
165,298,95911,1,10,0:0:0:0:
163,134,96077,5,4,0:0:0:0:
306,221,96244,2,0,P|345:223|388:218,1,80,10|0,0:0|0:0,0:0:0:0:
275,64,96577,2,0,P|235:61|193:67,1,80,6|0,0:0|0:0,0:0:0:0:
52,92,96911,1,8,0:0:0:0:
163,134,97077,1,4,0:0:0:0:
140,7,97244,1,8,0:0:0:0:
