osu file format v12

[General]
AudioFilename: OP.mp3
AudioLeadIn: 2500
PreviewTime: 53606
Countdown: 0
SampleSet: Soft
StackLeniency: 0.7
Mode: 0
LetterboxInBreaks: 0
WidescreenStoryboard: 0

[Editor]
Bookmarks: 200,5474,10749,16024,21298,26573,31930,37123,42397,43716,47672,48991,54265,59540,64815,70090,75447,80639,85914,91189,95145
DistanceSpacing: 1.2
BeatDivisor: 4
GridSize: 4
TimelineZoom: 1

[Metadata]
Title:Kuukirikigaku Shoujo to Shounen no Uta
TitleUnicode:空気力学少女と少年の詩
Artist:Hana
ArtistUnicode:はな
Creator:pkhg
Version:Insane
Source:Subarashiki Hibi
Tags:keroq visual novel opening eroge aerodynamics girls and boys poem lanturn toara_fict umi -umi- 素晴らしき日々
BeatmapID:261953
BeatmapSetID:98152

[Difficulty]
HPDrainRate:7
CircleSize:4
OverallDifficulty:7
ApproachRate:9
SliderMultiplier:1.8
SliderTickRate:2

[Events]
//Background and Video events
Video,0,"subarashi.avi"
0,0,"ev0008a.jpg",0,0
//Break Periods
//Storyboard Layer 0 (Background)
//Storyboard Layer 1 (Fail)
//Storyboard Layer 2 (Pass)
//Storyboard Layer 3 (Foreground)
//Storyboard Sound Samples
//Background Colour Transformations
3,100,163,162,255

[TimingPoints]
200,329.67032967033,4,2,1,40,1,0
10749,-100,4,2,2,60,0,0
42397,-100,4,2,1,40,0,0
43716,-133.333333333333,4,2,2,40,0,0
48991,-100,4,2,2,40,0,0
54265,-100,4,2,2,60,0,1
70090,-100,4,2,2,60,0,0
75364,-100,4,2,2,60,0,1
75529,-100,4,2,2,60,0,0
94980,-100,4,2,2,60,0,1
95062,-100,4,2,2,60,0,0

[Colours]
Combo1 : 9,255,9
Combo2 : 4,173,255
Combo3 : 81,255,81
Combo4 : 0,255,255
SliderBorder : 0,255,255

[HitObjects]
384,104,200,6,0,P|392:192|324:248,1,180,2|0,0:0|0:0,0:0:0:0:
224,216,694,1,0,0:0:0:0:
240,108,859,2,0,P|285:124|311:155,1,90,2|0,0:0|0:0,0:0:0:0:
156,148,1189,1,0,0:0:0:0:
136,252,1353,2,0,P|192:312|288:288,1,180,2|0,0:0|0:0,0:0:0:0:
436,288,1848,2,0,P|404:256|360:244,1,90,2|0,0:0|0:0,0:0:0:0:
336,152,2178,2,0,P|297:172|272:216,1,90,2|0,0:0|0:0,0:0:0:0:
424,176,2507,1,2,0:0:0:0:
380,76,2672,1,0,0:0:0:0:
272,83,2837,6,0,P|235:109|192:112,1,90,2|2,0:0|0:0,0:0:0:0:
100,52,3167,1,0,0:0:0:0:
44,140,3331,2,0,L|56:236,1,90,2|2,0:0|0:0,0:0:0:0:
192,340,3661,1,0,0:0:0:0:
256,252,3826,2,0,L|244:156,1,90,2|2,0:0|0:0,0:0:0:0:
164,88,4156,1,0,0:0:0:0:
116,184,4320,2,0,B|156:168|192:188|192:188|240:188|276:136,1,180,2|2,0:0|0:0,0:0:0:0:
188,76,4815,1,2,0:0:0:0:
80,84,4980,1,0,0:0:0:0:
188,68,5145,1,2,0:0:0:0:
84,92,5309,1,0,0:0:0:0:
152,176,5474,6,0,P|152:220|184:272,1,90,2|0,0:0|0:0,0:0:0:0:
268,308,5804,1,0,0:0:0:0:
324,216,5969,2,0,P|280:200|236:204,2,90,0|2|0,0:0|0:0|0:0,0:0:0:0:
372,312,6463,1,0,0:0:0:0:
436,224,6628,2,0,B|440:172|480:148|480:148|468:100|424:84,1,180,2|2,0:0|0:0,0:0:0:0:
324,120,7123,5,2,0:0:0:0:
240,56,7287,1,0,0:0:0:0:
224,164,7452,1,2,0:0:0:0:
324,120,7617,1,0,0:0:0:0:
240,56,7782,1,2,0:0:0:0:
224,164,7947,1,0,0:0:0:0:
324,120,8112,6,0,P|368:148|416:144,1,90,2|0,0:0|0:0,0:0:0:0:
388,72,8441,1,2,0:0:0:0:
324,219,8607,2,0,P|292:251|280:294,1,90,2|0,0:0|0:0,0:0:0:0:
400,244,8936,1,2,0:0:0:0:
328,364,9101,6,0,P|280:376|240:364,1,90,2|2,0:0|0:0,0:0:0:0:
136,344,9430,1,0,0:0:0:0:
92,275,9596,2,0,P|134:263|177:274,1,90,2|0,0:0|0:0,0:0:0:0:
136,344,9925,1,0,0:0:0:0:
40,216,10090,1,2,0:0:0:0:
92,120,10254,2,0,B|136:96|180:112|180:112|188:60|232:44,1,180,2|2,0:0|0:0,0:0:0:0:
356,136,10749,6,0,P|308:140|268:124,1,90,4|0,0:0|0:0,0:0:0:0:
328,32,11079,1,8,0:0:0:0:
424,76,11243,2,0,P|444:116|432:184,1,90,0|2,0:0|0:0,0:0:0:0:
400,304,11573,2,0,P|380:264|392:196,1,90,2|8,0:0|0:0,0:0:0:0:
484,332,11903,2,0,P|404:304|296:332,1,180,2|2,0:0|0:0,0:0:0:0:
212,280,12397,1,8,0:0:0:0:
108,252,12562,1,0,0:0:0:0:
176,96,12727,2,0,P|188:140|176:188,1,90,2|2,0:0|0:0,0:0:0:0:
336,80,13057,2,0,P|306:115|260:132,1,90,8|0,0:0|0:0,0:0:0:0:
356,192,13386,5,2,0:0:0:0:
448,244,13551,1,0,0:0:0:0:
356,300,13716,1,8,0:0:0:0:
363,178,13881,5,0,0:0:0:0:
456,257,14046,1,2,0:0:0:0:
340,300,14211,1,2,0:0:0:0:
372,164,14375,5,8,0:0:0:0:
468,265,14540,1,2,0:0:0:0:
330,300,14705,1,0,0:0:0:0:
384,148,14870,5,2,0:0:0:0:
479,271,15035,1,8,0:0:0:0:
321,294,15200,1,0,0:0:0:0:
186,160,15364,6,0,P|212:164|264:200,1,90,2|2,0:0|0:0,0:0:0:0:
104,172,15694,2,0,P|109:127|136:92,1,90,8|0,0:0|0:0,0:0:0:0:
188,248,16024,1,2,0:0:0:0:
80,248,16189,2,0,P|40:216|28:180,1,90,0|8,0:0|0:0,0:0:0:0:
188,248,16518,2,0,P|228:280|240:316,2,90,0|2|2,0:0|0:0|0:0,0:0:0:0:
128,340,17013,1,8,0:0:0:0:
136,160,17178,2,0,P|208:160|248:60,1,180,2|2,0:0|0:0,0:0:0:0:
93,43,17672,2,0,P|128:48|168:84,1,90,8|0,0:0|0:0,0:0:0:0:
296,184,18002,2,0,P|336:220|370:224,2,90,2|2|8,0:0|0:0|0:0,0:0:0:0:
380,116,18496,1,0,0:0:0:0:
476,240,18661,5,2,0:0:0:0:
404,320,18826,2,0,P|356:316|316:340,1,90,0|8,0:0|0:0,0:0:0:0:
252,252,19156,2,0,P|218:286|210:332,1,90,0|2,0:0|0:0,0:0:0:0:
96,167,19485,2,0,P|112:208|148:236,1,90,2|8,0:0|0:0,0:0:0:0:
212,88,19815,2,0,B|208:136|180:160|180:160|224:180|276:148,1,180,2|2,0:0|0:0,0:0:0:0:
332,60,20309,1,8,0:0:0:0:
380,156,20474,1,0,0:0:0:0:
448,240,20639,6,0,P|444:272|432:304,3,45,8|8|8|8,0:0|0:0|0:0|0:0,0:0:0:0:
428,304,20969,1,8,0:0:0:0:
412,320,21051,1,8,0:0:0:0:
392,332,21134,1,2,0:0:0:0:
368,336,21216,1,2,0:0:0:0:
344,328,21298,6,0,P|311:261|386:190,1,180,4|8,0:0|0:0,0:0:0:0:
292,64,21793,2,0,P|260:104|224:112,1,90
76,88,22123,2,0,P|108:48|144:40,1,90,0|8,0:0|0:0,0:0:0:0:
144,148,22452,2,0,P|140:200|96:248,1,90,2|0,0:0|0:0,0:0:0:0:
24,256,22782,1,2,0:0:0:0:
16,144,22947,1,8,0:0:0:0:
128,72,23112,2,0,P|168:72|208:104,1,90
306,236,23441,2,0,P|262:235|228:208,1,90,2|8,0:0|0:0,0:0:0:0:
292,128,23771,1,0,0:0:0:0:
397,268,23936,6,0,P|404:232|384:184,2,90,2|2|8,0:0|0:0|0:0,0:0:0:0:
320,340,24430,2,0,P|232:332|156:264,1,180
72,216,24925,2,0,P|56:264|76:320,1,90,8|0,0:0|0:0,0:0:0:0:
160,184,25254,2,0,P|176:136|156:80,1,90,2|2,0:0|0:0,0:0:0:0:
60,124,25584,1,8,0:0:0:0:
108,28,25749,2,0,P|172:76|292:68,1,180,2|2,0:0|0:0,0:0:0:0:
296,184,26243,1,8,0:0:0:0:
392,136,26408,6,0,B|412:184|392:228|392:228|456:296,1,180,0|0,0:0|0:0,0:0:0:0:
268,332,26903,2,0,P|308:320|352:336,1,90,8|0,0:0|0:0,0:0:0:0:
224,256,27232,2,0,P|184:268|140:252,2,90,0|0|8,0:0|0:0|0:0,0:0:0:0:
152,96,27727,6,0,B|184:192|184:192|220:168|264:188,1,180,2|2,0:0|0:0,0:0:0:0:
360,224,28221,2,0,P|404:200|452:212,1,90,8|0,0:0|0:0,0:0:0:0:
281,282,28551,2,0,P|237:306|200:300,1,90,0|2,0:0|0:0,0:0:0:0:
216,144,28881,2,0,P|232:188|226:229,1,90,8|0,0:0|0:0,0:0:0:0:
132,176,29210,6,0,P|208:144|240:52,1,180,2|8,0:0|0:0,0:0:0:0:
80,24,29705,2,0,P|128:56|172:52,1,90
320,40,30035,2,0,P|350:39|398:71,1,90,2|8,0:0|0:0,0:0:0:0:
276,256,30364,6,0,P|260:172|336:120,1,180,2|2,0:0|0:0,0:0:0:0:
418,238,30859,2,0,P|388:212|340:204,1,90,8|0,0:0|0:0,0:0:0:0:
208,304,31189,2,0,P|238:330|286:338,1,90,0|2,0:0|0:0,0:0:0:0:
396,344,31518,1,8,0:0:0:0:
276,256,31683,1,0,0:0:0:0:
141,199,31848,6,0,B|93:150|93:150|148:118|140:48,1,180,4|8,0:0|0:0,0:0:0:0:
52,72,32342,1,0,0:0:0:0:
196,144,32507,2,0,P|248:168|280:160,1,90,2|2,0:0|0:0,0:0:0:0:
356,88,32837,1,8,0:0:0:0:
252,64,33002,2,0,L|224:244,1,180,2|2,0:0|0:0,0:0:0:0:
152,320,33496,2,0,P|104:344|56:336,1,90,8|0,0:0|0:0,0:0:0:0:
180,236,33826,2,0,P|224:265|239:297,1,90,0|2,0:0|0:0,0:0:0:0:
92,252,34156,2,0,P|95:198|115:169,1,90,8|0,0:0|0:0,0:0:0:0:
224,24,34485,6,0,B|208:72|152:96|152:96|192:116|200:164,1,180,2|8,0:0|0:0,0:0:0:0:
203,255,34980,2,0,P|247:246|280:216,1,90,0|2,0:0|0:0,0:0:0:0:
292,108,35309,1,2,0:0:0:0:
116,172,35474,1,8,0:0:0:0:
112,296,35639,2,0,P|188:348|288:308,1,180,2|2,0:0|0:0,0:0:0:0:
360,268,36134,1,8,0:0:0:0:
444,336,36298,6,0,L|476:252,1,90
368,108,36628,2,0,L|400:192,1,90,2|8,0:0|0:0,0:0:0:0:
488,164,36958,1,0,0:0:0:0:
360,268,37123,6,0,B|296:256|296:256|260:312|180:308,1,180,2|8,0:0|0:0,0:0:0:0:
204,200,37617,1,0,0:0:0:0:
116,260,37782,2,0,P|104:324|132:368,2,90,2|2|8,0:0|0:0|0:0,0:0:0:0:
76,88,38276,2,0,P|116:100|148:148,1,90,2|0,0:0|0:0,0:0:0:0:
224,28,38606,2,0,P|240:66|224:121,1,90,2|8,0:0|0:0,0:0:0:0:
368,136,38936,2,0,P|336:167|279:175,1,90,0|0,0:0|0:0,0:0:0:0:
204,200,39265,1,2,0:0:0:0:
340,332,39430,2,0,P|308:300|264:288,1,90,8|0,0:0|0:0,0:0:0:0:
159,269,39760,6,0,P|247:271|286:191,1,180,2|8,0:0|0:0,0:0:0:0:
240,104,40254,1,0,0:0:0:0:
168,184,40419,2,0,P|120:188|88:220,1,90,2|2,0:0|0:0,0:0:0:0:
72,324,40749,1,8,0:0:0:0:
176,352,40914,6,0,L|256:296,1,90,2|0,0:0|0:0,0:0:0:0:
348,348,41243,2,0,L|368:252,1,90,2|8,0:0|0:0,0:0:0:0:
284,192,41573,1,0,0:0:0:0:
192,136,41738,1,2,0:0:0:0:
288,84,41903,1,2,0:0:0:0:
284,192,42068,2,0,P|264:228|224:268,1,90,8|0,0:0|0:0,0:0:0:0:
144,200,42397,6,0,P|110:154|123:99,1,90,6|0,0:0|0:0,0:0:0:0:
212,240,42727,2,0,P|268:234|309:272,1,90,2|0,0:0|0:0,0:0:0:0:
144,276,43057,2,0,P|120:327|67:344,1,90,2|0,0:0|0:0,0:0:0:0:
64,264,43386,1,2,0:0:0:0:
216,336,43551,1,0,0:0:0:0:
324,340,43716,6,0,P|400:328|424:276,1,135,4|2,0:0|0:0,0:0:0:0:
344,260,44210,1,8,0:0:0:0:
400,200,44375,2,0,P|364:167|356:79,1,135.000005149842,0|8,0:0|0:0,0:0:0:0:
428,52,44870,2,0,P|356:56|296:20,1,135.000005149842
228,52,45364,5,0,0:0:0:0:
152,80,45529,1,8,0:0:0:0:
212,132,45694,1,12,0:3:0:0:
228,52,45859,1,8,0:0:0:0:
152,80,46024,2,0,P|116:84|80:60,1,67.5000025749208,2|2,0:0|0:0,0:0:0:0:
84,152,46353,2,0,P|104:216|72:272,1,135.000005149842,2|8,0:0|0:3,0:0:0:0:
24,204,46848,1,8,0:0:0:0:
160,296,47013,2,0,P|215:317|293:306,1,135.000005149842,0|4,0:0|0:0,0:0:0:0:
324,236,47507,1,0,0:0:0:0:
356,160,47672,6,0,P|368:112|384:92,1,67.5000025749208,4|2,0:0|0:0,0:0:0:0:
404,228,48002,2,0,P|392:276|376:296,1,67.5000025749208,8|0,0:0|0:0,0:0:0:0:
304,308,48331,2,0,B|272:300|240:324|240:324|208:348|176:340,1,135.000005149842,2|8,0:0|0:0,0:0:0:0:
188,260,48826,1,0,0:0:0:0:
93,202,48991,6,0,P|176:224|240:164,1,180,4|8,0:0|0:0,0:0:0:0:
228,56,49485,1,0,0:0:0:0:
120,68,49650,2,0,P|124:108|156:144,1,90,2|2,0:0|0:0,0:0:0:0:
240,164,49980,1,8,0:0:0:0:
214,320,50145,2,0,P|250:294|264:252,1,90,0|2,0:0|0:0,0:0:0:0:
176,240,50474,1,2,0:0:0:0:
248,336,50639,2,0,P|288:356|340:356,1,90,8|0,0:0|0:0,0:0:0:0:
332,188,50969,2,0,P|312:224|308:272,1,90,2|2,0:0|0:0,0:0:0:0:
416,256,51298,1,8,0:0:0:0:
420,148,51463,6,0,P|332:172|260:120,1,180,2|2,0:0|0:0,0:0:0:0:
348,84,51958,2,0,P|372:40|404:16,1,90,8|0,0:0|0:0,0:0:0:0:
512,108,52287,2,0,P|472:114|428:94,1,90,2|2,0:0|0:0,0:0:0:0:
276,48,52617,1,8,0:0:0:0:
204,132,52782,2,0,B|184:184|128:188|128:188|172:260,1,180,2|2,0:0|0:0,0:0:0:0:
252,216,53276,1,8,0:0:0:0:
124,104,53441,1,0,0:0:0:0:
88,260,53606,5,8,0:0:0:0:
93,281,53688,1,8,0:0:0:0:
103,301,53770,1,8,0:0:0:0:
118,318,53853,1,0,0:0:0:0:
137,331,53935,1,10,0:0:0:0:
158,338,54018,1,2,0:0:0:0:
180,340,54100,1,0,0:0:0:0:
202,337,54182,1,2,0:0:0:0:
223,329,54265,6,0,P|258:289|248:205,1,135,4|0,0:0|0:0,0:0:0:0:
236,196,54595,1,8,0:0:0:0:
136,180,54760,2,0,P|88:168|56:124,1,90,0|2,0:0|0:0,0:0:0:0:
72,32,55090,1,2,0:0:0:0:
180,36,55254,2,0,P|164:80|128:104,1,90,8|0,0:0|0:0,0:0:0:0:
64,244,55584,2,0,P|61:285|87:324,1,90,2|2,0:0|0:0,0:0:0:0:
168,252,55914,5,8,0:0:0:0:
200,364,56079,1,2,0:0:0:0:
96,332,56243,1,0,0:0:0:0:
168,252,56408,1,2,0:0:0:0:
200,364,56573,6,0,P|256:324|328:336,1,135,8|0,0:0|0:0,0:0:0:0:
332,348,56903,2,0,L|352:248,1,90,2|0,0:0|0:0,0:0:0:0:
308,96,57232,2,0,L|288:196,1,90,8|0,0:0|0:0,0:0:0:0:
376,180,57562,1,2,0:0:0:0:
268,264,57727,1,2,0:0:0:0:
152,192,57892,2,0,P|104:176|60:200,1,90,8|0,0:0|0:0,0:0:0:0:
112,292,58221,1,2,0:0:0:0:
8,304,58386,1,2,0:0:0:0:
48,204,58551,2,0,L|60:112,1,90,8|2,0:0|0:0,0:0:0:0:
148,56,58881,6,0,P|176:104|224:120,1,90,0|2,0:0|0:0,0:0:0:0:
312,96,59210,1,8,0:0:0:0:
240,16,59375,1,0,0:0:0:0:
260,188,59540,6,0,P|304:212|384:168,1,135,2|0,0:0|0:0,0:0:0:0:
392,168,59870,2,0,L|380:264,1,90,8|0,0:0|0:0,0:0:0:0:
340,360,60200,1,2,0:0:0:0:
260,188,60364,2,0,L|271:277,1,90,2|8,0:0|0:0,0:0:0:0:
340,360,60694,1,0,0:0:0:0:
232,356,60859,6,0,P|120:340|104:300,1,135,2|0,0:0|0:0,0:0:0:0:
116,308,61189,2,0,P|132:264|116:224,1,90,8|0,0:0|0:0,0:0:0:0:
16,264,61518,1,2,0:0:0:0:
36,156,61683,2,0,P|72:128|120:120,2,90,2|8|0,0:0|0:0|0:0,0:0:0:0:
200,160,62178,6,0,P|248:144|280:108,1,90,2|2,0:0|0:0,0:0:0:0:
184,60,62507,1,8,0:0:0:0:
280,12,62672,2,0,P|324:20|368:68,1,90,2|0,0:0|0:0,0:0:0:0:
372,156,63002,1,2,0:0:0:0:
288,228,63167,2,0,P|252:280|284:352,1,135,8|0,0:0|0:0,0:0:0:0:
284,348,63496,2,0,L|184:320,1,90,8|0,0:0|0:0,0:0:0:0:
328,292,63826,2,0,L|428:320,1,90,8|0,0:0|0:0,0:0:0:0:
464,220,64156,1,2,0:0:0:0:
372,156,64320,5,8,0:0:0:0:
370,133,64402,1,0,0:0:0:0:
364,112,64484,1,2,0:0:0:0:
353,92,64567,1,2,0:0:0:0:
339,75,64649,1,2,0:0:0:0:
321,61,64732,1,2,0:0:0:0:
300,52,64815,6,0,P|236:56|180:108,1,135,4|0,0:0|0:0,0:0:0:0:
176,116,65145,2,0,L|152:16,1,90,8|0,0:0|0:0,0:0:0:0:
272,140,65474,1,2,0:0:0:0:
164,124,65639,1,2,0:0:0:0:
204,224,65804,1,8,0:0:0:0:
164,124,65969,2,0,P|120:156|56:148,1,90,0|2,0:0|0:0,0:0:0:0:
92,52,66298,1,2,0:0:0:0:
72,160,66463,2,0,L|56:252,1,90,8|2,0:0|0:0,0:0:0:0:
220,312,66793,2,0,L|204:220,1,90,0|2,0:0|0:0,0:0:0:0:
164,124,67123,6,0,P|220:68|288:88,1,135,8|0,0:0|0:0,0:0:0:0:
284,92,67452,2,0,P|280:136|300:184,1,90,4|0,0:0|0:0,0:0:0:0:
392,284,67782,2,0,P|396:240|376:192,1,90,8|0,0:0|0:0,0:0:0:0:
300,264,68112,1,2,0:0:0:0:
368,116,68276,1,2,0:0:0:0:
472,240,68441,1,8,0:0:0:0:
376,292,68606,6,0,P|296:264|228:324,1,180,2|2,0:0|0:0,0:0:0:0:
312,352,69101,1,8,0:0:0:0:
144,340,69265,1,2,0:0:0:0:
112,236,69430,2,0,P|136:176|60:104,1,180,2|8,0:0|0:0,0:0:0:0:
56,184,69925,1,0,0:0:0:0:
200,128,70090,6,0,P|272:116|360:44,1,180,4|0,0:0|0:0,0:0:0:0:
456,88,70584,2,0,P|420:148|436:256,1,180,8|2,0:0|0:0,0:0:0:0:
264,356,71079,2,0,P|304:344|336:308,1,90,8|0,0:0|0:0,0:0:0:0:
252,260,71408,6,0,B|196:272|176:320|176:320|88:304,1,180,2|8,0:0|0:0,0:0:0:0:
144,208,71903,1,2,0:0:0:0:
216,128,72068,2,0,P|288:124|300:28,1,180,8|2,0:0|0:0,0:0:0:0:
196,40,72562,2,0,L|236:216,1,180,8|0,0:0|0:0,0:0:0:0:
344,232,73057,6,0,P|392:224|420:184,1,90,8|0,0:0|0:0,0:0:0:0:
432,88,73386,1,2,0:0:0:0:
324,76,73551,2,0,P|324:120|352:160,1,90,2|8,0:0|0:0,0:0:0:0:
496,156,73881,1,0,0:0:0:0:
448,252,74046,5,8,0:0:0:0:
344,232,74210,1,0,0:0:0:0:
440,260,74375,1,8,0:0:0:0:
332,240,74540,1,2,0:0:0:0:
358,347,74705,2,0,P|292:346|275:333,1,90,8|8,0:0|0:0,0:0:0:0:
256,312,74952,1,8,0:0:0:0:
244,292,75034,1,8,0:0:0:0:
240,270,75117,1,8,0:0:0:0:
241,247,75199,1,2,0:0:0:0:
249,227,75282,1,2,0:0:0:0:
265,212,75364,1,4,0:0:0:0:
256,192,75447,12,8,79650,0:0:0:0:
471,111,79980,5,8,0:0:0:0:
481,130,80062,1,8,0:0:0:0:
487,152,80144,1,8,0:0:0:0:
486,174,80227,1,8,0:0:0:0:
480,196,80309,1,2,0:0:0:0:
468,215,80392,1,2,0:0:0:0:
452,230,80474,1,2,0:0:0:0:
432,241,80556,1,2,0:0:0:0:
410,246,80639,6,0,P|327:243|283:319,1,180,4|0,0:0|0:0,0:0:0:0:
136,352,81134,2,0,P|146:308|144:256,1,90,8|0,0:0|0:0,0:0:0:0:
248,168,81463,2,0,L|271:263,2,90,0|8|2,0:0|0:0|0:0,0:0:0:0:
168,116,81958,1,0,0:0:0:0:
264,68,82123,2,0,P|336:100|416:44,1,180,4|2,0:3|0:0,0:0:0:0:
332,16,82617,5,8,0:0:0:0:
464,124,82782,1,0,0:0:0:0:
264,68,82947,1,8,0:0:0:0:
412,48,83112,1,0,0:0:0:0:
368,144,83276,6,0,B|352:200|352:200|396:264|344:320,1,180,4|0,0:0|0:0,0:0:0:0:
204,272,83771,2,0,P|252:252|304:260,1,90,8|0,0:0|0:0,0:0:0:0:
264,360,84101,1,0,0:0:0:0:
160,380,84265,1,8,0:0:0:0:
188,276,84430,2,0,L|164:176,1,90,2|0,0:0|0:0,0:0:0:0:
64,56,84760,2,0,L|88:156,1,90,2|0,0:0|0:0,0:0:0:0:
172,80,85090,5,2,0:0:0:0:
252,152,85254,1,8,0:0:0:0:
272,44,85419,1,0,0:0:0:0:
172,88,85584,1,8,0:0:0:0:
252,160,85749,1,0,0:0:0:0:
408,76,85914,6,0,P|388:120|408:180,1,90,4|0,0:0|0:0,0:0:0:0:
500,132,86243,1,0,0:0:0:0:
464,232,86408,2,0,P|420:256|380:260,2,90,8|0|0,0:0|0:0|0:0,0:0:0:0:
248,228,86903,2,0,P|292:204|332:200,2,90,8|0|0,0:0|0:0|0:0,0:0:0:0:
320,308,87397,1,8,0:0:0:0:
132,320,87562,2,0,P|168:340|216:332,1,90,0|8,0:0|0:0,0:0:0:0:
64,280,87892,2,0,P|28:301|11:345,1,90,8|0,0:0|0:0,0:0:0:0:
128,236,88221,2,0,P|127:194|97:158,1,90,8|0,0:0|0:0,0:0:0:0:
192,108,88551,6,0,P|240:136|288:128,1,90,4|0,0:0|0:0,0:0:0:0:
256,28,88881,1,0,0:0:0:0:
352,76,89046,2,0,P|372:128|364:180,1,90,8|0,0:0|0:0,0:0:0:0:
292,240,89375,1,0,0:0:0:0:
190,296,89540,2,0,P|146:320|94:316,1,90,8|0,0:0|0:0,0:0:0:0:
66,176,89870,2,0,P|110:152|162:156,1,90,0|8,0:0|0:0,0:0:0:0:
236,220,90200,1,0,0:0:0:0:
128,236,90365,1,8,0:0:0:0:
244,208,90529,1,8,0:0:0:0:
252,196,90612,5,8,0:0:0:0:
266,178,90694,1,8,0:0:0:0:
283,164,90776,1,8,0:0:0:0:
303,154,90859,1,2,0:0:0:0:
325,148,90941,1,2,0:0:0:0:
347,147,91024,1,2,0:0:0:0:
370,150,91106,1,2,0:0:0:0:
391,158,91189,6,0,P|432:200|440:232,1,90,4|0,0:0|0:0,0:0:0:0:
404,332,91518,1,0,0:0:0:0:
300,304,91683,2,0,P|320:264|360:236,2,90,8|0|8,0:0|0:0|0:0,0:0:0:0:
200,344,92178,2,0,P|152:360|100:352,1,90
160,260,92507,5,0,0:0:0:0:
184,156,92672,1,8,0:0:0:0:
80,184,92837,1,0,0:0:0:0:
168,248,93002,1,8,0:0:0:0:
196,144,93167,1,8,0:0:0:0:
92,172,93331,1,8,0:0:0:0:
116,68,93496,1,2,0:0:0:0:
220,36,93661,1,0,0:0:0:0:
296,112,93826,6,0,P|336:136|384:140,1,90,4|0,0:0|0:0,0:0:0:0:
364,32,94156,1,8,0:0:0:0:
464,76,94320,2,0,P|488:128|484:176,1,90,8|0,0:0|0:0,0:0:0:0:
400,224,94650,1,8,0:0:0:0:
384,359,94815,1,2,0:0:0:0:
271,279,94980,1,4,0:0:0:0:
