osu file format v14

[General]
AudioFilename: Shimo jasumin (2014ver.).mp3
AudioLeadIn: 1600
PreviewTime: 82282
Countdown: 0
SampleSet: Soft
StackLeniency: 0.4
Mode: 0
LetterboxInBreaks: 0
WidescreenStoryboard: 0

[Editor]
Bookmarks: 193635
DistanceSpacing: 1
BeatDivisor: 4
GridSize: 4
TimelineZoom: 1.4

[Metadata]
Title:Gekka Jasmine (2014ver.)
TitleUnicode:月下ジャスミン (2014ver.)
Artist:Hana
ArtistUnicode:はな
Creator:PinkHeart
Version:Jasmine
Source:
Tags:松本文紀 Metrowing FrostxE Frostmourne Gyro Zeppeli LunaSaika imoutosan Alice
BeatmapID:887502
BeatmapSetID:408745

[Difficulty]
HPDrainRate:7.2
CircleSize:3.8
OverallDifficulty:8.5
ApproachRate:9.2
SliderMultiplier:1.4
SliderTickRate:1

[Events]
//Background and Video events
0,0,"bg.jpg",0,0
//Break Periods
//Storyboard Layer 0 (Background)
//Storyboard Layer 1 (Fail)
//Storyboard Layer 2 (Pass)
//Storyboard Layer 3 (Foreground)
//Storyboard Sound Samples

[TimingPoints]
400,352.941176470588,4,2,1,55,1,0
1635,-133.333333333333,4,2,1,55,0,0
1723,-133.333333333333,4,2,1,10,0,0
3047,-133.333333333333,4,2,1,5,0,0
3223,-100,4,2,1,55,0,0
4988,-133.333333333333,4,2,1,55,0,0
5076,-133.333333333333,4,2,1,10,0,0
5870,-133.333333333333,4,2,1,5,0,0
6047,-100,4,2,1,55,0,0
7635,-100,4,2,1,5,0,0
7811,-133.333333333333,4,2,1,55,0,0
7899,-133.333333333333,4,2,1,10,0,0
8694,-133.333333333333,4,2,1,5,0,0
8870,-100,4,2,1,55,0,0
11694,-50,4,2,1,55,0,0
12929,-66.6666666666667,4,2,1,55,0,0
14870,-50,4,2,1,55,0,0
15223,-66.6666666666667,4,2,1,55,0,0
17341,-50,4,2,1,55,0,0
18399,-66.6666666666667,4,2,1,55,0,0
34811,-100,4,2,1,55,0,0
35694,-133.333333333333,4,2,1,55,0,0
37105,-100,4,2,1,55,0,0
59694,-100,4,2,1,35,0,0
69752,-100,4,2,1,45,0,0
69929,-100,4,2,1,55,0,0
79458,-66.6666666666667,4,2,1,55,0,0
79988,-50,4,2,1,55,0,0
80716,-50,4,2,1,5,0,0
81223,-50,4,2,1,10,0,0
81399,-50,4,2,1,13,0,0
81576,-50,4,2,1,18,0,0
81752,-50,4,2,1,23,0,0
81929,-50,4,2,1,34,0,0
82105,-50,4,2,1,45,0,0
82282,-66.6666666666667,4,2,1,55,0,1
104870,-66.6666666666667,4,2,1,55,0,0
105311,-66.6666666666667,4,2,1,5,0,0
105399,-66.6666666666667,4,2,1,55,0,0
106282,-133.333333333333,4,2,1,55,0,0
107164,-133.333333333333,4,2,1,5,0,0
107341,-133.333333333333,4,2,1,55,0,0
107694,-100,4,2,1,55,0,0
130547,-100,4,2,1,5,0,0
130635,-100,4,2,1,55,0,0
130899,-100,4,2,1,5,0,0
130988,-100,4,2,1,55,0,0
131252,-100,4,2,1,5,0,0
131341,-100,4,2,1,55,0,0
131605,-100,4,2,1,5,0,0
131694,-100,4,2,1,55,0,0
131958,-100,4,2,1,5,0,0
132047,-100,4,2,1,55,0,0
132311,-100,4,2,1,5,0,0
132399,-100,4,2,1,55,0,0
132664,-100,4,2,1,5,0,0
132752,-100,4,2,1,55,0,0
133017,-100,4,2,1,5,0,0
133105,-100,4,2,1,55,0,0
133370,-100,4,2,1,5,0,0
133458,-100,4,2,1,55,0,0
133723,-100,4,2,1,5,0,0
133811,-100,4,2,1,55,0,0
134076,-100,4,2,1,5,0,0
134164,-100,4,2,1,55,0,0
134429,-100,4,2,1,5,0,0
134517,-100,4,2,1,55,0,0
134782,-100,4,2,1,5,0,0
134870,-100,4,2,1,55,0,0
135135,-100,4,2,1,5,0,0
135223,-100,4,2,1,55,0,0
135488,-100,4,2,1,5,0,0
135576,-100,4,2,1,55,0,0
135841,-100,4,2,1,5,0,0
135929,-100,4,2,1,55,0,0
136194,-100,4,2,1,5,0,0
136282,-100,4,2,1,55,0,0
136547,-100,4,2,1,5,0,0
136635,-100,4,2,1,55,0,0
136899,-100,4,2,1,5,0,0
136988,-100,4,2,1,55,0,0
137252,-100,4,2,1,5,0,0
137341,-100,4,2,1,55,0,0
137605,-100,4,2,1,5,0,0
137694,-100,4,2,1,55,0,0
137958,-100,4,2,1,5,0,0
138047,-100,4,2,1,55,0,0
138311,-100,4,2,1,5,0,0
138399,-100,4,2,1,55,0,0
138664,-100,4,2,1,5,0,0
138752,-100,4,2,1,55,0,0
139017,-100,4,2,1,5,0,0
139105,-100,4,2,1,55,0,0
139370,-100,4,2,1,5,0,0
139458,-100,4,2,1,55,0,0
139723,-100,4,2,1,5,0,0
139811,-100,4,2,1,55,0,0
140076,-100,4,2,1,5,0,0
140164,-100,4,2,1,55,0,0
151304,-100,4,2,1,15,0,0
151635,-100,4,2,1,55,0,0
151988,-66.6666666666667,4,2,1,35,0,0
152517,-50,4,2,1,55,0,0
152870,-66.6666666666667,4,2,1,55,0,1
174047,-66.6666666666667,4,2,1,55,0,0
174752,-66.6666666666667,4,2,1,35,0,0
175105,-66.6666666666667,4,2,1,45,0,0
175282,-66.6666666666667,4,2,1,55,0,0
175458,-50,4,2,1,65,0,1
176694,-66.6666666666667,4,2,1,65,0,1
186752,-50,4,2,1,65,0,1
187105,-66.6666666666667,4,2,1,65,0,1
198047,-100,4,2,1,55,0,0
198399,-100,4,2,1,5,0,0
198576,-100,4,2,1,55,0,0
199105,-100,4,2,1,5,0,0
199149,-100,4,2,1,55,0,0
199458,-200,4,2,1,55,0,0
199547,-200,4,2,1,5,0,0

[Colours]
Combo1 : 255,255,128
Combo2 : 255,255,255
Combo3 : 255,219,144

[HitObjects]
245,192,400,6,0,L|314:204,1,70,2|2,0:0|0:0,0:0:0:0:
393,218,752,1,0,0:0:0:0:
314,204,929,2,0,L|176:227,1,140,2|0,0:0|0:0,0:0:0:0:
234,173,1458,1,2,0:0:0:0:
175,226,1635,6,0,P|73:91|243:93,1,420.000016021729,2|0,0:0|0:0,0:0:0:0:
244,214,3223,6,0,L|175:226,1,70,2|0,0:0|0:0,0:0:0:0:
90,220,3576,1,2,0:0:0:0:
175,226,3752,2,0,L|313:248,1,140,2|2,0:0|0:0,0:0:0:0:
293,322,4282,1,2,0:0:0:0:
257,195,4458,1,2,0:0:0:0:
313,248,4635,6,0,P|383:235|398:217,1,70
334,173,4988,2,0,P|424:98|445:204,1,262.500010013581,2|0,0:0|0:0,0:0:0:0:
382,260,6047,6,0,L|314:248,1,70,2|2,0:0|0:0,0:0:0:0:
450,197,6400,1,0,0:0:0:0:
314,248,6576,2,0,L|154:276,1,140,2|2,0:0|0:0,0:0:0:0:
240,224,7105,1,2,0:0:0:0:
90,210,7282,6,0,L|227:234,1,140,2|0,0:0|0:0,0:0:0:0:
314,248,7811,2,0,P|263:336|228:234,1,262.500010013581,2|0,0:0|0:0,0:0:0:0:
294,155,8870,6,0,L|279:86,1,70,2|0,0:0|0:0,0:0:0:0:
314,248,9223,1,0,0:0:0:0:
259,182,9400,6,0,L|288:45,1,140,2|2,0:0|0:0,0:0:0:0:
240,260,9929,1,0,0:0:0:0:
288,319,10105,6,0,L|259:182,1,140,2|0,0:0|0:0,0:0:0:0:
273,113,10635,2,0,L|245:251,2,140,2|0|0,0:0|0:0|0:0,0:0:0:0:
288,318,11694,5,4,0:0:0:0:
288,318,12047,2,0,P|253:255|345:281,1,210,2|0,1:3|0:0,0:0:0:0:
386,364,12400,1,0,3:0:0:0:
375,340,12488,1,0,3:0:0:0:
365,317,12576,1,0,1:0:0:0:
387,196,12752,1,0,0:0:0:0:
365,317,12929,6,0,B|342:378|342:378|292:215,1,210.000008010865,4|0,3:1|0:0,0:0:0:0:
319,130,13458,1,2,1:3:0:0:
284,343,13635,2,0,L|299:239,1,105.000004005432,0|0,3:0|0:0,0:0:0:0:
298,21,13988,5,0,0:0:0:0:
336,234,14164,2,0,L|319:130,1,105.000004005432,2|0,1:3|0:0,0:0:0:0:
298,21,14517,5,4,0:0:0:0:
298,21,14870,2,0,P|263:84|355:58,1,210,2|0,1:3|3:0,0:0:0:0:
450,114,15223,1,0,3:0:0:0:
426,103,15311,1,0,3:0:0:0:
403,93,15400,1,0,1:0:0:0:
512,31,15576,1,0,0:0:0:0:
403,93,15752,6,0,L|217:198,1,210.000008010865,4|0,0:1|0:0,0:0:0:0:
416,327,16282,1,2,1:3:0:0:
362,237,16458,2,0,L|309:144,1,105.000004005432
274,286,16811,5,0,3:0:0:0:
220,196,16988,2,0,L|168:104,1,105.000004005432,2|0,1:3|0:0,0:0:0:0:
184,340,17341,5,4,0:0:0:0:
184,340,17694,2,0,P|104:370|126:287,1,210,2|0,1:3|0:0,0:0:0:0:
220,248,18047,1,0,3:0:0:0:
194,256,18135,1,0,3:0:0:0:
171,266,18223,1,0,1:0:0:0:
55,183,18400,1,0,0:0:0:0:
20,296,18576,6,0,B|0:359|0:359|125:287,1,210.000008010865,4|0,0:1|0:0,0:0:0:0:
160,174,19105,1,2,1:3:0:0:
20,296,19282,2,0,L|125:287,1,105.000004005432,0|0,3:0|0:0,0:0:0:0:
196,61,19635,1,0,0:0:0:0:
231,218,19812,2,0,L|384:246,1,105.000004005432,2|0,1:3|0:0,0:0:0:0:
438,256,20164,5,4,0:0:0:0:
438,256,20517,1,0,1:3:0:0:
428,152,20694,2,0,L|438:256,1,105.000004005432,0|0,3:0|0:0,0:0:0:0:
448,361,21046,2,0,L|438:257,1,105.000004005432,0|0,1:0|0:0,0:0:0:0:
417,48,21399,5,0,1:0:0:0:
438,256,21576,1,0,3:0:0:0:
504,97,21752,5,2,1:3:0:0:
351,207,21929,1,0,3:0:0:0:
503,187,22105,5,0,1:0:0:0:
349,117,22282,1,0,3:0:0:0:
433,225,22458,5,0,0:0:0:0:
419,79,22635,1,0,1:0:0:0:
417,66,22723,1,0,1:0:0:0:
416,53,22811,1,0,1:0:0:0:
415,39,22899,1,0,1:0:0:0:
414,26,22988,6,0,L|404:130,1,105.000004005432,4|0,3:2|0:0,0:0:0:0:
395,273,23341,1,2,1:3:0:0:
418,30,23517,6,0,L|408:134,1,105.000004005432,4|0,0:2|0:0,0:0:0:0:
399,277,23870,1,0,3:0:0:0:
402,251,23958,1,0,3:0:0:0:
404,225,24046,1,0,3:0:0:0:
398,332,24223,6,0,P|476:285|408:228,1,210.000008010865,4|0,0:1|0:0,0:0:0:0:
324,273,24752,1,2,1:3:0:0:
407,228,24929,2,0,P|423:179|404:130,1,105.000004005432,0|0,3:0|0:0,0:0:0:0:
324,81,25282,5,0,0:0:0:0:
404,130,25459,2,0,P|454:118|486:77,1,105.000004005432,2|0,1:3|0:0,0:0:0:0:
316,274,25811,6,0,L|212:264,1,105.000004005432,4|0,3:2|0:0,0:0:0:0:
107,253,26164,1,2,1:3:0:0:
312,270,26341,6,0,L|208:260,1,105.000004005432,4|0,0:0|0:0,0:0:0:0:
181,257,26605,1,0,3:0:0:0:
155,254,26694,1,0,3:0:0:0:
129,252,26783,1,0,3:0:0:0:
103,249,26871,1,0,3:0:0:0:
308,266,27047,6,0,P|269:189|204:256,1,210.000008010865,4|0,0:1|0:0,0:0:0:0:
248,337,27576,1,2,1:3:0:0:
391,224,27752,2,0,P|353:146|326:123,1,105.000004005432,0|0,0:0|3:0,0:0:0:0:
308,266,28105,5,0,3:0:0:0:
484,176,28282,2,0,L|391:223,1,105.000004005432,2|0,1:3|0:0,0:0:0:0:
210,309,28635,6,0,L|303:261,1,105.000004005432,4|0,3:2|0:0,0:0:0:0:
484,172,28988,1,4,1:2:0:0:
452,140,29076,1,0,3:0:0:0:
408,141,29164,1,0,3:0:0:0:
378,174,29252,1,0,3:0:0:0:
382,219,29340,1,0,3:0:0:0:
484,168,29517,5,2,1:3:0:0:
381,328,29694,1,0,0:0:0:0:
292,157,29870,6,0,L|245:64,1,105.000004005432,4|0,0:1|0:0,0:0:0:0:
304,260,30223,1,0,0:0:0:0:
292,157,30399,1,2,1:3:0:0:
407,249,30576,2,0,L|454:342,1,105.000004005432
304,260,30929,1,0,3:0:0:0:
395,146,31105,2,0,L|489:98,1,105.000004005432,2|0,1:3|0:0,0:0:0:0:
304,260,31458,5,4,3:2:0:0:
315,78,31635,1,0,0:0:0:0:
468,178,31811,1,2,1:3:0:0:
304,260,31988,2,0,L|210:308,1,105.000004005432,4|0,0:0|0:0,0:0:0:0:
220,110,32341,5,0,0:0:0:0:
386,218,32517,1,2,1:3:0:0:
210,308,32694,1,0,0:0:0:0:
334,116,32870,5,0,1:0:0:0:
157,206,33046,1,0,3:0:0:0:
324,313,33223,1,0,1:0:0:0:
234,137,33399,5,0,3:0:0:0:
226,282,33576,1,0,1:0:0:0:
355,216,33752,1,0,1:0:0:0:
211,208,33929,5,0,3:0:0:0:
299,265,34105,1,0,3:0:0:0:
304,161,34282,1,4,0:1:0:0:
300,157,34811,6,0,B|278:131|278:131|329:150|386:122|408:63|380:22|347:16|318:27|304:61,1,280
364,203,35605,1,0,0:0:0:0:
364,204,35694,6,0,B|343:224|308:249|257:222|257:222|200:160|200:160|152:200|175:264,1,315.000012016297,2|0,0:0|0:0,0:0:0:0:
244,304,36929,1,0,0:0:0:0:
300,156,37105,6,0,L|197:36,1,140,4|0,0:0|3:0,0:0:0:0:
305,161,37635,1,0,0:0:0:0:
309,165,37988,1,0,0:0:0:0:
313,169,38341,1,2,0:3:0:0:
317,173,38694,1,0,3:0:0:0:
321,177,39047,1,0,0:0:0:0:
266,122,39223,5,2,0:2:0:0:
325,181,39399,1,0,0:0:0:0:
347,101,39576,1,2,3:0:0:0:
186,144,39752,1,0,0:0:0:0:
303,258,39929,6,0,L|344:105,1,140,0|0,0:0|3:0,0:0:0:0:
301,263,40459,1,0,0:0:0:0:
300,268,40811,1,0,0:0:0:0:
299,273,41164,1,2,0:3:0:0:
298,278,41517,1,0,3:0:0:0:
297,283,41870,1,0,0:0:0:0:
312,206,42047,5,2,0:0:0:0:
296,288,42223,1,0,0:0:0:0:
249,153,42399,1,2,3:0:0:0:
219,315,42576,1,0,0:0:0:0:
375,262,42752,6,0,L|525:213,1,140,0|0,0:0|3:0,0:0:0:0:
369,262,43282,1,0,0:0:0:0:
365,264,43635,1,0,0:0:0:0:
359,265,43988,1,2,3:3:0:0:
354,267,44341,5,0,0:0:0:0:
420,218,44517,1,2,3:0:0:0:
347,188,44694,2,0,P|310:199|289:222,1,70
420,218,45046,1,0,3:0:0:0:
293,226,45223,1,2,3:0:0:0:
330,107,45399,1,0,0:0:0:0:
420,217,45576,6,0,L|514:344,1,140,0|0,0:0|3:0,0:0:0:0:
416,211,46106,1,0,0:0:0:0:
413,207,46459,1,0,0:0:0:0:
409,202,46811,1,2,0:3:0:0:
405,198,47164,1,0,3:0:0:0:
401,194,47517,1,0,0:0:0:0:
494,211,47694,5,2,1:3:0:0:
397,190,47870,1,2,3:3:0:0:
473,123,48047,1,0,1:0:0:0:
393,186,48223,1,0,0:0:0:0:
398,85,48399,6,0,L|287:169,1,140,4|0,0:0|3:0,0:0:0:0:
398,64,48929,1,0,0:0:0:0:
418,58,49282,1,0,0:0:0:0:
430,75,49635,1,2,0:3:0:0:
418,92,49988,1,0,0:0:0:0:
398,85,50341,5,0,0:0:0:0:
337,0,50517,1,2,0:0:0:0:
237,32,50694,1,0,0:0:0:0:
237,137,50870,1,2,3:0:0:0:
337,170,51047,1,0,0:0:0:0:
175,222,51223,6,0,L|12:274,1,140,0|0,0:0|3:0,0:0:0:0:
195,229,51752,1,0,0:0:0:0:
207,212,52105,1,0,0:0:0:0:
195,195,52458,1,2,0:3:0:0:
175,201,52811,1,0,0:0:0:0:
175,222,53164,5,0,0:0:0:0:
175,110,53341,1,2,0:0:0:0:
282,75,53517,1,0,0:0:0:0:
347,166,53694,1,2,3:0:0:0:
282,257,53870,1,0,0:0:0:0:
348,346,54047,6,0,L|444:211,1,140,0|0,0:0|3:0,0:0:0:0:
336,363,54576,1,0,0:0:0:0:
316,356,54929,1,0,0:0:0:0:
316,335,55282,1,2,0:3:0:0:
336,329,55635,1,0,0:0:0:0:
348,346,55988,5,0,0:0:0:0:
348,240,56164,1,2,0:0:0:0:
248,207,56341,1,0,0:0:0:0:
186,292,56517,1,2,3:0:0:0:
252,382,56694,1,0,0:0:0:0:
348,346,56870,6,0,L|509:288,1,140,0|0,0:0|3:0,0:0:0:0:
236,380,57399,1,0,0:0:0:0:
224,352,57752,1,0,0:0:0:0:
212,324,58105,1,0,3:0:0:0:
203,302,58458,1,0,0:0:0:0:
203,302,58635,5,4,0:2:0:0:
264,341,58811,1,0,0:0:0:0:
210,322,58988,5,2,1:3:0:0:
270,321,59164,1,0,3:0:0:0:
217,342,59341,5,0,3:0:0:0:
277,301,59517,1,0,0:0:0:0:
157,382,59694,5,4,1:0:0:0:
157,382,60047,1,0,0:0:0:0:
157,382,60399,1,0,0:0:0:0:
157,382,60752,1,4,3:0:0:0:
232,364,60929,1,0,0:0:0:0:
293,317,61105,6,0,P|318:268|302:175,1,140
261,124,61635,1,0,0:0:0:0:
239,261,61811,1,4,0:0:0:0:
293,317,61988,1,0,0:0:0:0:
367,336,62164,1,4,0:3:0:0:
442,321,62341,1,0,0:0:0:0:
500,270,62517,5,4,1:0:0:0:
500,270,62870,1,0,0:0:0:0:
500,270,63223,1,0,0:0:0:0:
500,270,63576,1,4,0:3:0:0:
426,292,63752,1,0,0:0:0:0:
350,276,63929,5,0,0:0:0:0:
402,220,64105,1,4,0:3:0:0:
418,144,64282,2,0,P|409:89|348:31,1,140,4|0,0:3|0:0,0:0:0:0:
223,112,64811,1,0,0:0:0:0:
231,187,64987,1,0,0:0:0:0:
279,247,65164,1,0,0:0:0:0:
350,276,65340,5,4,1:0:0:0:
350,276,65694,1,0,0:0:0:0:
350,276,66047,1,0,0:0:0:0:
350,276,66399,1,4,0:3:0:0:
426,292,66576,1,0,0:0:0:0:
374,348,66752,5,0,0:0:0:0:
297,356,66929,1,0,0:0:0:0:
220,364,67105,2,0,L|80:378,1,140
20,270,67635,1,0,0:0:0:0:
97,278,67812,1,4,0:3:0:0:
174,286,67988,1,0,0:0:0:0:
250,293,68164,6,0,P|276:269|289:237,1,70,4|0,0:0|0:0,0:0:0:0:
277,60,68517,1,4,3:0:0:0:
196,61,68694,2,0,P|205:95|226:123,1,70,0|0,3:0|0:0,0:0:0:0:
385,198,69047,1,0,3:0:0:0:
423,131,69223,2,0,P|390:122|356:127,1,70,4|0,3:0|3:0,0:0:0:0:
160,184,69576,5,0,0:0:0:0:
251,294,69752,1,0,0:0:0:0:
291,163,69929,1,0,3:0:0:0:
380,268,70105,1,0,3:0:0:0:
422,142,70282,2,0,L|432:104,2,35,0|0|0,3:0|3:0|3:0,0:0:0:0:
380,268,70635,1,0,3:0:0:0:
375,284,70723,1,0,3:0:0:0:
370,300,70811,1,0,3:0:0:0:
291,163,70988,6,0,P|230:131|162:138,1,140,4|8,0:0|0:0,0:0:0:0:
81,290,71517,2,0,P|150:288|207:248,1,140
288,335,72047,1,8,0:0:0:0:
207,248,72223,6,0,P|199:179|231:118,1,140
340,72,72752,2,0,P|348:140|316:202,1,140,8|0,0:0|0:0,0:0:0:0:
231,118,73282,1,0,0:0:0:0:
462,162,73458,1,8,0:0:0:0:
231,118,73635,1,0,0:0:0:0:
103,303,73811,5,4,0:0:0:0:
228,259,73988,1,0,0:0:0:0:
134,196,74164,1,8,0:0:0:0:
103,303,74341,2,0,P|172:300|228:259,1,140
303,94,74870,1,8,0:0:0:0:
441,285,75047,6,0,P|375:264|332:210,1,140
309,340,75576,2,0,P|340:278|332:210,1,140,8|0,0:0|0:0,0:0:0:0:
241,95,76105,1,0,0:0:0:0:
332,210,76282,1,8,0:0:0:0:
386,72,76458,6,0,L|369:114,1,35,0|0,0:0|3:0,0:0:0:0:
332,210,76635,1,0,3:0:0:0:
241,95,76811,1,0,0:0:0:0:
187,232,76988,1,8,0:0:0:0:
110,107,77164,2,0,P|174:80|242:95,1,140
86,208,77694,2,0,P|25:164|8:100,1,140,8|0,0:0|0:0,0:0:0:0:
187,232,78223,1,0,0:0:0:0:
110,107,78399,5,8,0:0:0:0:
63,310,78576,1,0,0:0:0:0:
288,254,78752,5,8,0:2:0:0:
86,208,78929,1,0,3:0:0:0:
163,332,79105,5,8,3:2:0:0:
208,132,79282,1,0,3:0:0:0:
288,254,79458,6,0,L|345:341,1,105.000004005432,4|0,0:0|0:0,0:0:0:0:
164,64,79811,1,0,1:3:0:0:
288,254,79988,6,0,P|291:322|255:381,1,140,4|0,0:0|0:0,0:0:0:0:
0,124,80341,1,0,1:0:0:0:
58,170,80429,1,0,3:0:0:0:
133,179,80517,1,0,3:0:0:0:
399,108,80694,2,0,L|416:94,70,17.5,4|0|0|0|0|0|0|0|0|0|0|0|0|0|0|0|0|0|0|0|0|0|0|0|0|0|0|0|0|0|0|0|0|0|0|0|0|0|0|0|0|0|0|0|0|0|0|0|0|0|0|0|0|0|0|0|0|0|0|0|0|0|0|0|0|0|0|0|0|0|0,0:0|0:0|0:0|0:0|0:0|0:0|0:0|0:0|0:0|0:0|0:0|0:0|0:0|0:0|0:0|0:0|0:0|0:0|0:0|0:0|0:0|0:0|0:0|0:0|0:0|0:0|0:0|0:0|0:0|0:0|0:0|0:0|0:0|0:0|0:0|0:0|0:0|0:0|0:0|0:0|0:0|0:0|0:0|0:0|0:0|0:0|0:0|0:0|0:0|0:0|0:0|0:0|0:0|0:0|0:0|0:0|0:0|0:0|0:0|0:0|0:0|0:0|0:0|0:0|0:0|0:0|0:0|0:0|0:0|0:0|0:0,0:0:0:0:
384,124,82282,5,4,1:0:0:0:
384,124,82635,1,4,0:2:0:0:
320,260,82811,1,0,0:0:0:0:
384,124,82988,1,0,3:0:0:0:
366,94,83076,1,0,3:0:0:0:
335,80,83164,1,0,3:0:0:0:
301,89,83252,1,0,3:0:0:0:
280,116,83340,1,0,0:0:0:0:
280,150,83429,1,0,3:0:0:0:
299,177,83517,6,0,P|331:223|231:207,1,210.000008010865,4|0,0:1|0:0,0:0:0:0:
240,56,84047,1,0,1:3:0:0:
230,238,84223,1,0,0:0:0:0:
230,238,84576,1,0,3:0:0:0:
296,352,84752,2,0,P|346:338|366:292,1,105.000004005432,0|0,1:2|0:0,0:0:0:0:
132,216,85105,6,0,P|74:204|28:221,1,105.000004005432,4|0,0:0|0:0,0:0:0:0:
256,140,85458,1,2,1:3:0:0:
211,373,85634,1,0,3:0:0:0:
165,359,85723,1,0,3:0:0:0:
165,311,85811,1,0,3:0:0:0:
210,298,85899,1,0,3:0:0:0:
238,335,85987,1,0,3:0:0:0:
124,168,86164,1,0,0:0:0:0:
284,348,86341,6,0,P|396:344|440:260,1,210.000008010865,4|0,0:0|0:0,0:0:0:0:
196,236,86870,1,0,1:3:0:0:
439,266,87047,2,0,L|317:251,1,105.000004005432,0|0,3:0|0:0,0:0:0:0:
196,236,87399,1,0,1:0:0:0:
376,157,87576,1,0,1:3:0:0:
241,340,87752,1,0,0:0:0:0:
150,131,87929,5,4,0:0:0:0:
150,131,88282,1,2,3:3:0:0:
180,91,88370,1,0,3:0:0:0:
229,99,88458,1,0,3:0:0:0:
245,146,88546,1,0,3:0:0:0:
210,182,88634,1,0,3:0:0:0:
216,20,88811,1,0,0:3:0:0:
120,280,88988,1,0,1:0:0:0:
288,220,89164,6,0,P|360:220|452:316,1,210.000008010865,4|0,0:1|0:0,0:0:0:0:
329,129,89694,1,0,1:3:0:0:
192,228,89870,2,0,P|216:156|276:128,1,105.000004005432
123,300,90223,2,0,P|96:255|96:204,1,105.000004005432,0|0,0:0|1:3,0:0:0:0:
19,135,90576,1,0,0:0:0:0:
60,379,90752,6,0,P|124:302|97:205,1,210.000008010865,4|2,0:0|1:3,0:0:0:0:
232,310,91282,2,0,L|286:370,2,52.5000020027161,0|0|0,3:0|0:0|0:0,0:0:0:0:
16,72,91635,1,0,0:1:0:0:
16,280,91811,1,0,1:0:0:0:
197,176,91988,6,0,L|382:68,1,210.000008010865,4|0,0:0|0:3,0:0:0:0:
140,76,92517,5,0,1:3:0:0:
258,279,92694,1,0,0:0:0:0:
452,28,92870,5,0,1:3:0:0:
197,176,93047,1,0,0:0:0:0:
512,256,93223,5,0,1:3:0:0:
364,1,93400,1,0,0:0:0:0:
312,332,93576,5,4,1:0:0:0:
312,332,93929,1,4,1:2:0:0:
288,124,94105,1,0,0:0:0:0:
65,223,94282,1,0,3:0:0:0:
82,253,94370,1,0,3:0:0:0:
108,276,94459,1,0,3:0:0:0:
141,288,94547,1,0,3:0:0:0:
176,290,94635,1,0,3:0:0:0:
209,280,94723,1,0,3:0:0:0:
237,259,94811,6,0,P|333:230|409:296,1,210.000008010865,4|0,0:1|0:0,0:0:0:0:
440,116,95341,1,2,1:3:0:0:
409,296,95517,1,0,3:0:0:0:
409,296,95870,1,0,3:0:0:0:
440,116,96047,2,0,P|414:70|369:45,1,105.000004005432,2|0,1:3|0:0,0:0:0:0:
168,260,96399,6,0,P|84:245|64:224,1,105.000004005432,4|0,0:0|0:0,0:0:0:0:
263,223,96752,1,2,1:3:0:0:
16,319,96929,1,0,0:0:0:0:
48,52,97105,1,0,3:0:0:0:
93,37,97193,1,0,3:0:0:0:
120,75,97281,1,0,3:0:0:0:
93,114,97369,1,0,3:0:0:0:
49,99,97458,1,0,3:0:0:0:
185,280,97635,6,0,P|297:313|358:231,1,210.000008010865,4|0,0:1|0:0,0:0:0:0:
274,127,98164,1,2,1:3:0:0:
436,212,98341,1,0,0:0:0:0:
436,212,98693,1,0,3:0:0:0:
263,223,98870,1,0,1:0:0:0:
448,308,99047,1,0,3:0:0:0:
274,127,99223,5,4,1:0:0:0:
363,353,99399,1,0,0:0:0:0:
429,51,99576,1,2,3:0:0:0:
380,34,99664,1,0,3:0:0:0:
329,43,99752,1,0,3:0:0:0:
290,77,99840,1,0,3:0:0:0:
274,127,99928,1,0,3:2:0:0:
463,89,100105,1,0,0:0:0:0:
256,252,100282,1,0,1:3:0:0:
28,40,100458,5,4,0:0:0:0:
28,40,100811,1,0,0:0:0:0:
20,156,100988,2,0,P|34:218|64:256,1,105.000004005432,0|0,1:3|0:0,0:0:0:0:
28,40,101341,1,0,0:0:0:0:
59,251,101517,1,0,0:0:0:0:
216,55,101694,2,0,P|262:32|315:38,1,105.000004005432,0|0,1:3|3:0,0:0:0:0:
361,319,102047,5,4,0:2:0:0:
280,184,102223,1,0,3:0:0:0:
437,181,102399,1,0,1:0:0:0:
182,287,102576,2,0,P|139:172|202:67,1,210.000008010865,4|0,0:1|0:0,0:0:0:0:
304,48,103105,1,2,1:3:0:0:
45,141,103282,1,0,0:0:0:0:
280,184,103458,5,4,0:0:0:0:
169,96,103635,1,0,3:0:0:0:
144,252,103811,2,0,L|126:364,1,105.000004005432,0|0,1:0|0:0,0:0:0:0:
352,40,104164,5,4,0:1:0:0:
416,330,104341,1,0,0:0:0:0:
227,132,104517,1,0,1:0:0:0:
493,67,104694,1,0,1:0:0:0:
296,320,104870,6,0,B|248:256|296:200|348:144|296:72,1,262.500010013581,4|0,0:0|0:0,0:0:0:0:
167,61,105399,2,0,P|218:218|296:71,1,420.000016021729
296,71,106194,1,0,0:0:0:0:
227,128,106282,6,0,B|179:192|227:247|277:309|225:375,1,262.500010013581,2|0,0:0|0:0,0:0:0:0:
164,315,107341,1,2,0:0:0:0:
288,184,107517,1,0,0:0:0:0:
164,315,107694,6,0,P|95:315|44:269,1,140,4|0,0:0|3:0,0:0:0:0:
225,239,108223,1,0,0:0:0:0:
222,259,108576,1,0,0:0:0:0:
213,279,108929,1,2,3:0:0:0:
200,295,109282,1,0,3:0:0:0:
183,307,109635,1,0,0:0:0:0:
264,384,109811,5,2,0:0:0:0:
164,315,109988,1,0,0:0:0:0:
142,195,110164,1,2,3:0:0:0:
211,95,110341,1,0,0:0:0:0:
331,73,110517,6,0,P|390:107|411:172,1,140,0|0,0:0|3:0,0:0:0:0:
238,107,111047,1,0,0:0:0:0:
252,91,111400,1,0,0:0:0:0:
269,78,111753,1,2,3:0:0:0:
288,71,112106,1,0,0:0:0:0:
309,69,112459,1,0,0:0:0:0:
236,0,112635,5,2,0:0:0:0:
331,73,112811,1,0,0:0:0:0:
346,191,112988,1,2,3:0:0:0:
273,286,113164,1,0,0:0:0:0:
155,301,113341,6,0,P|161:232|208:184,1,140,0|0,0:0|3:0,0:0:0:0:
224,370,113871,1,0,0:0:0:0:
203,364,114224,1,0,0:0:0:0:
184,353,114577,1,2,3:0:0:0:
169,339,114930,5,0,0:0:0:0:
204,232,115105,1,0,3:0:0:0:
159,321,115282,2,0,P|127:349|99:357,1,70,2|0,0:0|0:0,0:0:0:0:
35,220,115635,1,0,0:0:0:0:
155,301,115811,1,2,3:0:0:0:
24,364,115988,1,0,0:0:0:0:
118,226,116164,6,0,P|192:226|235:275,1,140,0|0,0:0|3:0,3:0:0:0:
75,315,116694,1,0,0:0:0:0:
74,294,117047,1,0,0:0:0:0:
76,273,117400,1,2,3:0:0:0:
85,254,117752,1,0,0:0:0:0:
98,238,118106,1,0,0:0:0:0:
0,348,118282,5,2,0:0:0:0:
144,378,118458,1,2,3:0:0:0:
242,269,118635,1,0,3:0:0:0:
196,130,118811,1,0,3:0:0:0:
52,99,118988,6,0,P|28:125|71:102,1,140,4|0,0:0|3:0,0:0:0:0:
52,99,119517,1,0,0:0:0:0:
76,111,119870,1,0,3:0:0:0:
78,137,120223,1,2,3:0:0:0:
58,155,120576,1,0,3:0:0:0:
25,145,120929,5,0,0:0:0:0:
0,265,121105,1,2,0:0:0:0:
90,349,121282,1,0,0:0:0:0:
208,312,121459,1,2,3:0:0:0:
236,192,121635,1,0,0:0:0:0:
146,107,121811,6,0,P|116:152|167:134,1,140,0|0,3:0|3:0,3:0:0:0:
146,107,122340,1,0,0:0:0:0:
166,123,122693,1,0,3:0:0:0:
161,149,123046,1,2,3:0:0:0:
137,160,123399,1,0,3:0:0:0:
114,145,123752,5,0,0:0:0:0:
231,109,123929,1,2,0:0:0:0:
322,193,124105,1,0,0:0:0:0:
293,314,124282,1,2,3:0:0:0:
176,350,124458,1,0,0:0:0:0:
105,236,124635,6,0,P|54:219|85:263,1,140,0|0,0:0|3:0,0:0:0:0:
93,214,125164,1,0,0:0:0:0:
65,213,125517,1,0,3:0:0:0:
49,234,125870,1,2,3:0:0:0:
58,258,126223,1,0,3:0:0:0:
86,266,126576,5,0,0:0:0:0:
57,145,126752,1,2,0:0:0:0:
147,61,126929,1,0,0:0:0:0:
264,97,127105,1,2,3:0:0:0:
293,218,127282,1,0,0:0:0:0:
205,301,127458,6,0,P|167:264|218:276,1,140,0|0,3:0|3:0,3:0:0:0:
205,301,127987,1,0,0:0:0:0:
213,274,128340,1,0,3:0:0:0:
197,253,128693,1,2,3:0:0:0:
171,256,129047,1,0,0:0:0:0:
171,256,129223,5,4,0:0:0:0:
336,240,129399,1,0,0:0:0:0:
157,281,129576,5,0,3:0:0:0:
220,152,129752,1,2,3:0:0:0:
171,305,129928,5,0,3:0:0:0:
96,206,130105,1,0,3:0:0:0:
199,185,130282,6,0,L|78:210,1,105,4|0,0:0|0:0,0:0:0:0:
206,102,130635,2,0,L|85:127,1,105
301,163,130988,6,0,L|199:185,1,105
308,80,131341,2,0,L|206:102,1,105
294,248,131694,6,0,L|415:223,1,105
287,331,132047,2,0,L|408:306,1,105
191,269,132400,6,0,L|293:247,1,105
184,352,132753,2,0,L|286:330,1,105
456,229,133105,6,0,L|438:351,1,105,4|0,2:0|0:0,0:0:0:0:
379,193,133458,2,0,L|361:315,1,105
471,124,133811,6,0,L|455:227,1,105
394,89,134164,2,0,L|378:192,1,105
224,118,134517,6,0,L|241:-4,1,105
301,154,134870,2,0,L|318:31,1,105
209,223,135223,6,0,L|224:119,1,105
286,258,135576,2,0,L|301:154,1,105
218,308,135929,6,0,L|120:346,1,105,4|0,2:0|0:0,0:0:0:0:
114,234,136282,2,0,L|212:196,1,105
286,258,136635,6,0,L|383:296,1,105
377,184,136988,2,0,L|280:146,1,105
204,91,137341,6,0,L|106:129,1,105
0,101,137694,2,0,L|38:198,1,105
10,305,138047,6,0,L|107:266,1,105
214,296,138399,2,0,L|175:198,1,105
308,91,138752,6,0,L|405:129,1,105
512,101,139105,2,0,L|473:198,1,105
502,305,139458,6,0,L|404:266,1,105
298,296,139811,2,0,L|336:198,1,105
302,124,140164,5,0,3:0:0:0:
170,46,140341,1,0,0:0:0:0:
210,124,140517,5,0,3:0:0:0:
342,46,140694,1,0,3:0:0:0:
256,274,140871,5,0,3:0:0:0:
256,256,140958,1,0,3:0:0:0:
256,239,141048,1,0,3:0:0:0:
256,221,141136,1,0,3:0:0:0:
256,204,141223,5,0,3:0:0:0:
216,216,141311,1,0,3:0:0:0:
190,248,141399,1,0,3:0:0:0:
187,289,141487,1,0,3:0:0:0:
202,328,141576,6,0,P|273:360|329:334,1,140,4|8,0:0|0:0,0:0:0:0:
310,80,142105,2,0,P|238:47|182:73,1,140
326,214,142635,1,8,0:0:0:0:
186,69,142811,6,0,P|159:143|190:197,1,140
326,339,143341,2,0,P|352:264|321:210,1,140,8|0,0:0|0:0,0:0:0:0:
192,171,143870,5,0,3:0:0:0:
297,76,144047,1,8,0:0:0:0:
326,214,144223,1,0,0:0:0:0:
84,52,144399,5,4,0:0:0:0:
113,188,144576,1,0,3:0:0:0:
218,94,144752,1,8,0:0:0:0:
40,144,144929,6,0,P|33:222|77:266,1,140,0|0,0:0|3:0,0:0:0:0:
280,152,145458,1,8,0:0:0:0:
280,152,145635,2,0,P|299:75|263:25,1,140,0|0,0:0|3:0,0:0:0:0:
209,198,146164,6,0,P|276:236|336:215,1,140,8|0,0:0|3:0,0:0:0:0:
185,114,146694,1,0,3:0:0:0:
255,361,146870,1,8,0:0:0:0:
432,156,147047,2,0,L|386:184,1,35
304,237,147223,6,0,L|244:274,1,70
298,352,147576,1,8,0:0:0:0:
172,334,147752,6,0,P|151:268|178:206,1,140,0|0,0:0|3:0,0:0:0:0:
298,352,148282,2,0,P|231:367|172:334,1,140,8|0,0:0|0:0,0:0:0:0:
362,202,148811,5,0,0:0:0:0:
245,274,148988,1,8,0:0:0:0:
242,136,149164,1,0,3:0:0:0:
366,339,149341,5,8,0:0:0:0:
125,209,149517,1,0,3:0:0:0:
358,65,149694,1,8,0:0:0:0:
245,274,149870,1,0,3:0:0:0:
15,147,150047,5,4,0:0:0:0:
245,274,150223,1,0,1:0:0:0:
240,3,150399,1,0,3:0:0:0:
15,147,150576,5,0,3:0:0:0:
44,215,150664,1,0,3:0:0:0:
100,264,150752,1,0,3:0:0:0:
171,284,150840,1,0,3:0:0:0:
245,274,150928,1,0,1:0:0:0:
376,55,151105,1,2,3:0:0:0:
293,331,151282,6,0,L|289:342,14,8.75,4|0|0|0|0|0|0|0|0|0|0|0|0|0|0,0:0|0:0|0:0|0:0|0:0|0:0|0:0|0:0|0:0|0:0|0:0|0:0|0:0|0:0|0:0,0:0:0:0:
324,258,151635,1,0,3:0:0:0:
374,319,151811,5,2,0:3:0:0:
212,124,151988,2,0,L|199:109,14,13.125000500679,4|0|0|0|0|0|0|0|0|0|0|0|0|0|0,0:3|0:0|0:0|0:0|0:0|0:0|0:0|0:0|0:0|0:0|0:0|0:0|0:0|0:0|0:0,0:0:0:0:
263,183,152341,5,0,0:3:0:0:
38,51,152517,2,0,L|18:37,14,17.5,4|0|0|0|0|0|0|0|0|0|0|0|0|0|0,0:3|0:0|0:0|0:0|0:0|0:0|0:0|0:0|0:0|0:0|0:0|0:0|0:0|0:0|0:0,0:0:0:0:
105,93,152870,5,4,1:0:0:0:
105,93,153223,2,0,L|154:64,1,52.5000020027161,4|0,0:0|0:0,0:0:0:0:
166,148,153399,1,0,0:0:0:0:
199,168,153487,1,0,0:0:0:0:
237,178,153575,1,0,3:0:0:0:
276,177,153663,1,0,3:0:0:0:
314,166,153751,1,0,3:0:0:0:
346,144,153840,1,0,3:0:0:0:
372,114,153928,1,0,3:0:0:0:
388,78,154016,1,0,3:0:0:0:
393,40,154105,6,0,P|343:80|342:219,1,210.000008010865,4|0,0:1|0:0,0:0:0:0:
437,150,154635,1,0,1:0:0:0:
234,50,154811,1,0,0:0:0:0:
234,50,155164,1,0,0:0:0:0:
437,150,155340,1,0,1:0:0:0:
249,276,155517,1,0,0:0:0:0:
143,74,155694,6,0,B|128:53|97:43|97:43|88:95|117:139,1,157.500006008148,4|0,0:0|0:0,0:0:0:0:
164,200,156047,1,0,1:0:0:0:
28,136,156223,1,0,3:0:0:0:
14,142,156311,1,0,3:0:0:0:
0,149,156399,1,0,3:0:0:0:
217,37,156576,1,0,1:0:0:0:
0,149,156752,1,0,3:0:0:0:
313,113,156929,6,0,B|399:112|450:173|450:173|422:181|394:173,1,210.000008010865,4|0,0:0|0:0,0:0:0:0:
345,0,157458,1,0,1:0:0:0:
427,285,157635,1,0,3:0:0:0:
427,285,157988,1,0,0:0:0:0:
316,197,158164,2,0,P|328:253|308:317,1,105.000004005432,0|0,1:0|0:0,0:0:0:0:
171,351,158517,6,0,P|188:275|244:221,1,157.500006008148,4|0,0:0|0:0,0:0:0:0:
316,197,158870,1,0,1:0:0:0:
98,157,159047,1,0,3:0:0:0:
83,154,159135,1,0,3:0:0:0:
68,151,159223,1,0,3:0:0:0:
171,351,159399,1,0,3:0:0:0:
68,151,159576,1,0,1:0:0:0:
15,321,159752,6,0,B|9:346|19:373|19:373|81:322|78:235,1,210.000008010865,4|0,0:0|0:0,0:0:0:0:
74,48,160282,2,0,P|61:99|68:151,1,105.000004005432,0|0,1:0|0:0,0:0:0:0:
182,366,160635,2,0,P|181:313|161:264,1,105.000004005432,0|0,0:0|3:0,0:0:0:0:
67,150,160988,2,0,L|180:172,1,105.000004005432,0|0,1:0|3:0,1:0:0:0:
452,336,161341,6,0,P|384:261|412:165,1,210.000008010865,4|0,0:0|1:0,0:0:0:0:
426,360,161870,1,0,0:0:0:0:
393,370,161958,1,0,3:0:0:0:
358,366,162046,1,0,3:0:0:0:
68,232,162223,5,0,1:0:0:0:
240,304,162399,1,0,3:0:0:0:
389,192,162576,2,0,P|408:136|400:88,1,105.000004005432,4|0,1:0|0:0,0:0:0:0:
240,270,162929,5,0,0:0:0:0:
385,122,163105,1,4,0:0:0:0:
185,71,163282,5,0,3:0:0:0:
240,240,163458,1,0,1:0:0:0:
312,0,163635,5,0,0:0:0:0:
160,64,163811,1,0,1:0:0:0:
240,210,163988,1,0,1:0:0:0:
130,59,164164,6,0,B|114:38|76:32|76:32|63:91|128:153,1,157.500006008148,4|0,1:0|0:0,0:0:0:0:
157,173,164517,1,4,0:0:0:0:
27,153,164694,1,0,3:0:0:0:
11,201,164782,1,0,3:0:0:0:
30,249,164871,1,0,3:0:0:0:
75,274,164959,1,0,3:0:0:0:
125,264,165047,1,0,3:0:0:0:
157,224,165135,1,0,3:0:0:0:
157,173,165223,1,0,3:0:0:0:
102,377,165399,6,0,P|165:341|290:384,1,210.000008010865,4|0,0:1|0:0,0:0:0:0:
157,224,165929,1,0,1:0:0:0:
343,220,166105,1,0,0:0:0:0:
343,220,166458,1,0,0:0:0:0:
276,150,166635,2,0,P|249:194|251:246,1,105.000004005432,0|0,1:0|0:0,0:0:0:0:
487,373,166988,6,0,P|475:296|423:240,1,157.500006008148,4|0,0:0|0:0,0:0:0:0:
343,220,167341,1,0,1:0:0:0:
497,127,167517,2,0,P|482:147|463:166,1,52.5000020027161,0|0,3:0|0:0,0:0:0:0:
343,220,167694,1,0,3:0:0:0:
310,198,167782,1,0,3:0:0:0:
272,189,167870,1,0,3:0:0:0:
233,194,167958,1,0,3:0:0:0:
198,212,168046,1,0,3:0:0:0:
363,259,168223,6,0,P|396:197|308:66,1,210.000008010865,4|0,0:1|0:0,0:0:0:0:
127,46,168752,1,0,1:0:0:0:
287,177,168929,1,0,3:0:0:0:
287,177,169282,1,0,0:0:0:0:
127,46,169458,1,0,1:0:0:0:
93,250,169635,1,0,0:0:0:0:
382,144,169811,5,4,0:0:0:0:
349,349,169987,1,0,0:0:0:0:
188,217,170164,1,0,3:0:0:0:
166,184,170252,1,0,3:0:0:0:
168,146,170340,1,0,3:0:0:0:
199,169,170428,1,0,3:0:0:0:
210,207,170516,1,0,3:0:0:0:
173,358,170694,1,0,0:0:0:0:
97,99,170870,1,0,3:0:0:0:
359,162,171047,5,4,0:1:0:0:
359,162,171399,1,0,0:0:0:0:
199,96,171576,2,0,P|148:87|97:98,1,105.000004005432,0|0,1:0|0:0,0:0:0:0:
359,162,171929,1,0,0:0:0:0:
199,96,172105,1,0,3:0:0:0:
222,267,172282,2,0,P|240:315|275:354,1,105.000004005432,0|0,1:0|0:0,0:0:0:0:
468,260,172635,6,0,P|430:192|359:162,1,157.500006008148,4|0,0:0|0:0,0:0:0:0:
359,162,172988,2,0,P|392:121|408:71,1,105.000004005432,0|0,1:0|0:0,0:0:0:0:
255,163,173341,1,0,3:0:0:0:
408,71,173517,1,0,1:0:0:0:
410,249,173694,1,0,1:0:0:0:
304,73,173870,1,0,3:0:0:0:
272,272,174047,5,4,3:1:0:0:
252,288,174135,1,0,2:0:0:0:
228,300,174223,1,0,2:0:0:0:
202,305,174311,1,0,2:0:0:0:
176,303,174399,5,0,3:0:0:0:
191,267,174487,1,0,3:0:0:0:
219,239,174575,1,0,3:0:0:0:
255,225,174663,1,0,3:0:0:0:
294,225,174752,5,0,1:0:0:0:
348,238,174840,1,0,1:0:0:0:
400,220,174928,1,0,1:0:0:0:
433,177,175016,1,0,1:0:0:0:
438,122,175105,5,0,1:0:0:0:
448,160,175193,1,0,1:0:0:0:
458,198,175281,1,0,1:0:0:0:
468,236,175369,1,0,1:0:0:0:
479,274,175458,6,0,L|423:63,1,210,4|0,1:0|0:0,0:0:0:0:
424,71,175811,1,4,0:0:0:0:
208,320,175988,2,8,P|173:322|140:310,1,70,0|0,0:0|3:0,3:0:0:0:
56,143,176164,1,0,3:0:0:0:
98,77,176252,1,0,3:0:0:0:
168,45,176340,1,0,3:0:0:0:
246,53,176428,1,0,3:0:0:0:
309,99,176516,1,0,3:0:0:0:
301,284,176694,6,0,P|263:189|310:99,1,210.000008010865,4|0,0:0|0:0,0:0:0:0:
267,384,177223,1,0,1:0:0:0:
476,243,177399,2,0,L|381:198,1,105.000004005432,0|0,0:0|3:0,0:0:0:0:
168,98,177752,1,0,1:0:0:0:
380,198,177929,1,0,1:0:0:0:
197,322,178105,1,0,0:0:0:0:
351,108,178282,6,0,L|178:225,1,157.500006008148,4|0,0:0|0:0,0:0:0:0:
133,254,178635,1,0,1:3:0:0:
270,278,178812,1,0,3:0:0:0:
245,237,178900,1,0,3:0:0:0:
220,196,178988,2,0,L|190:152,1,52.5000020027161,0|0,3:0|3:0,0:0:0:0:
65,127,179164,2,0,L|117:123,1,52.5000020027161,0|0,3:0|3:0,0:0:0:0:
202,27,179341,2,0,L|179:73,1,52.5000020027161,0|0,3:0|0:0,0:0:0:0:
133,292,179517,6,0,B|124:316|84:335|84:335|66:261|122:203,1,210.000008010865,4|0,0:1|0:0,0:0:0:0:
14,384,180047,1,0,1:0:0:0:
159,122,180223,1,0,3:0:0:0:
159,122,180576,1,0,3:0:0:0:
133,292,180752,2,0,P|150:353|177:383,1,105.000004005432,0|0,1:0|3:0,0:0:0:0:
301,94,181105,6,0,P|224:82|158:122,1,157.500006008148,4|0,0:0|0:0,0:0:0:0:
108,185,181458,1,0,1:0:0:0:
0,0,181635,1,0,3:0:0:0:
8,13,181723,1,0,3:0:0:0:
16,26,181811,1,0,3:0:0:0:
108,185,181988,1,0,0:0:0:0:
301,93,182164,1,0,1:0:0:0:
108,185,182341,6,0,P|74:264|123:375,1,210.000008010865,4|0,0:0|0:0,0:0:0:0:
20,102,182870,1,0,1:0:0:0:
206,276,183047,1,0,3:0:0:0:
264,28,183223,2,0,P|301:6|363:6,1,105.000004005432,0|0,3:0|0:0,0:0:0:0:
206,276,183576,1,0,1:0:0:0:
20,102,183752,1,0,1:0:0:0:
355,114,183929,6,0,L|204:158,1,157.500006008148,4|0,0:0|0:0,0:0:0:0:
108,185,184282,1,0,1:0:0:0:
264,28,184458,1,0,3:0:0:0:
264,28,184547,1,0,3:0:0:0:
264,28,184635,1,0,3:0:0:0:
230,246,184811,1,0,1:0:0:0:
129,51,184988,1,0,3:0:0:0:
326,150,185164,6,0,L|426:199,1,105.000004005432,4|0,1:0|0:0,0:0:0:0:
230,246,185517,1,0,1:0:0:0:
422,54,185694,1,0,1:0:0:0:
418,338,185870,1,0,3:0:0:0:
271,118,186047,5,0,1:0:0:0:
203,77,186135,1,0,1:0:0:0:
125,81,186223,1,0,1:0:0:0:
63,129,186311,1,0,1:0:0:0:
40,203,186399,1,0,1:0:0:0:
64,277,186488,1,0,3:0:0:0:
127,324,186576,1,0,3:0:0:0:
205,328,186664,1,0,3:0:0:0:
271,285,186752,6,0,P|349:253|459:319,1,210,4|0,1:0|0:0,0:0:0:0:
492,384,187105,1,4,0:0:0:0:
247,182,187282,1,0,3:0:0:0:
222,109,187370,1,0,3:0:0:0:
259,42,187458,1,0,3:0:0:0:
333,22,187546,1,0,3:0:0:0:
397,63,187634,1,0,3:0:0:0:
412,138,187723,1,0,3:0:0:0:
367,200,187811,1,0,3:0:0:0:
177,40,187988,6,0,P|92:59|171:120,1,210.000008010865,4|0,0:1|0:0,0:0:0:0:
333,22,188517,1,0,1:0:0:0:
57,184,188694,2,0,L|147:130,1,105.000004005432,0|0,3:0|0:0,0:0:0:0:
81,308,189047,1,0,3:0:0:0:
126,273,189135,1,0,3:0:0:0:
183,266,189223,1,0,1:0:0:0:
352,337,189399,1,0,3:0:0:0:
356,88,189576,6,0,P|293:72|249:171,1,157.500006008148,4|0,0:0|0:0,0:0:0:0:
414,143,189929,1,0,1:0:0:0:
193,237,190105,2,0,L|242:216,1,52.5000020027161,0|0,3:0|3:0,0:0:0:0:
414,143,190282,1,0,3:0:0:0:
443,98,190370,1,0,3:0:0:0:
448,42,190458,2,0,L|480:106,1,52.5000020027161,0|0,3:0|0:0,0:0:0:0:
407,302,190635,2,0,L|384:256,1,52.5000020027161,0|0,3:0|0:0,0:0:0:0:
188,98,190811,6,0,P|84:74|76:178,1,210.000008010865,4|0,0:1|0:0,0:0:0:0:
236,26,191341,1,0,1:0:0:0:
81,232,191517,1,0,3:0:0:0:
81,232,191870,1,0,0:0:0:0:
255,299,192047,1,0,1:0:0:0:
40,79,192223,1,0,0:0:0:0:
58,315,192399,5,4,0:0:0:0:
112,24,192576,1,0,0:0:0:0:
255,299,192752,1,0,3:0:0:0:
316,346,192840,1,0,3:0:0:0:
393,358,192928,1,0,3:0:0:0:
467,332,193016,1,0,3:0:0:0:
512,273,193104,1,0,3:0:0:0:
242,372,193282,1,0,1:0:0:0:
296,116,193458,1,0,0:0:0:0:
467,332,193635,6,0,P|411:230|323:202,1,210.000008010865,4|0,1:0|0:0,0:0:0:0:
512,143,194164,2,0,L|419:173,1,105.000004005432,0|0,1:0|3:0,0:0:0:0:
233,232,194517,1,0,0:0:0:0:
274,35,194694,1,0,3:0:0:0:
345,256,194870,2,0,L|378:356,1,105.000004005432,0|0,1:0|0:0,0:0:0:0:
61,186,195223,5,4,1:0:0:0:
326,100,195399,1,0,3:0:0:0:
269,373,195576,1,0,1:0:0:0:
151,10,195752,2,0,L|184:110,1,105.000004005432,4|0,0:0|3:0,3:0:0:0:
269,373,196105,5,0,1:0:0:0:
183,109,196282,1,0,3:0:0:0:
87,356,196458,5,0,1:0:0:0:
324,278,196635,1,4,0:0:0:0:
93,47,196811,5,0,1:0:0:0:
161,258,196988,1,0,1:0:0:0:
368,49,197164,5,0,0:0:0:0:
183,109,197341,1,0,1:0:0:0:
348,180,197517,5,0,3:0:0:0:
294,20,197694,1,0,1:0:0:0:
296,255,197870,5,0,1:0:0:0:
429,211,198047,2,4,P|417:127|342:92,1,175,4|4,0:2|1:2,1:2:0:0:
348,180,198576,6,0,P|430:87|328:6,1,280
311,10,199370,1,0,0:0:0:0:
295,20,199458,6,0,P|348:180|399:160,1,280,2|0,0:0|0:0,0:0:0:0:
256,192,200958,12,0,202282,0:0:0:0:
